<?xml version="1.0" standalone="no"?>
<!DOCTYPE svg PUBLIC "-//W3C//DTD SVG 1.1//EN" "http://www.w3.org/Graphics/SVG/1.1/DTD/svg11.dtd" >
<svg xmlns="http://www.w3.org/2000/svg" xmlns:xlink="http://www.w3.org/1999/xlink" version="1.1">
<metadata>
Created by FontForge 20170731 at Wed Jun 24 20:56:00 2020
 By Aleksey,,,
Copyright 2020 The Encode Project Authors (https://github.com/thundernixon/Encode-Sans), with Reserved Font Name 'Encode Sans'.
</metadata>
<defs>
<font id="EncodeSans-Thin" horiz-adv-x="0" >
  <font-face 
    font-family="Encode Sans Thin"
    font-weight="250"
    font-stretch="normal"
    units-per-em="2000"
    panose-1="0 0 0 0 0 0 0 0 0 0"
    ascent="1600"
    descent="-400"
    x-height="1080"
    cap-height="1480"
    bbox="-315 -460 2421 2118"
    underline-thickness="50"
    underline-position="-175"
    unicode-range="U+000D-FB02"
  />
<missing-glyph horiz-adv-x="1214" 
d="M607 -10q-114 0 -214.5 5.5t-216.5 20.5v1438q99 21 216.5 30.5t214.5 9.5t214.5 -9.5t216.5 -30.5v-1438q-116 -15 -216.5 -20.5t-214.5 -5.5zM607 1428q-85 0 -174 -7t-189 -21v-1322q65 -10 153.5 -16t209.5 -6t210 6t153 16v1322q-184 28 -363 28zM941 49l-335 635
l-35 64l-349 659l54 26l330 -623l35 -62l357 -674zM271 49l-57 25l357 674l35 62l330 623l54 -26l-349 -659l-35 -64z" />
    <glyph glyph-name=".notdef" horiz-adv-x="1214" 
d="M607 -10q-114 0 -214.5 5.5t-216.5 20.5v1438q99 21 216.5 30.5t214.5 9.5t214.5 -9.5t216.5 -30.5v-1438q-116 -15 -216.5 -20.5t-214.5 -5.5zM607 1428q-85 0 -174 -7t-189 -21v-1322q65 -10 153.5 -16t209.5 -6t210 6t153 16v1322q-184 28 -363 28zM941 49l-335 635
l-35 64l-349 659l54 26l330 -623l35 -62l357 -674zM271 49l-57 25l357 674l35 62l330 623l54 -26l-349 -659l-35 -64z" />
    <glyph glyph-name=".null" 
 />
    <glyph glyph-name="nonmarkingreturn" horiz-adv-x="666" 
 />
    <glyph glyph-name="NULL" 
 />
    <glyph glyph-name="NULL" 
 />
    <glyph glyph-name="CR" unicode="&#xd;" horiz-adv-x="481" 
 />
    <glyph glyph-name="space" unicode=" " horiz-adv-x="481" 
 />
    <glyph glyph-name="exclam" unicode="!" horiz-adv-x="446" 
d="M199 316l-12 574v590h72v-590l-12 -574h-48zM223 -10q-27 0 -44.5 17t-17.5 45q0 29 17.5 46.5t44.5 17.5t44.5 -17.5t17.5 -46.5q0 -28 -17.5 -45t-44.5 -17z" />
    <glyph glyph-name="quotedbl" unicode="&#x22;" horiz-adv-x="666" 
d="M173 956l-20 660h80l-20 -660h-40zM453 956l-20 660h80l-20 -660h-40z" />
    <glyph glyph-name="numbersign" unicode="#" horiz-adv-x="1100" 
d="M617 0l154 1480h66l-154 -1480h-66zM100 494v66h900v-66h-900zM263 0l154 1480h66l-154 -1480h-66zM100 920v66h900v-66h-900z" />
    <glyph glyph-name="dollar" unicode="$" horiz-adv-x="1010" 
d="M438 -18q-77 0 -165 14t-172 43v68q62 -21 121 -34t114 -19t106 -6q136 0 227.5 37t137.5 110.5t46 181.5q0 138 -79 210t-260 119l-62 16q-185 48 -276 142t-91 248q0 179 120.5 282.5t355.5 103.5q77 0 157.5 -11t148.5 -34v-68q-78 25 -155 36t-155 11
q-133 0 -222 -36.5t-133.5 -107t-44.5 -172.5q0 -134 73 -207t247 -119l62 -16q133 -34 218.5 -86.5t126.5 -128t41 -179.5q0 -128 -56.5 -217t-165.5 -135t-265 -46zM474 -240v240l64 10v-250h-64zM474 1480v240h64v-240h-64z" />
    <glyph glyph-name="percent" unicode="%" horiz-adv-x="1703" 
d="M495 0l642 1480h71l-642 -1480h-71zM421 578q-89 0 -157.5 45t-108 145.5t-39.5 269.5t38.5 270t107.5 145.5t159 44.5q91 0 159.5 -44.5t107 -145.5t38.5 -270t-39 -269.5t-108 -145.5t-158 -45zM421 641q71 0 124.5 36.5t83.5 123t30 235.5q0 151 -30 238t-83.5 124
t-124.5 37t-124.5 -36.5t-83.5 -123t-30 -235.5t30 -236.5t83.5 -125t124.5 -37.5zM1282 -18q-89 0 -158 45t-108 145.5t-39 269.5t39 270t107.5 145.5t158.5 44.5t159 -44.5t107.5 -145.5t38.5 -270t-39 -269.5t-107.5 -145.5t-158.5 -45zM1282 45q71 0 124.5 36.5
t83.5 123t30 235.5q0 151 -30 238t-83.5 124t-124.5 37q-70 0 -123.5 -36.5t-84 -123t-30.5 -235.5t30.5 -236.5t84 -125t123.5 -37.5z" />
    <glyph glyph-name="ampersand" unicode="&#x26;" horiz-adv-x="1434" 
d="M1393 -20l-750 613q-122 100 -192.5 180t-100 156t-29.5 165q0 194 118 299t355 105q66 0 124.5 -7.5t107.5 -21.5v-68q-57 17 -114.5 24t-120.5 7q-137 0 -225 -38.5t-130.5 -114t-42.5 -184.5q0 -77 24 -143t86.5 -138.5t180.5 -168.5l750 -613zM669 -18
q-170 0 -283.5 53.5t-171 148t-57.5 218.5q0 94 31.5 173t92 141t149.5 104l38 -57q-121 -55 -180 -144.5t-59 -210.5q0 -106 47 -187t144.5 -127t250.5 -46q147 0 250.5 46.5t158 142.5t54.5 244q0 67 -11.5 139.5t-34.5 139.5h70q22 -67 32 -138.5t10 -140.5
q0 -163 -62.5 -274t-181.5 -168t-287 -57z" />
    <glyph glyph-name="quotesingle" unicode="'" horiz-adv-x="386" 
d="M173 956l-20 660h80l-20 -660h-40z" />
    <glyph glyph-name="parenleft" unicode="(" horiz-adv-x="626" 
d="M479 -440q-177 227 -259 486.5t-82 541.5t82 542t259 486h79q-123 -156 -199.5 -323t-112.5 -343.5t-36 -361.5t36 -361.5t112.5 -343.5t199.5 -323h-79z" />
    <glyph glyph-name="parenright" unicode=")" horiz-adv-x="626" 
d="M68 -440q123 156 200 323t112.5 343.5t35.5 361.5t-35.5 361.5t-112.5 343.5t-200 323h79q178 -226 259.5 -486t81.5 -542t-81.5 -541.5t-259.5 -486.5h-79z" />
    <glyph glyph-name="asterisk" unicode="*" horiz-adv-x="868" 
d="M460 1208l132 -156l107 -145l-52 -38l-107 145l-106 174l-106 -174l-107 -145l-52 38l107 145l132 156l-198 48l-180 58l20 60l178 -58l190 -78l-16 204v174h64v-174l-16 -204l190 78l178 58l20 -60l-180 -58z" />
    <glyph glyph-name="plus" unicode="+" horiz-adv-x="1062" 
d="M497 378v350h-330v64h330v350h68v-350h330v-64h-330v-350h-68z" />
    <glyph glyph-name="comma" unicode="," horiz-adv-x="406" 
d="M153 -300q27 86 42.5 161t15.5 151l4 -22h-12q-27 0 -44.5 18t-17.5 46q0 27 16.5 44.5t43.5 17.5q29 0 46.5 -19.5t17.5 -64.5q0 -93 -19.5 -177t-48.5 -155h-44z" />
    <glyph glyph-name="hyphen" unicode="-" horiz-adv-x="798" 
d="M167 528v64h464v-64h-464z" />
    <glyph glyph-name="period" unicode="." horiz-adv-x="406" 
d="M203 -10q-27 0 -44.5 17t-17.5 45q0 29 17.5 46.5t44.5 17.5t44.5 -17.5t17.5 -46.5q0 -28 -17.5 -45t-44.5 -17z" />
    <glyph glyph-name="slash" unicode="/" horiz-adv-x="517" 
d="M0 -240l448 1856h69l-448 -1856h-69z" />
    <glyph glyph-name="zero" unicode="0" horiz-adv-x="1198" 
d="M599 -18q-142 0 -248 72.5t-164.5 238.5t-58.5 447t57.5 447.5t163 238.5t250.5 72t250.5 -72t163 -238.5t57.5 -447.5t-58.5 -447t-164 -238.5t-248.5 -72.5zM599 48q120 0 210 61.5t139.5 211.5t49.5 415q0 269 -49.5 420.5t-139.5 213.5t-210 62t-210 -61.5
t-139.5 -211.5t-49.5 -415q0 -269 49.5 -420.5t139.5 -213.5t210 -62z" />
    <glyph glyph-name="one" unicode="1" horiz-adv-x="673" 
d="M405 0v1402l26 3l-408 -299v77l408 301h42v-1484h-68z" />
    <glyph glyph-name="two" unicode="2" horiz-adv-x="936" 
d="M67 0v40l432 595q78 105 124.5 188.5t67 155t20.5 142.5q0 168 -87.5 239.5t-255.5 71.5q-87 0 -164.5 -14t-153.5 -45v68q42 18 93.5 31t108.5 19.5t116 6.5q195 0 304 -89.5t109 -285.5q0 -81 -22 -158.5t-72.5 -167t-137.5 -206.5l-403 -551l-16 24h736v-64h-799z" />
    <glyph glyph-name="three" unicode="3" horiz-adv-x="969" 
d="M398 -18q-87 0 -174.5 15t-166.5 44v68q87 -30 174 -45.5t168 -15.5q208 0 315 88.5t107 256.5q0 157 -100 246t-308 89h-154v66h55q223 0 340.5 88.5t117.5 252.5q0 145 -91 221t-265 76q-82 0 -160.5 -13t-158.5 -43v68q46 18 98.5 30t108.5 18t112 6q205 0 315.5 -95
t110.5 -268q0 -148 -92 -247t-254 -132l1 26q193 -23 293.5 -123.5t100.5 -265.5q0 -130 -56 -221.5t-165.5 -140.5t-271.5 -49z" />
    <glyph glyph-name="four" unicode="4" horiz-adv-x="1128" 
d="M54 384v40l608 1056h76l-610 -1058l-16 26h970v-64h-1028zM794 0v448l14 532h54v-980h-68z" />
    <glyph glyph-name="five" unicode="5" horiz-adv-x="978" 
d="M425 -18q-88 0 -176.5 15.5t-165.5 43.5v68q84 -30 172 -45.5t172 -15.5q209 0 314.5 89.5t105.5 266.5q0 114 -51.5 189.5t-165.5 116t-302 51.5l-185 11l49 708h663v-64h-633l35 24l-45 -648l-52 46l185 -11q201 -12 327.5 -61.5t185.5 -139t59 -221.5
q0 -206 -125.5 -314.5t-366.5 -108.5z" />
    <glyph glyph-name="six" unicode="6" horiz-adv-x="1093" 
d="M618 -18q-107 0 -195 37t-151.5 120t-98 219.5t-34.5 333.5q0 283 66.5 461t194.5 261.5t314 83.5q64 0 130 -9.5t121 -33.5v-68q-56 24 -123 34.5t-129 10.5q-164 0 -276.5 -73.5t-170 -234t-57.5 -420.5v-12q0 -183 29 -307.5t83.5 -198t130 -106t167.5 -32.5
q97 0 174 36.5t121.5 115t44.5 202.5q0 126 -47 205.5t-132.5 117t-201.5 37.5q-66 0 -138.5 -16.5t-139 -53t-113.5 -95.5v83q67 70 174 109t221 39q134 0 234.5 -46.5t156.5 -140.5t56 -236q0 -143 -54 -237t-147 -140t-210 -46z" />
    <glyph glyph-name="seven" unicode="7" horiz-adv-x="892" 
d="M180 0l582 1442l13 -26h-763v64h821v-40l-580 -1440h-73z" />
    <glyph glyph-name="eight" unicode="8" horiz-adv-x="1198" 
d="M610 -18q-160 0 -271.5 45.5t-170 132.5t-58.5 212q0 150 86 257.5t233 156.5l71 -33q-152 -42 -235.5 -141.5t-83.5 -237.5q0 -158 109 -242t321 -84q194 0 299.5 82t105.5 232q0 94 -38 158t-125 108.5t-233 78.5q-165 39 -266 95.5t-147 136.5t-46 188q0 115 52.5 198
t149.5 128t231 45q207 0 324.5 -99.5t117.5 -272.5q0 -94 -34.5 -170.5t-100.5 -133.5t-160 -95l-68 31q155 63 225 148t70 219q0 150 -99 228.5t-276 78.5q-176 0 -268 -81t-92 -222q0 -93 37 -159.5t124 -113.5t237 -82q165 -38 265.5 -92.5t146 -131.5t45.5 -183
q0 -117 -56.5 -203.5t-163.5 -134t-258 -47.5z" />
    <glyph glyph-name="nine" unicode="9" horiz-adv-x="1093" 
d="M475 1498q107 0 195 -37t151.5 -120t98 -219.5t34.5 -333.5q0 -283 -66.5 -461t-194.5 -261.5t-314 -83.5q-64 0 -130 9.5t-121 33.5v68q56 -24 123 -34.5t129 -10.5q164 0 276.5 73.5t170 234t57.5 420.5v12q0 183 -29 307.5t-83.5 198t-130 106t-167.5 32.5
q-97 0 -174 -36.5t-121.5 -115t-44.5 -202.5q0 -126 47 -205.5t132.5 -117t201.5 -37.5q66 0 138.5 16.5t139 53t113.5 95.5v-83q-67 -70 -174 -109t-221 -39q-134 0 -234.5 46.5t-156.5 140.5t-56 236q0 143 54 237t147 140t210 46z" />
    <glyph glyph-name="colon" unicode=":" horiz-adv-x="406" 
d="M203 -10q-27 0 -44.5 17t-17.5 45q0 29 17.5 46.5t44.5 17.5t44.5 -17.5t17.5 -46.5q0 -28 -17.5 -45t-44.5 -17zM203 964q-27 0 -44.5 17t-17.5 45q0 29 17.5 46.5t44.5 17.5t44.5 -17.5t17.5 -46.5q0 -28 -17.5 -45t-44.5 -17z" />
    <glyph glyph-name="semicolon" unicode=";" horiz-adv-x="406" 
d="M153 -300q27 86 42.5 161t15.5 151l4 -22h-12q-27 0 -44.5 18t-17.5 46q0 27 16.5 44.5t43.5 17.5q29 0 46.5 -19.5t17.5 -64.5q0 -93 -19.5 -177t-48.5 -155h-44zM203 964q-27 0 -44.5 17t-17.5 45q0 29 17.5 46.5t44.5 17.5t44.5 -17.5t17.5 -46.5q0 -28 -17.5 -45
t-44.5 -17z" />
    <glyph glyph-name="less" unicode="&#x3c;" horiz-adv-x="1062" 
d="M895 406l-728 328v52l728 328v-72l-664 -294v24l664 -294v-72z" />
    <glyph glyph-name="equal" unicode="=" horiz-adv-x="1062" 
d="M167 910v64h728v-64h-728zM167 546v64h728v-64h-728z" />
    <glyph glyph-name="greater" unicode="&#x3e;" horiz-adv-x="1062" 
d="M167 406v72l664 294v-24l-664 294v72l728 -328v-52z" />
    <glyph glyph-name="question" unicode="?" horiz-adv-x="853" 
d="M360 300l-12 430q139 51 220.5 108t116 129.5t34.5 167.5q0 145 -91.5 221t-265.5 76q-81 0 -159.5 -13t-158.5 -43v68q46 18 98.5 30t108.5 18t112 6q205 0 315.5 -95t110.5 -268q0 -105 -34 -184.5t-115 -143.5t-222 -122l-10 -385h-48zM384 -10q-27 0 -44.5 17.5
t-17.5 44.5q0 29 17.5 46.5t44.5 17.5t44.5 -17.5t17.5 -46.5q0 -27 -16.5 -44.5t-45.5 -17.5z" />
    <glyph glyph-name="at" unicode="@" horiz-adv-x="1815" 
d="M955 -460q-271 1 -457.5 102.5t-283 318t-96.5 559.5q0 341 94 557t271.5 318.5t429.5 102.5q256 0 430.5 -99.5t264 -304t89.5 -520.5q0 -213 -41 -342.5t-109.5 -188.5t-151.5 -59q-82 0 -129.5 39.5t-62.5 102.5h-9q-57 -66 -144.5 -104t-187.5 -38q-144 0 -229 73.5
t-85 209.5q0 135 85 210t264 96l337 41v-66l-338 -41q-143 -17 -208.5 -74t-65.5 -160q0 -109 61 -166t182 -57q88 0 175 39.5t155 130.5v529q0 112 -34.5 173t-100.5 84.5t-160 23.5q-59 0 -134 -11.5t-154 -39.5v68q63 24 141.5 36.5t146.5 12.5q115 0 196 -32t124 -107.5
t43 -207.5v-523q0 -95 33.5 -136.5t102.5 -41.5q59 0 112 49.5t85.5 162.5t32.5 305q0 229 -46 393.5t-136.5 269.5t-224 154.5t-309.5 49.5q-172 0 -306.5 -51t-227 -160t-141 -281.5t-48.5 -415.5q0 -247 49 -422t146 -284.5t240 -160.5t330 -51q94 0 181.5 14.5
t181.5 43.5v-68q-78 -25 -171.5 -40.5t-191.5 -15.5z" />
    <glyph glyph-name="A" unicode="A" horiz-adv-x="1286" 
d="M37 0l563 1480h86l563 -1480h-75l-544 1440h24l-544 -1440h-73zM284 528l20 66h678l20 -66h-718z" />
    <glyph glyph-name="B" unicode="B" horiz-adv-x="1216" 
d="M525 -10q-58 0 -111 2t-107.5 6.5t-116.5 11.5v1450q57 11 112.5 19t118 11.5t136.5 3.5q187 0 304.5 -42t172.5 -127t55 -215q0 -87 -31 -161.5t-102 -125t-191 -67.5l3 15q193 -20 278.5 -122t85.5 -254q0 -99 -33.5 -175t-106 -127t-188 -77t-279.5 -26zM527 56
q201 0 318 37.5t167 112.5t50 189q0 170 -107.5 251.5t-334.5 81.5h-378v66h351q153 0 247 35t137 105.5t43 175.5q0 171 -106.5 244.5t-357.5 73.5q-95 0 -165 -5.5t-133 -17.5v-1333q64 -9 129 -12.5t140 -3.5z" />
    <glyph glyph-name="C" unicode="C" horiz-adv-x="1101" 
d="M729 -18q-135 0 -247 39t-193.5 126.5t-126 232.5t-44.5 358q0 275 76 442t217 242.5t334 75.5q86 0 164.5 -11.5t155.5 -35.5v-68q-82 27 -162 38t-163 11q-173 0 -296 -65.5t-188.5 -217t-65.5 -407.5q0 -266 67 -417.5t188 -214t284 -62.5q86 0 164.5 13.5t171.5 46.5
v-68q-75 -27 -158 -42.5t-178 -15.5z" />
    <glyph glyph-name="D" unicode="D" horiz-adv-x="1343" 
d="M508 -10q-52 0 -100.5 2t-100.5 6.5t-117 11.5v1451q55 11 113 18.5t115 11t111 3.5q345 0 520.5 -185.5t175.5 -568.5q0 -259 -81 -424.5t-240.5 -245.5t-395.5 -80zM510 56q215 0 357.5 71t214 222t71.5 391q0 238 -68.5 390.5t-208.5 225t-352 72.5q-63 0 -129 -5.5
t-137 -16.5v-1334q58 -8 117.5 -12t134.5 -4z" />
    <glyph glyph-name="E" unicode="E" horiz-adv-x="1115" 
d="M190 0v1480h844v-66h-776v-1348h786v-66h-854zM240 728v66h699v-66h-699z" />
    <glyph glyph-name="F" unicode="F" horiz-adv-x="1074" 
d="M190 0v1480h834v-66h-766v-1414h-68zM250 728v66h679v-66h-679z" />
    <glyph glyph-name="G" unicode="G" horiz-adv-x="1301" 
d="M827 -10q-231 0 -388.5 77t-239 242t-81.5 429q0 277 84 443.5t233 241.5t342 75q84 0 165.5 -11.5t164.5 -35.5v-68q-96 29 -176 39t-155 10q-174 0 -305.5 -65.5t-206 -217t-74.5 -409.5q0 -246 71.5 -396.5t213.5 -219t352 -68.5q78 0 142 6.5t121 17.5l-22 -35v675
h68v-703q-92 -15 -162.5 -21t-146.5 -6z" />
    <glyph glyph-name="H" unicode="H" horiz-adv-x="1398" 
d="M190 0v1480h68v-686h882v686h68v-1480h-68v728h-882v-728h-68z" />
    <glyph glyph-name="I" unicode="I" horiz-adv-x="448" 
d="M190 0v1480h68v-1480h-68z" />
    <glyph glyph-name="J" unicode="J" horiz-adv-x="448" 
d="M48 -340l-49 35q66 93 108.5 179.5t62.5 185t20 226.5v1194h68v-1227q0 -121 -22 -217.5t-68.5 -186.5t-119.5 -189z" />
    <glyph glyph-name="K" unicode="K" horiz-adv-x="1183" 
d="M1108 0l-620 758l580 722h83l-590 -730v24l632 -774h-85zM190 0v1480h68v-1480h-68zM242 728v65h290v-65h-290z" />
    <glyph glyph-name="L" unicode="L" horiz-adv-x="1027" 
d="M190 0v1480h68v-1414h756v-66h-824z" />
    <glyph glyph-name="M" unicode="M" horiz-adv-x="1692" 
d="M194 0v1480h75l595 -1248h-32l591 1248h75v-1480h-66v1422h36l-584 -1222h-76l-586 1222h38v-1422h-66z" />
    <glyph glyph-name="N" unicode="N" horiz-adv-x="1427" 
d="M190 0v1480h75l937 -1420h-31v1420h66v-1480h-75l-937 1420h31v-1420h-66z" />
    <glyph glyph-name="O" unicode="O" horiz-adv-x="1368" 
d="M684 -18q-169 0 -296.5 76t-198.5 243t-71 439q0 273 71.5 440t199 242.5t295.5 75.5q170 0 297 -75.5t198 -242.5t71 -440q0 -272 -71.5 -439t-199 -243t-295.5 -76zM684 49q147 0 258.5 65t173.5 215.5t62 406.5q0 260 -62 412t-173.5 217.5t-258.5 65.5t-258 -65
t-173.5 -215.5t-62.5 -406.5q0 -260 62.5 -412t173.5 -217.5t258 -65.5z" />
    <glyph glyph-name="P" unicode="P" horiz-adv-x="1184" 
d="M190 0v1461q85 16 167 24.5t173 8.5q272 0 413.5 -117.5t141.5 -369.5q0 -236 -143 -362.5t-460 -126.5q-59 0 -111.5 3t-112.5 8v-529h-68zM485 584q280 0 404 105.5t124 314.5q0 222 -120 323t-363 101q-76 0 -142.5 -5.5t-129.5 -16.5v-808q55 -7 110 -10.5t117 -3.5z
" />
    <glyph glyph-name="Q" unicode="Q" horiz-adv-x="1368" 
d="M1213 -180q-253 26 -438 70.5t-311.5 114.5t-202.5 171.5t-109.5 240.5t-33.5 323q0 273 71.5 440t199 242.5t295.5 75.5t295.5 -74.5t199 -241t71.5 -442.5q0 -248 -62 -415.5t-185 -253t-303 -85.5q-24 0 -49 1.5t-51 4.5l-5 24q83 -37 188.5 -63t219 -42t220.5 -25z
M684 49q147 0 258.5 65t173.5 215.5t62 406.5q0 260 -62 412t-173.5 217.5t-258.5 65.5t-258 -65t-173.5 -215.5t-62.5 -406.5q0 -260 62.5 -412t173.5 -217.5t258 -65.5z" />
    <glyph glyph-name="R" unicode="R" horiz-adv-x="1266" 
d="M190 0v1461q51 9 104.5 16.5t115 12t135.5 4.5q277 0 409.5 -100.5t132.5 -316.5q0 -141 -65.5 -235.5t-197.5 -142.5t-333 -48q-71 0 -124 3t-109 7v-661h-68zM1110 0l-549 703h85l551 -703h-87zM489 716q283 0 406.5 89.5t123.5 269.5q0 126 -49 204t-154 113.5
t-275 35.5q-89 0 -153 -6t-130 -18v-678q44 -3 78.5 -5.5t70 -3.5t82.5 -1z" />
    <glyph glyph-name="S" unicode="S" horiz-adv-x="1010" 
d="M438 -18q-77 0 -165 14t-172 43v68q62 -21 121 -34t114 -19t106 -6q204 0 307.5 83.5t103.5 245.5q0 138 -79 210t-260 119l-62 16q-185 48 -276 142t-91 248q0 179 120.5 282.5t355.5 103.5q77 0 157.5 -11t148.5 -34v-68q-78 25 -155 36t-155 11q-133 0 -222 -36.5
t-133.5 -107t-44.5 -172.5q0 -134 73 -207t247 -119l62 -16q133 -34 218.5 -86.5t126.5 -128t41 -179.5q0 -128 -56.5 -217t-165.5 -135t-265 -46z" />
    <glyph glyph-name="T" unicode="T" horiz-adv-x="1112" 
d="M522 0v1414h-508v66h1084v-66h-508v-1414h-68z" />
    <glyph glyph-name="U" unicode="U" horiz-adv-x="1372" 
d="M687 -18q-173 0 -285 58t-166 179t-54 310v951h68v-961q0 -243 104.5 -357t332.5 -114q229 0 333 114t104 357v961h66v-951q0 -189 -53.5 -310t-164.5 -179t-285 -58z" />
    <glyph glyph-name="V" unicode="V" horiz-adv-x="1246" 
d="M576 0l-559 1480h75l541 -1440h-16l541 1440h71l-559 -1480h-94z" />
    <glyph glyph-name="W" unicode="W" horiz-adv-x="2021" 
d="M502 0l-433 1480h73l416 -1440h-16l422 1440h94l423 -1440h-16l417 1440h69l-432 -1480h-94l-423 1432h17l-423 -1432h-94z" />
    <glyph glyph-name="X" unicode="X" horiz-adv-x="1222" 
d="M1100 0l-490 688l-41 59l-524 733h85l481 -674l41 -58l534 -748h-86zM35 0l534 747l42 59l482 674h83l-524 -732l-42 -60l-491 -688h-84z" />
    <glyph glyph-name="Y" unicode="Y" horiz-adv-x="1112" 
d="M522 0v707l18 -55l-559 828h83l510 -760h-34l503 760h80l-551 -828l18 55v-707h-68z" />
    <glyph glyph-name="Z" unicode="Z" horiz-adv-x="1103" 
d="M63 0v40l887 1401l14 -25h-889v64h953v-40l-887 -1401l-14 25h913v-64h-977z" />
    <glyph glyph-name="bracketleft" unicode="[" horiz-adv-x="626" 
d="M210 -440v2056h456v-64h-388v-1928h388v-64h-456z" />
    <glyph glyph-name="backslash" unicode="\" horiz-adv-x="521" 
d="M450 -240l-450 1856h71l450 -1856h-71z" />
    <glyph glyph-name="bracketright" unicode="]" horiz-adv-x="626" 
d="M-40 -440v64h388v1928h-388v64h456v-2056h-456z" />
    <glyph glyph-name="asciicircum" unicode="^" horiz-adv-x="1100" 
d="M114 740l388 740h94l390 -740h-79l-361 696h8l-361 -696h-79z" />
    <glyph glyph-name="underscore" unicode="_" horiz-adv-x="1072" 
d="M95 -64v64h882v-64h-882z" />
    <glyph glyph-name="grave" unicode="`" horiz-adv-x="1000" 
d="M568 1264l-222 352h78l208 -352h-64z" />
    <glyph glyph-name="a" unicode="a" horiz-adv-x="979" 
d="M422 -16q-144 0 -229 74t-85 209t86 210.5t273 96.5l327 39l3 -66l-332 -39q-150 -17 -216.5 -74.5t-66.5 -160.5q0 -109 61 -166t182 -57q88 0 175 39.5t155 130.5v526q0 113 -35 174.5t-101.5 85.5t-161.5 24q-61 0 -136.5 -11.5t-154.5 -39.5v68q63 24 141.5 36.5
t149.5 12.5q116 0 198 -32t125 -108.5t43 -209.5v-746h-60l-6 128h-8q-55 -67 -141 -105.5t-186 -38.5z" />
    <glyph glyph-name="b" unicode="b" horiz-adv-x="1071" 
d="M454 -18q-72 0 -145.5 11t-138.5 31v1592h68v-651h6q51 56 130 93.5t180 37.5q113 0 205.5 -50t148 -167.5t55.5 -318.5q0 -297 -131.5 -437.5t-377.5 -140.5zM458 48q212 0 322.5 119t110.5 385q0 187 -45 290.5t-122.5 145.5t-173.5 42q-89 0 -172.5 -39t-139.5 -122
v-791q42 -12 100 -21t120 -9z" />
    <glyph glyph-name="c" unicode="c" horiz-adv-x="826" 
d="M538 -18q-137 0 -233 56.5t-146.5 179.5t-50.5 322t54.5 321.5t160.5 178.5t260 56q51 0 106 -7t104 -22v-68q-53 16 -106 23.5t-102 7.5q-135 0 -225 -46t-135 -152.5t-45 -287.5q0 -183 41.5 -292t123 -156.5t200.5 -47.5q53 0 114 11.5t134 37.5v-68
q-65 -24 -128.5 -35.5t-126.5 -11.5z" />
    <glyph glyph-name="d" unicode="d" horiz-adv-x="1071" 
d="M523 -18q-117 0 -211 52t-149 169.5t-55 314.5q0 199 59.5 327t175 189.5t284.5 61.5q54 0 107.5 -5t98.5 -13v538h68v-1616h-60l-6 119h-8q-49 -59 -127.5 -98t-176.5 -39zM526 48q87 0 169.5 40.5t137.5 128.5v790q-42 11 -98 17t-111 6q-219 0 -331.5 -118
t-112.5 -386q0 -184 44.5 -288t122.5 -147t179 -43z" />
    <glyph glyph-name="e" unicode="e" horiz-adv-x="984" 
d="M572 -18q-147 0 -251 56.5t-158.5 179.5t-54.5 322q0 197 50.5 319.5t140 179.5t208.5 57q120 0 206.5 -57t133 -179.5t46.5 -319.5v-30h-752v66h708l-27 -26q0 177 -37.5 282.5t-108 151.5t-169.5 46t-172.5 -46t-114 -151t-40.5 -283v-15q0 -178 46.5 -285t135 -154.5
t214.5 -47.5q61 0 125.5 12.5t141.5 36.5v-68q-73 -24 -139 -35.5t-132 -11.5z" />
    <glyph glyph-name="f" unicode="f" horiz-adv-x="667" 
d="M235 0v1293q0 116 38 192t113 113.5t187 37.5q33 0 70 -3t70 -9v-68q-35 7 -71 10.5t-73 3.5q-132 0 -199 -61.5t-67 -212.5v-1296h-68zM15 1016v64h659v-64h-659z" />
    <glyph glyph-name="g" unicode="g" horiz-adv-x="1071" 
d="M466 -460q-67 0 -147.5 13.5t-145.5 37.5v68q81 -27 153 -40t141 -13q185 0 275.5 84.5t90.5 297.5v125h-6q-50 -55 -128.5 -93t-181.5 -38q-112 0 -205 50.5t-148.5 167.5t-55.5 318q0 298 131.5 438t377.5 140q49 0 98.5 -5t96.5 -14.5t89 -22.5v-1061
q0 -245 -110 -349t-325 -104zM521 48q88 0 172.5 39.5t139.5 121.5v794q-42 12 -99.5 19.5t-120.5 7.5q-211 0 -322 -118t-111 -386q0 -186 45.5 -290t122.5 -146t173 -42z" />
    <glyph glyph-name="h" unicode="h" horiz-adv-x="1087" 
d="M170 0v1616h68v-663h6q72 72 163 107.5t190 35.5q98 0 173.5 -34t118 -112t42.5 -211v-739h-68v740q0 163 -74 225.5t-195 62.5q-59 0 -123 -17t-125 -55.5t-108 -103.5v-852h-68z" />
    <glyph glyph-name="i" unicode="i" horiz-adv-x="408" 
d="M170 0v1080h68v-1080h-68zM204 1360q-27 0 -44.5 17t-17.5 45q0 29 17.5 46.5t44.5 17.5t44.5 -17.5t17.5 -46.5q0 -28 -17.5 -45t-44.5 -17z" />
    <glyph glyph-name="j" unicode="j" horiz-adv-x="408" 
d="M28 -460l-49 35q67 92 109 182t62 189.5t20 219.5v914h68v-907q0 -130 -22 -236t-68.5 -202t-119.5 -195zM204 1366q-27 0 -44.5 17t-17.5 45q0 29 17.5 46.5t44.5 17.5t44.5 -17.5t17.5 -46.5q0 -28 -17.5 -45t-44.5 -17z" />
    <glyph glyph-name="k" unicode="k" horiz-adv-x="957" 
d="M887 0l-464 552l433 528h84l-440 -539v22l472 -563h-85zM222 520v64h244v-64h-244zM170 0v1616h68v-1616h-68z" />
    <glyph glyph-name="l" unicode="l" horiz-adv-x="408" 
d="M170 0v1616h68v-1616h-68z" />
    <glyph glyph-name="m" unicode="m" horiz-adv-x="1632" 
d="M170 0v1080h60l6 -130h8q65 74 147.5 110t170.5 36q87 0 154.5 -34t105.5 -112t38 -211v-739h-68v738q0 165 -65.5 228.5t-171.5 63.5q-51 0 -108.5 -18t-111.5 -58t-97 -107v-847h-68zM1408 0v738q0 165 -68 228.5t-174 63.5q-51 0 -112.5 -19t-120.5 -65.5t-102 -128.5
l-26 84q82 111 180 153t185 42q88 0 157.5 -34t109 -112t39.5 -211v-739h-68z" />
    <glyph glyph-name="n" unicode="n" horiz-adv-x="1087" 
d="M170 0v1080h60l6 -129h8q70 70 161 107.5t191 37.5q99 0 174.5 -34t118 -112.5t42.5 -211.5v-738h-68v738q0 163 -72.5 227.5t-196.5 64.5q-56 0 -120 -16.5t-126 -55.5t-110 -105v-853h-68z" />
    <glyph glyph-name="o" unicode="o" horiz-adv-x="1058" 
d="M529 -18q-126 0 -220.5 56t-147.5 179t-53 323q0 199 53 321.5t147.5 178.5t220.5 56t221 -55.5t147.5 -177.5t52.5 -323q0 -198 -52.5 -321t-147.5 -180t-221 -57zM529 48q106 0 184.5 46t121.5 153.5t43 289.5q0 186 -43 293.5t-121.5 153.5t-184.5 46t-184.5 -45.5
t-121.5 -152t-43 -289.5q0 -185 43 -293.5t121.5 -155t184.5 -46.5z" />
    <glyph glyph-name="p" unicode="p" horiz-adv-x="1071" 
d="M170 -440v1520h60l7 -121h7q50 61 128.5 99t175.5 38q115 0 209.5 -50t150 -167.5t55.5 -318.5q0 -198 -59 -326t-174.5 -190t-285.5 -62q-53 0 -107 5.5t-99 11.5v-439h-68zM447 48q220 0 332 119t112 385q0 187 -45 290.5t-123.5 145.5t-177.5 42q-86 0 -168.5 -40
t-138.5 -129v-790q42 -10 99 -16.5t110 -6.5z" />
    <glyph glyph-name="q" unicode="q" horiz-adv-x="1071" 
d="M833 -440v553h-6q-50 -55 -128.5 -93t-181.5 -38q-112 0 -205 50.5t-148.5 167.5t-55.5 318q0 298 131.5 438t377.5 140q49 0 98.5 -5t96.5 -14.5t89 -22.5v-1494h-68zM521 48q88 0 172.5 39.5t139.5 121.5v794q-42 12 -99.5 19.5t-120.5 7.5q-211 0 -322 -118t-111 -386
q0 -186 45.5 -290t122.5 -146t173 -42z" />
    <glyph glyph-name="r" unicode="r" horiz-adv-x="673" 
d="M170 0v1080h60l6 -147h8q61 75 151 115t181 40q25 0 44.5 -1.5t39.5 -5.5v-68q-21 4 -40.5 4.5t-44.5 0.5q-57 0 -119.5 -19.5t-119.5 -60t-98 -102.5v-836h-68z" />
    <glyph glyph-name="s" unicode="s" horiz-adv-x="856" 
d="M392 -18q-74 0 -140.5 10t-131.5 31v68q80 -24 144.5 -33.5t130.5 -9.5q160 0 235 59.5t75 166.5q0 94 -47.5 144t-159.5 74l-129 28q-145 34 -205 105t-60 178q0 126 93.5 209.5t287.5 83.5q64 0 121 -7t114 -23v-68q-66 19 -120 25.5t-115 6.5q-111 0 -179 -29.5
t-99.5 -80t-31.5 -114.5q0 -81 44 -135t155 -79l129 -28q153 -34 213 -104t60 -180q0 -137 -96 -217.5t-288 -80.5z" />
    <glyph glyph-name="t" unicode="t" horiz-adv-x="694" 
d="M542 -18q-147 0 -231 77.5t-84 250.5v770l8 400h60v-1158q0 -150 64.5 -212t186.5 -62q33 0 67 5t75 14v-68q-39 -9 -74 -13t-72 -4zM7 1016v64h659v-64h-659z" />
    <glyph glyph-name="u" unicode="u" horiz-adv-x="1077" 
d="M486 -18q-96 0 -170.5 34t-117 112.5t-42.5 210.5v741h68v-742q0 -162 74 -226t190 -64q57 0 121 17.5t124 56.5t106 103v855h68v-1080h-60l-6 124h-8q-70 -71 -160.5 -106.5t-186.5 -35.5z" />
    <glyph glyph-name="v" unicode="v" horiz-adv-x="995" 
d="M451 0l-426 1080h76l407 -1044h-18l407 1044h73l-426 -1080h-93z" />
    <glyph glyph-name="w" unicode="w" horiz-adv-x="1624" 
d="M401 0l-331 1080h73l314 -1040h-16l325 1040h94l326 -1040h-16l313 1040h71l-330 -1080h-94l-326 1034h17l-326 -1034h-94z" />
    <glyph glyph-name="x" unicode="x" horiz-adv-x="941" 
d="M829 0l-359 490l-41 54l-393 536h86l350 -479l41 -55l402 -546h-86zM29 0l400 544l43 57l351 479h83l-393 -534l-43 -56l-356 -490h-85z" />
    <glyph glyph-name="y" unicode="y" horiz-adv-x="995" 
d="M299 -440l174 440l17 36l407 1044h73l-599 -1520h-72zM451 0l-426 1080h76l420 -1080h-70z" />
    <glyph glyph-name="z" unicode="z" horiz-adv-x="865" 
d="M61 0v40l658 1001v-25h-646v64h723v-40l-658 -1001v25h670v-64h-747z" />
    <glyph glyph-name="braceleft" unicode="{" horiz-adv-x="666" 
d="M586 -460q-166 0 -251 81t-85 245v538q0 100 -46 143t-138 43h-15v64h15q92 0 138 44t46 142v470q0 165 85 245.5t251 80.5q33 0 65.5 -2.5t54.5 -7.5v-56h-124q-132 0 -198 -59.5t-66 -193.5v-467q0 -102 -35 -158t-109 -76v12q74 -19 109 -75.5t35 -158.5v-535
q0 -133 66 -193t198 -60h124v-56q-22 -4 -54.5 -7t-65.5 -3z" />
    <glyph glyph-name="bar" unicode="|" horiz-adv-x="448" 
d="M190 -440v2056h68v-2056h-68z" />
    <glyph glyph-name="braceright" unicode="}" horiz-adv-x="666" 
d="M80 -460q-33 0 -65 3t-55 7v56h124q133 0 198.5 60t65.5 193v535q0 102 35.5 158.5t108.5 75.5v-12q-73 20 -108.5 76t-35.5 158v467q0 134 -65.5 193.5t-198.5 59.5h-124v56q23 5 55 7.5t65 2.5q167 0 251.5 -80.5t84.5 -245.5v-470q0 -98 46.5 -142t137.5 -44h15v-64
h-15q-91 0 -137.5 -43t-46.5 -143v-538q0 -164 -84.5 -245t-251.5 -81z" />
    <glyph glyph-name="asciitilde" unicode="~" horiz-adv-x="1062" 
d="M703 664q-52 0 -99.5 20.5t-91.5 42.5q-40 20 -77 36.5t-74 16.5q-57 0 -105 -27t-89 -81v82q68 90 192 90q53 0 100.5 -20t90.5 -43q40 -20 77 -36.5t74 -16.5q57 0 105.5 27t88.5 81v-82q-68 -90 -192 -90z" />
    <glyph glyph-name="uni00A0" unicode="&#xa0;" horiz-adv-x="481" 
 />
    <glyph glyph-name="exclamdown" unicode="&#xa1;" horiz-adv-x="446" 
d="M199 764h48l12 -574v-570h-72v570zM223 1090q27 0 44.5 -16.5t17.5 -45.5q0 -28 -17.5 -46t-44.5 -18t-44.5 18t-17.5 46q0 29 17.5 45.5t44.5 16.5z" />
    <glyph glyph-name="cent" unicode="&#xa2;" horiz-adv-x="831" 
d="M538 -18q-137 0 -233 56.5t-146.5 179.5t-50.5 322t54.5 321.5t160.5 178.5t261 56q52 0 104.5 -7t104.5 -22v-68q-55 16 -108 23.5t-104 7.5q-134 0 -223.5 -46t-133.5 -152.5t-44 -287.5q0 -183 41.5 -292t123 -156.5t200.5 -47.5q53 0 114 11.5t134 37.5v-68
q-65 -24 -128.5 -35.5t-126.5 -11.5zM506 -240v240h64v-240h-64zM506 1080v240h64v-240h-64z" />
    <glyph glyph-name="sterling" unicode="&#xa3;" horiz-adv-x="1222" 
d="M314 32v1034q0 223 124.5 327.5t358.5 104.5q78 0 158.5 -11t148.5 -34v-68q-78 25 -155 36t-155 11q-133 0 -225 -36t-139.5 -116.5t-47.5 -213.5v-1034h-68zM80 0v64h1062v-64h-1062zM80 718v64h854v-64h-854z" />
    <glyph glyph-name="currency" unicode="&#xa4;" horiz-adv-x="1100" 
d="M326 940l-116 88l-102 96l56 56l96 -100l90 -118zM774 940l-24 22l90 118l96 100l56 -56l-102 -96zM934 300l-96 100l-78 104l24 26l106 -78l100 -96zM166 300l-56 56l100 96l106 78l24 -26l-78 -104zM550 411q-94 0 -163.5 41t-108.5 115t-39 173q0 98 39 172
t108.5 114.5t163.5 40.5q93 0 163 -40.5t109 -114.5t39 -172q0 -99 -39 -173t-109 -115t-163 -41zM550 473q112 0 180.5 70t68.5 197q0 118 -63.5 192.5t-183.5 74.5q-112 0 -181.5 -70.5t-69.5 -196.5q0 -125 69.5 -196t179.5 -71z" />
    <glyph glyph-name="yen" unicode="&#xa5;" horiz-adv-x="1164" 
d="M548 0v707l18 -55l-555 828h83l506 -760h-34l507 760h80l-555 -828l18 55v-707h-68zM228 320v64h708v-64h-708zM228 664v64h708v-64h-708z" />
    <glyph glyph-name="brokenbar" unicode="&#xa6;" horiz-adv-x="448" 
d="M190 836v780h68v-780h-68zM190 -440v780h68v-780h-68z" />
    <glyph glyph-name="section" unicode="&#xa7;" horiz-adv-x="960" 
d="M422 -18q-74 0 -140.5 10t-131.5 31v68q80 -24 144.5 -33.5t130.5 -9.5q107 0 175.5 26.5t101.5 77t33 122.5q0 94 -47.5 144t-159.5 74l-129 28q-145 34 -205 105t-60 178q0 69 31.5 127.5t88.5 97.5l51 -43q-52 -30 -78 -76.5t-26 -102.5q0 -81 46 -136t157 -80
l129 -28q153 -34 213 -103t60 -179q0 -137 -96 -217.5t-288 -80.5zM712 453l-53 41q50 29 75 74.5t25 105.5q0 94 -49.5 145t-161.5 75l-129 28q-145 34 -205 104t-60 177q0 84 41.5 150t126 104.5t213.5 38.5q64 0 121 -7t114 -23v-68q-66 19 -120 25.5t-115 6.5
q-111 0 -179 -29.5t-99.5 -80t-31.5 -114.5q0 -81 44 -135t155 -79l129 -28q153 -34 213 -104t60 -180q0 -73 -29.5 -130t-84.5 -97z" />
    <glyph glyph-name="dieresis" unicode="&#xa8;" horiz-adv-x="1000" 
d="M800 1360q-27 0 -44.5 17t-17.5 45q0 29 17.5 46.5t44.5 17.5t44.5 -17.5t17.5 -46.5q0 -28 -17.5 -45t-44.5 -17zM400 1360q-27 0 -44.5 17t-17.5 45q0 29 17.5 46.5t44.5 17.5t44.5 -17.5t17.5 -46.5q0 -28 -17.5 -45t-44.5 -17z" />
    <glyph glyph-name="copyright" unicode="&#xa9;" horiz-adv-x="1724" 
d="M862 -22q-223 0 -390.5 95t-260.5 266.5t-93 400.5t93 400.5t260.5 266.5t390.5 95t390.5 -95t260.5 -266.5t93 -400.5t-93 -400.5t-260.5 -266.5t-390.5 -95zM896 324q-172 0 -278 103t-106 307q0 197 106 303.5t304 106.5q51 0 97.5 -6.5t94.5 -21.5v-66
q-46 14 -91.5 21t-98.5 7q-163 0 -251.5 -83t-88.5 -257q0 -178 85.5 -263t232.5 -85q44 0 97.5 9t114.5 33v-66q-51 -22 -105 -32t-113 -10zM862 46q203 0 355 86.5t236.5 242.5t84.5 365t-84.5 365t-236.5 242.5t-355 86.5t-355 -86.5t-236.5 -242.5t-84.5 -365t84.5 -365
t236.5 -242.5t355 -86.5z" />
    <glyph glyph-name="ordfeminine" unicode="&#xaa;" horiz-adv-x="828" 
d="M352 596q-122 0 -194 61.5t-72 169.5q0 109 72.5 170.5t232.5 78.5l277 30l3 -59l-279 -30q-126 -13 -182 -58t-56 -126q0 -84 51.5 -129.5t153.5 -45.5q73 0 145.5 31.5t129.5 100.5v415q0 89 -29.5 138t-86 68t-138.5 19q-51 0 -114 -10t-129 -33v64q55 21 120.5 31
t125.5 10q102 0 172.5 -26.5t106.5 -89.5t36 -173v-593h-56l-6 102h-6q-48 -53 -121 -84.5t-157 -31.5z" />
    <glyph glyph-name="guillemotleft" unicode="&#xab;" horiz-adv-x="881" 
d="M384 140l-256 420l256 420h74l-256 -420l256 -420h-74zM719 140l-256 420l256 420h74l-256 -420l256 -420h-74z" />
    <glyph glyph-name="logicalnot" unicode="&#xac;" horiz-adv-x="1334" 
d="M1110 192v536h-943v64h1011v-600h-68z" />
    <glyph glyph-name="uni00AD" unicode="&#xad;" horiz-adv-x="798" 
d="M167 528v64h464v-64h-464z" />
    <glyph glyph-name="registered" unicode="&#xae;" horiz-adv-x="1540" 
d="M770 268q-181 0 -318.5 77.5t-214.5 216t-77 320.5t77 321t214.5 217t318.5 78t318.5 -78t214.5 -217t77 -321t-77 -320.5t-214.5 -216t-318.5 -77.5zM948 600l-160 234l60 26l176 -260h-76zM770 334q164 0 286 68t189 191t67 289t-67 289.5t-189 192t-286 68.5
t-286 -68.5t-189 -192t-67 -289.5t67 -289t189 -191t286 -68zM562 600v592h194q120 0 182 -48.5t62 -135.5t-61 -134.5t-183 -47.5h-128v-226h-66zM628 888h140q166 0 166 120q0 122 -166 122h-140v-242z" />
    <glyph glyph-name="macron" unicode="&#xaf;" horiz-adv-x="1000" 
d="M317 1394v59h566v-59h-566z" />
    <glyph glyph-name="degree" unicode="&#xb0;" horiz-adv-x="984" 
d="M492 832q-97 0 -171.5 43t-117.5 118t-43 171t43 171t117.5 118t171.5 43t172 -43t117.5 -118t42.5 -171t-42.5 -171t-117.5 -118t-172 -43zM492 896q117 0 191 72.5t74 195.5q0 124 -74 196t-191 72q-116 0 -190.5 -72t-74.5 -196q0 -122 74.5 -195t190.5 -73z" />
    <glyph glyph-name="plusminus" unicode="&#xb1;" horiz-adv-x="1062" 
d="M497 316v350h-330v64h330v350h68v-350h330v-64h-330v-350h-68zM167 0v64h728v-64h-728z" />
    <glyph glyph-name="uni00B2" unicode="&#xb2;" horiz-adv-x="749" 
d="M94 616v39l300 396q80 103 114.5 175t34.5 140q0 107 -60.5 153.5t-175.5 46.5q-63 0 -118 -9.5t-107 -30.5v64q46 19 104.5 28.5t123.5 9.5q142 0 220.5 -61t78.5 -197q0 -81 -37.5 -160t-127.5 -195l-275 -358l-10 21h498v-62h-563z" />
    <glyph glyph-name="uni00B3" unicode="&#xb3;" horiz-adv-x="749" 
d="M314 604q-62 0 -124 10t-118 29v64q60 -21 122.5 -31.5t119.5 -10.5q143 0 216 57t73 164q0 100 -68 156.5t-212 56.5h-113v62h48q152 0 231.5 56t79.5 160q0 94 -63 142t-183 48q-56 0 -112 -8.5t-112 -30.5v64q48 18 107.5 27t119.5 9q148 0 227.5 -64.5t79.5 -183.5
q0 -99 -63 -164t-172 -88v17q131 -15 200 -83t69 -179q0 -132 -89.5 -205.5t-263.5 -73.5z" />
    <glyph glyph-name="acute" unicode="&#xb4;" horiz-adv-x="1000" 
d="M568 1264l208 352h78l-222 -352h-64z" />
    <glyph glyph-name="uni00B5" unicode="&#xb5;" horiz-adv-x="1077" 
d="M486 -18q-96 0 -165.5 34t-107 112.5t-37.5 210.5v131h48v-132q0 -162 74 -226t190 -64q57 0 121 17.5t124 56.5t106 103v855h68v-1080h-60l-6 124h-8q-70 -71 -160.5 -106.5t-186.5 -35.5zM156 -440v1520h68v-1520h-68z" />
    <glyph glyph-name="paragraph" unicode="&#xb6;" horiz-adv-x="1184" 
d="M728 0v528q-40 -5 -77.5 -7.5t-82.5 -2.5q-245 0 -357 126.5t-112 362.5q0 252 111 369.5t320 117.5q73 0 140 -4t126 -10v-1480h-68zM926 0v1480h68v-1480h-68z" />
    <glyph glyph-name="periodcentered" unicode="&#xb7;" horiz-adv-x="406" 
d="M203 496q-27 0 -44.5 17t-17.5 45q0 29 17.5 46.5t44.5 17.5t44.5 -17.5t17.5 -46.5q0 -28 -17.5 -45t-44.5 -17z" />
    <glyph glyph-name="cedilla" unicode="&#xb8;" horiz-adv-x="1000" 
d="M608 -400q-41 0 -86 10t-77 27v56q45 -23 86.5 -32t79.5 -9q60 0 89 23t29 68q0 93 -120 93h-32v184h56v-162l-23 29q84 0 129 -37.5t45 -106.5q0 -66 -46 -104.5t-130 -38.5z" />
    <glyph glyph-name="uni00B9" unicode="&#xb9;" horiz-adv-x="749" 
d="M385 636v923l23 -11l-268 -199v72l268 199h41v-984h-64zM145 616v62h532v-62h-532z" />
    <glyph glyph-name="ordmasculine" unicode="&#xba;" horiz-adv-x="904" 
d="M452 596q-159 0 -259.5 106t-100.5 344q0 239 100.5 342.5t259.5 103.5q160 0 260 -103.5t100 -342.5q0 -159 -45.5 -258t-126.5 -145.5t-188 -46.5zM452 659q89 0 154.5 37t101.5 121.5t36 228.5t-36 228t-101.5 119.5t-154.5 35.5t-154.5 -35.5t-101.5 -119.5t-36 -228
t36 -228.5t101.5 -121.5t154.5 -37z" />
    <glyph glyph-name="guillemotright" unicode="&#xbb;" horiz-adv-x="881" 
d="M88 140l256 420l-256 420h74l256 -420l-256 -420h-74zM423 140l256 420l-256 420h74l256 -420l-256 -420h-74z" />
    <glyph glyph-name="onequarter" unicode="&#xbc;" horiz-adv-x="1721" 
d="M385 636v923l23 -11l-268 -199v72l268 199h41v-984h-64zM145 616v62h532v-62h-532zM434 -136l787 1752h66l-787 -1752h-66zM1005 116v40l388 708h68l-388 -709l-14 21h635v-60h-689zM1486 -136v312l12 350h50v-662h-62z" />
    <glyph glyph-name="onehalf" unicode="&#xbd;" horiz-adv-x="1721" 
d="M385 636v923l23 -11l-268 -199v72l268 199h41v-984h-64zM145 616v62h532v-62h-532zM434 -136l787 1752h66l-787 -1752h-66zM1066 -136v39l300 396q80 103 114.5 175t34.5 140q0 107 -60.5 153.5t-175.5 46.5q-63 0 -118 -9.5t-107 -30.5v64q46 19 104.5 28.5t123.5 9.5
q142 0 221 -61t78 -197q0 -81 -37.5 -160t-127.5 -195l-275 -358l-10 21h498v-62h-563z" />
    <glyph glyph-name="threequarters" unicode="&#xbe;" horiz-adv-x="1721" 
d="M314 604q-62 0 -124 10t-118 29v64q60 -21 122.5 -31.5t119.5 -10.5q143 0 216 57t73 164q0 100 -68 156.5t-212 56.5h-113v62h48q152 0 231.5 56t79.5 160q0 94 -63 142t-183 48q-56 0 -112 -8.5t-112 -30.5v64q48 18 107.5 27t119.5 9q148 0 227.5 -64.5t79.5 -183.5
q0 -99 -63 -164t-172 -88v17q131 -15 200 -83t69 -179q0 -132 -89.5 -205.5t-263.5 -73.5zM434 -136l787 1752h66l-787 -1752h-66zM1005 116v40l388 708h68l-388 -709l-14 21h635v-60h-689zM1486 -136v312l12 350h50v-662h-62z" />
    <glyph glyph-name="questiondown" unicode="&#xbf;" horiz-adv-x="853" 
d="M493 780l12 -430q-139 -50 -220 -107t-116 -127.5t-35 -162.5q0 -137 91.5 -212t265.5 -75q82 0 160.5 13.5t157.5 42.5v-68q-46 -17 -98 -29t-108 -18.5t-113 -6.5q-204 0 -315 94.5t-111 258.5q0 101 34.5 179.5t115.5 142t221 120.5l10 385h48zM469 1090
q27 0 44.5 -17.5t17.5 -44.5q0 -28 -17.5 -46t-44.5 -18t-44.5 18t-17.5 46q0 27 17 44.5t45 17.5z" />
    <glyph glyph-name="Agrave" unicode="&#xc0;" horiz-adv-x="1286" 
d="M37 0l563 1480h86l563 -1480h-75l-544 1440h24l-544 -1440h-73zM284 528l20 66h678l20 -66h-718zM612 1616l-190 272h79l175 -272h-64z" />
    <glyph glyph-name="Aacute" unicode="&#xc1;" horiz-adv-x="1286" 
d="M37 0l563 1480h86l563 -1480h-75l-544 1440h24l-544 -1440h-73zM284 528l20 66h678l20 -66h-718zM612 1616l175 272h79l-190 -272h-64z" />
    <glyph glyph-name="Acircumflex" unicode="&#xc2;" horiz-adv-x="1286" 
d="M37 0l563 1480h86l563 -1480h-75l-544 1440h24l-544 -1440h-73zM284 528l20 66h678l20 -66h-718zM366 1616l240 272h76l240 -272h-81l-210 243h26l-210 -243h-81z" />
    <glyph glyph-name="Atilde" unicode="&#xc3;" horiz-adv-x="1286" 
d="M37 0l563 1480h86l563 -1480h-75l-544 1440h24l-544 -1440h-73zM284 528l20 66h678l20 -66h-718zM788 1697q-44 0 -83 13t-75 28q-33 14 -65 24.5t-65 10.5q-49 0 -85.5 -17.5t-69.5 -53.5v67q27 30 65.5 45.5t89.5 15.5q44 0 83.5 -12.5t75.5 -28.5q33 -13 64.5 -24
t64.5 -11q50 0 86.5 17.5t68.5 53.5v-67q-26 -29 -64.5 -45t-90.5 -16z" />
    <glyph glyph-name="Adieresis" unicode="&#xc4;" horiz-adv-x="1286" 
d="M37 0l563 1480h86l563 -1480h-75l-544 1440h24l-544 -1440h-73zM284 528l20 66h678l20 -66h-718zM864 1690q-27 0 -44.5 17t-17.5 45q0 29 17.5 46.5t44.5 17.5t44.5 -17.5t17.5 -46.5q0 -28 -17.5 -45t-44.5 -17zM424 1690q-27 0 -44.5 17t-17.5 45q0 29 17.5 46.5
t44.5 17.5t44.5 -17.5t17.5 -46.5q0 -28 -17.5 -45t-44.5 -17z" />
    <glyph glyph-name="Aring" unicode="&#xc5;" horiz-adv-x="1286" 
d="M37 0l563 1480h86l563 -1480h-75l-544 1440h24l-544 -1440h-73zM284 528l20 66h678l20 -66h-718zM644 1611q-79 0 -131.5 52.5t-52.5 131.5q0 80 52.5 132t131.5 52q80 0 132 -52t52 -132q0 -79 -52 -131.5t-132 -52.5zM644 1663q57 0 93.5 35.5t36.5 96.5q0 62 -36.5 97
t-93.5 35t-93.5 -35t-36.5 -97q0 -61 36.5 -96.5t93.5 -35.5z" />
    <glyph glyph-name="AE" unicode="&#xc6;" horiz-adv-x="1755" 
d="M37 0l574 1480h248l-2 -66h-202l-545 -1414h-73zM290 528l20 66h609v-66h-629zM918 0l-94 1480h850v-66h-779l88 -1348h701v-66h-766zM921 728v66h658v-66h-658z" />
    <glyph glyph-name="Ccedilla" unicode="&#xc7;" horiz-adv-x="1101" 
d="M729 -18q-135 0 -247 39t-193.5 126.5t-126 232.5t-44.5 358q0 275 76 442t217 242.5t334 75.5q86 0 164.5 -11.5t155.5 -35.5v-68q-82 27 -162 38t-163 11q-173 0 -296 -65.5t-188.5 -217t-65.5 -407.5q0 -266 67 -417.5t188 -214t284 -62.5q86 0 164.5 13.5t171.5 46.5
v-68q-75 -27 -158 -42.5t-178 -15.5zM707 -400q-45 0 -94.5 10t-92.5 29v56q56 -24 100 -33.5t87 -9.5q63 0 99 22t36 70t-36 70t-101 22h-38v184h56v-162l-13 30q84 0 136 -35.5t52 -108.5q0 -71 -52.5 -107.5t-138.5 -36.5z" />
    <glyph glyph-name="Egrave" unicode="&#xc8;" horiz-adv-x="1115" 
d="M190 0v1480h844v-66h-776v-1348h786v-66h-854zM240 728v66h699v-66h-699zM602 1616l-190 272h79l175 -272h-64z" />
    <glyph glyph-name="Eacute" unicode="&#xc9;" horiz-adv-x="1115" 
d="M190 0v1480h844v-66h-776v-1348h786v-66h-854zM240 728v66h699v-66h-699zM602 1616l175 272h79l-190 -272h-64z" />
    <glyph glyph-name="Ecircumflex" unicode="&#xca;" horiz-adv-x="1115" 
d="M190 0v1480h844v-66h-776v-1348h786v-66h-854zM240 728v66h699v-66h-699zM356 1616l240 272h76l240 -272h-81l-210 243h26l-210 -243h-81z" />
    <glyph glyph-name="Edieresis" unicode="&#xcb;" horiz-adv-x="1115" 
d="M190 0v1480h844v-66h-776v-1348h786v-66h-854zM240 728v66h699v-66h-699zM854 1690q-27 0 -44.5 17t-17.5 45q0 29 17.5 46.5t44.5 17.5t44.5 -17.5t17.5 -46.5q0 -28 -17.5 -45t-44.5 -17zM414 1690q-27 0 -44.5 17t-17.5 45q0 29 17.5 46.5t44.5 17.5t44.5 -17.5
t17.5 -46.5q0 -28 -17.5 -45t-44.5 -17z" />
    <glyph glyph-name="Igrave" unicode="&#xcc;" horiz-adv-x="448" 
d="M190 0v1480h68v-1480h-68zM192 1616l-190 272h79l175 -272h-64z" />
    <glyph glyph-name="Iacute" unicode="&#xcd;" horiz-adv-x="448" 
d="M190 0v1480h68v-1480h-68zM192 1616l175 272h79l-190 -272h-64z" />
    <glyph glyph-name="Icircumflex" unicode="&#xce;" horiz-adv-x="448" 
d="M190 0v1480h68v-1480h-68zM-54 1616l240 272h76l240 -272h-81l-210 243h26l-210 -243h-81z" />
    <glyph glyph-name="Idieresis" unicode="&#xcf;" horiz-adv-x="448" 
d="M190 0v1480h68v-1480h-68zM444 1690q-27 0 -44.5 17t-17.5 45q0 29 17.5 46.5t44.5 17.5t44.5 -17.5t17.5 -46.5q0 -28 -17.5 -45t-44.5 -17zM4 1690q-27 0 -44.5 17t-17.5 45q0 29 17.5 46.5t44.5 17.5t44.5 -17.5t17.5 -46.5q0 -28 -17.5 -45t-44.5 -17z" />
    <glyph glyph-name="Eth" unicode="&#xd0;" horiz-adv-x="1343" 
d="M2 732v60h620v-60h-620zM508 -10q-52 0 -100.5 2t-100.5 6.5t-117 11.5v1451q55 11 113 18.5t115 11t111 3.5q345 0 520.5 -185.5t175.5 -568.5q0 -259 -81 -424.5t-240.5 -245.5t-395.5 -80zM510 56q215 0 357.5 71t214 222t71.5 391q0 238 -68.5 390.5t-208.5 225
t-352 72.5q-63 0 -129 -5.5t-137 -16.5v-1334q58 -8 117.5 -12t134.5 -4z" />
    <glyph glyph-name="Ntilde" unicode="&#xd1;" horiz-adv-x="1427" 
d="M190 0v1480h75l937 -1420h-31v1420h66v-1480h-75l-937 1420h31v-1420h-66zM858 1697q-44 0 -83 13t-75 28q-33 14 -65 24.5t-65 10.5q-49 0 -85.5 -17.5t-69.5 -53.5v67q27 30 65.5 45.5t89.5 15.5q44 0 83.5 -12.5t75.5 -28.5q33 -13 64.5 -24t64.5 -11q50 0 86.5 17.5
t68.5 53.5v-67q-26 -29 -64.5 -45t-90.5 -16z" />
    <glyph glyph-name="Ograve" unicode="&#xd2;" horiz-adv-x="1368" 
d="M684 -18q-169 0 -296.5 76t-198.5 243t-71 439q0 273 71.5 440t199 242.5t295.5 75.5q170 0 297 -75.5t198 -242.5t71 -440q0 -272 -71.5 -439t-199 -243t-295.5 -76zM684 49q147 0 258.5 65t173.5 215.5t62 406.5q0 260 -62 412t-173.5 217.5t-258.5 65.5t-258 -65
t-173.5 -215.5t-62.5 -406.5q0 -260 62.5 -412t173.5 -217.5t258 -65.5zM652 1616l-190 272h79l175 -272h-64z" />
    <glyph glyph-name="Oacute" unicode="&#xd3;" horiz-adv-x="1368" 
d="M684 -18q-169 0 -296.5 76t-198.5 243t-71 439q0 273 71.5 440t199 242.5t295.5 75.5q170 0 297 -75.5t198 -242.5t71 -440q0 -272 -71.5 -439t-199 -243t-295.5 -76zM684 49q147 0 258.5 65t173.5 215.5t62 406.5q0 260 -62 412t-173.5 217.5t-258.5 65.5t-258 -65
t-173.5 -215.5t-62.5 -406.5q0 -260 62.5 -412t173.5 -217.5t258 -65.5zM652 1616l175 272h79l-190 -272h-64z" />
    <glyph glyph-name="Ocircumflex" unicode="&#xd4;" horiz-adv-x="1368" 
d="M684 -18q-169 0 -296.5 76t-198.5 243t-71 439q0 273 71.5 440t199 242.5t295.5 75.5q170 0 297 -75.5t198 -242.5t71 -440q0 -272 -71.5 -439t-199 -243t-295.5 -76zM684 49q147 0 258.5 65t173.5 215.5t62 406.5q0 260 -62 412t-173.5 217.5t-258.5 65.5t-258 -65
t-173.5 -215.5t-62.5 -406.5q0 -260 62.5 -412t173.5 -217.5t258 -65.5zM406 1616l240 272h76l240 -272h-81l-210 243h26l-210 -243h-81z" />
    <glyph glyph-name="Otilde" unicode="&#xd5;" horiz-adv-x="1368" 
d="M684 -18q-169 0 -296.5 76t-198.5 243t-71 439q0 273 71.5 440t199 242.5t295.5 75.5q170 0 297 -75.5t198 -242.5t71 -440q0 -272 -71.5 -439t-199 -243t-295.5 -76zM684 49q147 0 258.5 65t173.5 215.5t62 406.5q0 260 -62 412t-173.5 217.5t-258.5 65.5t-258 -65
t-173.5 -215.5t-62.5 -406.5q0 -260 62.5 -412t173.5 -217.5t258 -65.5zM828 1697q-44 0 -83 13t-75 28q-33 14 -65 24.5t-65 10.5q-49 0 -85.5 -17.5t-69.5 -53.5v67q27 30 65.5 45.5t89.5 15.5q44 0 83.5 -12.5t75.5 -28.5q33 -13 64.5 -24t64.5 -11q50 0 86.5 17.5
t68.5 53.5v-67q-26 -29 -64.5 -45t-90.5 -16z" />
    <glyph glyph-name="Odieresis" unicode="&#xd6;" horiz-adv-x="1368" 
d="M684 -18q-169 0 -296.5 76t-198.5 243t-71 439q0 273 71.5 440t199 242.5t295.5 75.5q170 0 297 -75.5t198 -242.5t71 -440q0 -272 -71.5 -439t-199 -243t-295.5 -76zM684 49q147 0 258.5 65t173.5 215.5t62 406.5q0 260 -62 412t-173.5 217.5t-258.5 65.5t-258 -65
t-173.5 -215.5t-62.5 -406.5q0 -260 62.5 -412t173.5 -217.5t258 -65.5zM904 1690q-27 0 -44.5 17t-17.5 45q0 29 17.5 46.5t44.5 17.5t44.5 -17.5t17.5 -46.5q0 -28 -17.5 -45t-44.5 -17zM464 1690q-27 0 -44.5 17t-17.5 45q0 29 17.5 46.5t44.5 17.5t44.5 -17.5
t17.5 -46.5q0 -28 -17.5 -45t-44.5 -17z" />
    <glyph glyph-name="multiply" unicode="&#xd7;" horiz-adv-x="976" 
d="M180 408l-44 44l308 308l-308 308l44 44l308 -308l308 308l44 -44l-308 -308l308 -308l-44 -44l-308 308z" />
    <glyph glyph-name="Oslash" unicode="&#xd8;" horiz-adv-x="1368" 
d="M188 0h-78l1067 1480h78zM684 -18q-169 0 -296.5 76t-198.5 243t-71 439q0 273 71.5 440t199 242.5t295.5 75.5q170 0 297 -75.5t198 -242.5t71 -440q0 -272 -71.5 -439t-199 -243t-295.5 -76zM684 49q147 0 258.5 65t173.5 215.5t62 406.5q0 260 -62 412t-173.5 217.5
t-258.5 65.5t-258 -65t-173.5 -215.5t-62.5 -406.5q0 -260 62.5 -412t173.5 -217.5t258 -65.5z" />
    <glyph glyph-name="Ugrave" unicode="&#xd9;" horiz-adv-x="1372" 
d="M687 -18q-173 0 -285 58t-166 179t-54 310v951h68v-961q0 -243 104.5 -357t332.5 -114q229 0 333 114t104 357v961h66v-951q0 -189 -53.5 -310t-164.5 -179t-285 -58zM655 1616l-190 272h79l175 -272h-64z" />
    <glyph glyph-name="Uacute" unicode="&#xda;" horiz-adv-x="1372" 
d="M687 -18q-173 0 -285 58t-166 179t-54 310v951h68v-961q0 -243 104.5 -357t332.5 -114q229 0 333 114t104 357v961h66v-951q0 -189 -53.5 -310t-164.5 -179t-285 -58zM655 1616l175 272h79l-190 -272h-64z" />
    <glyph glyph-name="Ucircumflex" unicode="&#xdb;" horiz-adv-x="1372" 
d="M687 -18q-173 0 -285 58t-166 179t-54 310v951h68v-961q0 -243 104.5 -357t332.5 -114q229 0 333 114t104 357v961h66v-951q0 -189 -53.5 -310t-164.5 -179t-285 -58zM409 1616l240 272h76l240 -272h-81l-210 243h26l-210 -243h-81z" />
    <glyph glyph-name="Udieresis" unicode="&#xdc;" horiz-adv-x="1372" 
d="M687 -18q-173 0 -285 58t-166 179t-54 310v951h68v-961q0 -243 104.5 -357t332.5 -114q229 0 333 114t104 357v961h66v-951q0 -189 -53.5 -310t-164.5 -179t-285 -58zM907 1690q-27 0 -44.5 17t-17.5 45q0 29 17.5 46.5t44.5 17.5t44.5 -17.5t17.5 -46.5q0 -28 -17.5 -45
t-44.5 -17zM467 1690q-27 0 -44.5 17t-17.5 45q0 29 17.5 46.5t44.5 17.5t44.5 -17.5t17.5 -46.5q0 -28 -17.5 -45t-44.5 -17z" />
    <glyph glyph-name="Yacute" unicode="&#xdd;" horiz-adv-x="1112" 
d="M522 0v707l18 -55l-559 828h83l510 -760h-34l503 760h80l-551 -828l18 55v-707h-68zM524 1616l175 272h79l-190 -272h-64z" />
    <glyph glyph-name="Thorn" unicode="&#xde;" horiz-adv-x="1194" 
d="M190 0v1481h68v-255q53 9 121 15.5t151 6.5q272 0 413.5 -117.5t141.5 -369.5q0 -236 -143 -362.5t-460 -126.5q-59 0 -111.5 3t-112.5 8v-283h-68zM485 338q280 0 404 105.5t124 314.5q0 222 -120 323t-363 101q-76 0 -142.5 -5.5t-129.5 -16.5v-808q55 -7 110 -10.5
t117 -3.5z" />
    <glyph glyph-name="germandbls" unicode="&#xdf;" horiz-adv-x="1288" 
d="M826 -18q-75 0 -142 9.5t-132 30.5v68q53 -16 99 -25t89 -13t87 -4q160 0 235 59.5t75 166.5q0 94 -47.5 144t-159.5 74l-129 28q-145 34 -205 104.5t-60 176.5q0 126 93.5 209.5t287.5 83.5q20 0 40.5 -1t41.5 -3t43 -6l-37 -21q8 34 12 72t4 71q0 137 -45.5 216.5
t-124 113.5t-177.5 34q-116 0 -199 -41.5t-127.5 -134.5t-44.5 -248v-1146h-68v1152q0 167 52.5 274t151 158.5t235.5 51.5q117 0 210.5 -43.5t147.5 -137.5t54 -246q0 -48 -7.5 -103.5t-16.5 -90.5q-28 7 -60.5 11t-84.5 4q-111 0 -179 -29.5t-99.5 -80t-31.5 -114.5
q0 -81 45 -135t154 -79l129 -28q154 -35 213.5 -104.5t59.5 -179.5q0 -137 -95.5 -217.5t-286.5 -80.5zM15 1014v66h269v-66h-269z" />
    <glyph glyph-name="agrave" unicode="&#xe0;" horiz-adv-x="979" 
d="M422 -16q-144 0 -229 74t-85 209t86 210.5t273 96.5l327 39l3 -66l-332 -39q-150 -17 -216.5 -74.5t-66.5 -160.5q0 -109 61 -166t182 -57q88 0 175 39.5t155 130.5v526q0 113 -35 174.5t-101.5 85.5t-161.5 24q-61 0 -136.5 -11.5t-154.5 -39.5v68q63 24 141.5 36.5
t149.5 12.5q116 0 198 -32t125 -108.5t43 -209.5v-746h-60l-6 128h-8q-55 -67 -141 -105.5t-186 -38.5zM453 1264l-222 352h78l208 -352h-64z" />
    <glyph glyph-name="aacute" unicode="&#xe1;" horiz-adv-x="979" 
d="M422 -16q-144 0 -229 74t-85 209t86 210.5t273 96.5l327 39l3 -66l-332 -39q-150 -17 -216.5 -74.5t-66.5 -160.5q0 -109 61 -166t182 -57q88 0 175 39.5t155 130.5v526q0 113 -35 174.5t-101.5 85.5t-161.5 24q-61 0 -136.5 -11.5t-154.5 -39.5v68q63 24 141.5 36.5
t149.5 12.5q116 0 198 -32t125 -108.5t43 -209.5v-746h-60l-6 128h-8q-55 -67 -141 -105.5t-186 -38.5zM453 1264l208 352h78l-222 -352h-64z" />
    <glyph glyph-name="acircumflex" unicode="&#xe2;" horiz-adv-x="979" 
d="M422 -16q-144 0 -229 74t-85 209t86 210.5t273 96.5l327 39l3 -66l-332 -39q-150 -17 -216.5 -74.5t-66.5 -160.5q0 -109 61 -166t182 -57q88 0 175 39.5t155 130.5v526q0 113 -35 174.5t-101.5 85.5t-161.5 24q-61 0 -136.5 -11.5t-154.5 -39.5v68q63 24 141.5 36.5
t149.5 12.5q116 0 198 -32t125 -108.5t43 -209.5v-746h-60l-6 128h-8q-55 -67 -141 -105.5t-186 -38.5zM229 1264l218 352h76l218 -352h-71l-198 327h26l-198 -327h-71z" />
    <glyph glyph-name="atilde" unicode="&#xe3;" horiz-adv-x="979" 
d="M422 -16q-144 0 -229 74t-85 209t86 210.5t273 96.5l327 39l3 -66l-332 -39q-150 -17 -216.5 -74.5t-66.5 -160.5q0 -109 61 -166t182 -57q88 0 175 39.5t155 130.5v526q0 113 -35 174.5t-101.5 85.5t-161.5 24q-61 0 -136.5 -11.5t-154.5 -39.5v68q63 24 141.5 36.5
t149.5 12.5q116 0 198 -32t125 -108.5t43 -209.5v-746h-60l-6 128h-8q-55 -67 -141 -105.5t-186 -38.5zM619 1380q-40 0 -77 13.5t-71 27.5q-31 14 -60.5 24.5t-59.5 10.5q-44 0 -80 -17.5t-69 -53.5v67q55 61 149 61q41 0 78 -13t71 -28q31 -13 60.5 -24t58.5 -11
q46 0 81.5 17.5t67.5 53.5v-67q-54 -61 -149 -61z" />
    <glyph glyph-name="adieresis" unicode="&#xe4;" horiz-adv-x="979" 
d="M422 -16q-144 0 -229 74t-85 209t86 210.5t273 96.5l327 39l3 -66l-332 -39q-150 -17 -216.5 -74.5t-66.5 -160.5q0 -109 61 -166t182 -57q88 0 175 39.5t155 130.5v526q0 113 -35 174.5t-101.5 85.5t-161.5 24q-61 0 -136.5 -11.5t-154.5 -39.5v68q63 24 141.5 36.5
t149.5 12.5q116 0 198 -32t125 -108.5t43 -209.5v-746h-60l-6 128h-8q-55 -67 -141 -105.5t-186 -38.5zM685 1360q-27 0 -44.5 17t-17.5 45q0 29 17.5 46.5t44.5 17.5t44.5 -17.5t17.5 -46.5q0 -28 -17.5 -45t-44.5 -17zM285 1360q-27 0 -44.5 17t-17.5 45q0 29 17.5 46.5
t44.5 17.5t44.5 -17.5t17.5 -46.5q0 -28 -17.5 -45t-44.5 -17z" />
    <glyph glyph-name="aring" unicode="&#xe5;" horiz-adv-x="979" 
d="M422 -16q-144 0 -229 74t-85 209t86 210.5t273 96.5l327 39l3 -66l-332 -39q-150 -17 -216.5 -74.5t-66.5 -160.5q0 -109 61 -166t182 -57q88 0 175 39.5t155 130.5v526q0 113 -35 174.5t-101.5 85.5t-161.5 24q-61 0 -136.5 -11.5t-154.5 -39.5v68q63 24 141.5 36.5
t149.5 12.5q116 0 198 -32t125 -108.5t43 -209.5v-746h-60l-6 128h-8q-55 -67 -141 -105.5t-186 -38.5zM485 1260q-79 0 -131.5 52.5t-52.5 131.5q0 80 52.5 132t131.5 52q80 0 132 -52t52 -132q0 -79 -52 -131.5t-132 -52.5zM485 1312q57 0 93.5 35.5t36.5 96.5
q0 62 -36.5 97t-93.5 35t-93.5 -35t-36.5 -97q0 -61 36.5 -96.5t93.5 -35.5z" />
    <glyph glyph-name="ae" unicode="&#xe6;" horiz-adv-x="1619" 
d="M1211 -18q-145 0 -247 56.5t-155.5 180t-53.5 323.5l6 9q0 194 47 314.5t133 176t203 55.5q119 0 205 -56.5t132.5 -179t46.5 -319.5v-32h-732v66h688l-27 -32q0 182 -37.5 288.5t-107.5 152.5t-168 46q-97 0 -169 -46t-112 -151.5t-40 -283.5v-15q0 -178 46 -285
t134 -154.5t212 -47.5q59 0 123.5 12.5t139.5 36.5v-68q-71 -24 -137 -35.5t-130 -11.5zM424 -16q-95 0 -166 33t-110.5 96t-39.5 153t39 160t125 110t228 40h285v-66h-290q-116 0 -184.5 -31t-98.5 -84.5t-30 -122.5q0 -108 62.5 -165t182.5 -57q96 0 195 50t173 180
l39 -62q-95 -137 -199.5 -185.5t-210.5 -48.5zM755 542v207q0 112 -35 173t-101.5 84.5t-161.5 23.5q-61 0 -136.5 -11.5t-154.5 -39.5v68q63 24 141.5 36.5t149.5 12.5q115 0 195.5 -32t122.5 -107.5t42 -207.5v-227z" />
    <glyph glyph-name="ccedilla" unicode="&#xe7;" horiz-adv-x="826" 
d="M538 -18q-137 0 -233 56.5t-146.5 179.5t-50.5 322t54.5 321.5t160.5 178.5t260 56q51 0 106 -7t104 -22v-68q-53 16 -106 23.5t-102 7.5q-135 0 -225 -46t-135 -152.5t-45 -287.5q0 -183 41.5 -292t123 -156.5t200.5 -47.5q53 0 114 11.5t134 37.5v-68
q-65 -24 -128.5 -35.5t-126.5 -11.5zM505 -400q-41 0 -86 10t-77 27v56q45 -23 86.5 -32t79.5 -9q60 0 89 23t29 68q0 93 -120 93h-32v184h56v-162l-23 29q84 0 129 -37.5t45 -106.5q0 -66 -46 -104.5t-130 -38.5z" />
    <glyph glyph-name="egrave" unicode="&#xe8;" horiz-adv-x="984" 
d="M572 -18q-147 0 -251 56.5t-158.5 179.5t-54.5 322q0 197 50.5 319.5t140 179.5t208.5 57q120 0 206.5 -57t133 -179.5t46.5 -319.5v-30h-752v66h708l-27 -26q0 177 -37.5 282.5t-108 151.5t-169.5 46t-172.5 -46t-114 -151t-40.5 -283v-15q0 -178 46.5 -285t135 -154.5
t214.5 -47.5q61 0 125.5 12.5t141.5 36.5v-68q-73 -24 -139 -35.5t-132 -11.5zM476 1264l-222 352h78l208 -352h-64z" />
    <glyph glyph-name="eacute" unicode="&#xe9;" horiz-adv-x="984" 
d="M572 -18q-147 0 -251 56.5t-158.5 179.5t-54.5 322q0 197 50.5 319.5t140 179.5t208.5 57q120 0 206.5 -57t133 -179.5t46.5 -319.5v-30h-752v66h708l-27 -26q0 177 -37.5 282.5t-108 151.5t-169.5 46t-172.5 -46t-114 -151t-40.5 -283v-15q0 -178 46.5 -285t135 -154.5
t214.5 -47.5q61 0 125.5 12.5t141.5 36.5v-68q-73 -24 -139 -35.5t-132 -11.5zM476 1264l208 352h78l-222 -352h-64z" />
    <glyph glyph-name="ecircumflex" unicode="&#xea;" horiz-adv-x="984" 
d="M572 -18q-147 0 -251 56.5t-158.5 179.5t-54.5 322q0 197 50.5 319.5t140 179.5t208.5 57q120 0 206.5 -57t133 -179.5t46.5 -319.5v-30h-752v66h708l-27 -26q0 177 -37.5 282.5t-108 151.5t-169.5 46t-172.5 -46t-114 -151t-40.5 -283v-15q0 -178 46.5 -285t135 -154.5
t214.5 -47.5q61 0 125.5 12.5t141.5 36.5v-68q-73 -24 -139 -35.5t-132 -11.5zM252 1264l218 352h76l218 -352h-71l-198 327h26l-198 -327h-71z" />
    <glyph glyph-name="edieresis" unicode="&#xeb;" horiz-adv-x="984" 
d="M572 -18q-147 0 -251 56.5t-158.5 179.5t-54.5 322q0 197 50.5 319.5t140 179.5t208.5 57q120 0 206.5 -57t133 -179.5t46.5 -319.5v-30h-752v66h708l-27 -26q0 177 -37.5 282.5t-108 151.5t-169.5 46t-172.5 -46t-114 -151t-40.5 -283v-15q0 -178 46.5 -285t135 -154.5
t214.5 -47.5q61 0 125.5 12.5t141.5 36.5v-68q-73 -24 -139 -35.5t-132 -11.5zM708 1360q-27 0 -44.5 17t-17.5 45q0 29 17.5 46.5t44.5 17.5t44.5 -17.5t17.5 -46.5q0 -28 -17.5 -45t-44.5 -17zM308 1360q-27 0 -44.5 17t-17.5 45q0 29 17.5 46.5t44.5 17.5t44.5 -17.5
t17.5 -46.5q0 -28 -17.5 -45t-44.5 -17z" />
    <glyph glyph-name="igrave" unicode="&#xec;" horiz-adv-x="408" 
d="M170 0v1080h68v-1080h-68zM172 1264l-222 352h78l208 -352h-64z" />
    <glyph glyph-name="iacute" unicode="&#xed;" horiz-adv-x="408" 
d="M170 0v1080h68v-1080h-68zM172 1264l208 352h78l-222 -352h-64z" />
    <glyph glyph-name="icircumflex" unicode="&#xee;" horiz-adv-x="408" 
d="M170 0v1080h68v-1080h-68zM-52 1264l218 352h76l218 -352h-71l-198 327h26l-198 -327h-71z" />
    <glyph glyph-name="idieresis" unicode="&#xef;" horiz-adv-x="408" 
d="M170 0v1080h68v-1080h-68zM404 1360q-27 0 -44.5 17t-17.5 45q0 29 17.5 46.5t44.5 17.5t44.5 -17.5t17.5 -46.5q0 -28 -17.5 -45t-44.5 -17zM4 1360q-27 0 -44.5 17t-17.5 45q0 29 17.5 46.5t44.5 17.5t44.5 -17.5t17.5 -46.5q0 -28 -17.5 -45t-44.5 -17z" />
    <glyph glyph-name="eth" unicode="&#xf0;" horiz-adv-x="1058" 
d="M531 -18q-127 0 -222 56t-148 179t-53 323q0 199 53 321.5t147.5 178.5t220.5 56q101 0 188 -42t148 -160l-43 43q-37 120 -97 237.5t-153 229t-228 212.5h95q107 -77 199 -192t162 -255t109 -292.5t39 -306.5q0 -206 -52 -335.5t-146 -191t-219 -61.5zM531 48
q104 0 182.5 49.5t121.5 157t43 282.5q0 186 -43 293.5t-121.5 153.5t-184.5 46t-184.5 -45.5t-121.5 -152t-43 -289.5q0 -185 43.5 -293.5t122 -155t185.5 -46.5zM214 1248l-9 58l713 115l9 -58z" />
    <glyph glyph-name="ntilde" unicode="&#xf1;" horiz-adv-x="1087" 
d="M170 0v1080h60l6 -129h8q70 70 161 107.5t191 37.5q99 0 174.5 -34t118 -112.5t42.5 -211.5v-738h-68v738q0 163 -72.5 227.5t-196.5 64.5q-56 0 -120 -16.5t-126 -55.5t-110 -105v-853h-68zM685 1380q-40 0 -77 13.5t-71 27.5q-31 14 -60.5 24.5t-59.5 10.5
q-44 0 -80 -17.5t-69 -53.5v67q55 61 149 61q41 0 78 -13t71 -28q31 -13 60.5 -24t58.5 -11q46 0 81.5 17.5t67.5 53.5v-67q-54 -61 -149 -61z" />
    <glyph glyph-name="ograve" unicode="&#xf2;" horiz-adv-x="1058" 
d="M529 -18q-126 0 -220.5 56t-147.5 179t-53 323q0 199 53 321.5t147.5 178.5t220.5 56t221 -55.5t147.5 -177.5t52.5 -323q0 -198 -52.5 -321t-147.5 -180t-221 -57zM529 48q106 0 184.5 46t121.5 153.5t43 289.5q0 186 -43 293.5t-121.5 153.5t-184.5 46t-184.5 -45.5
t-121.5 -152t-43 -289.5q0 -185 43 -293.5t121.5 -155t184.5 -46.5zM497 1264l-222 352h78l208 -352h-64z" />
    <glyph glyph-name="oacute" unicode="&#xf3;" horiz-adv-x="1058" 
d="M529 -18q-126 0 -220.5 56t-147.5 179t-53 323q0 199 53 321.5t147.5 178.5t220.5 56t221 -55.5t147.5 -177.5t52.5 -323q0 -198 -52.5 -321t-147.5 -180t-221 -57zM529 48q106 0 184.5 46t121.5 153.5t43 289.5q0 186 -43 293.5t-121.5 153.5t-184.5 46t-184.5 -45.5
t-121.5 -152t-43 -289.5q0 -185 43 -293.5t121.5 -155t184.5 -46.5zM497 1264l208 352h78l-222 -352h-64z" />
    <glyph glyph-name="ocircumflex" unicode="&#xf4;" horiz-adv-x="1058" 
d="M529 -18q-126 0 -220.5 56t-147.5 179t-53 323q0 199 53 321.5t147.5 178.5t220.5 56t221 -55.5t147.5 -177.5t52.5 -323q0 -198 -52.5 -321t-147.5 -180t-221 -57zM529 48q106 0 184.5 46t121.5 153.5t43 289.5q0 186 -43 293.5t-121.5 153.5t-184.5 46t-184.5 -45.5
t-121.5 -152t-43 -289.5q0 -185 43 -293.5t121.5 -155t184.5 -46.5zM273 1264l218 352h76l218 -352h-71l-198 327h26l-198 -327h-71z" />
    <glyph glyph-name="otilde" unicode="&#xf5;" horiz-adv-x="1058" 
d="M529 -18q-126 0 -220.5 56t-147.5 179t-53 323q0 199 53 321.5t147.5 178.5t220.5 56t221 -55.5t147.5 -177.5t52.5 -323q0 -198 -52.5 -321t-147.5 -180t-221 -57zM529 48q106 0 184.5 46t121.5 153.5t43 289.5q0 186 -43 293.5t-121.5 153.5t-184.5 46t-184.5 -45.5
t-121.5 -152t-43 -289.5q0 -185 43 -293.5t121.5 -155t184.5 -46.5zM663 1380q-40 0 -77 13.5t-71 27.5q-31 14 -60.5 24.5t-59.5 10.5q-44 0 -80 -17.5t-69 -53.5v67q55 61 149 61q41 0 78 -13t71 -28q31 -13 60.5 -24t58.5 -11q46 0 81.5 17.5t67.5 53.5v-67
q-54 -61 -149 -61z" />
    <glyph glyph-name="odieresis" unicode="&#xf6;" horiz-adv-x="1058" 
d="M529 -18q-126 0 -220.5 56t-147.5 179t-53 323q0 199 53 321.5t147.5 178.5t220.5 56t221 -55.5t147.5 -177.5t52.5 -323q0 -198 -52.5 -321t-147.5 -180t-221 -57zM529 48q106 0 184.5 46t121.5 153.5t43 289.5q0 186 -43 293.5t-121.5 153.5t-184.5 46t-184.5 -45.5
t-121.5 -152t-43 -289.5q0 -185 43 -293.5t121.5 -155t184.5 -46.5zM729 1360q-27 0 -44.5 17t-17.5 45q0 29 17.5 46.5t44.5 17.5t44.5 -17.5t17.5 -46.5q0 -28 -17.5 -45t-44.5 -17zM329 1360q-27 0 -44.5 17t-17.5 45q0 29 17.5 46.5t44.5 17.5t44.5 -17.5t17.5 -46.5
q0 -28 -17.5 -45t-44.5 -17z" />
    <glyph glyph-name="divide" unicode="&#xf7;" horiz-adv-x="1062" 
d="M167 728v64h728v-64h-728zM531 368q-27 0 -44.5 17t-17.5 45q0 29 17.5 46.5t44.5 17.5t44.5 -17.5t17.5 -46.5q0 -28 -17.5 -45t-44.5 -17zM531 1026q-27 0 -44.5 17t-17.5 45q0 29 17.5 46.5t44.5 17.5t44.5 -17.5t17.5 -46.5q0 -28 -17.5 -45t-44.5 -17z" />
    <glyph glyph-name="oslash" unicode="&#xf8;" horiz-adv-x="1058" 
d="M853 943q46 -67 71.5 -166.5t25.5 -236.5q0 -198 -52.5 -321t-147.5 -180t-221 -57q-85 0 -156.5 25t-125.5 79l-61 -86h-77l97 137q-47 68 -72.5 167.5t-25.5 235.5q0 199 53 321.5t147.5 178.5t220.5 56q85 0 156.5 -24.5t125.5 -78.5l62 87h77zM529 1030
q-106 0 -184.5 -45.5t-121.5 -152t-43 -289.5q0 -115 18 -200.5t51 -143.5l522 737q-45 50 -106.5 72t-135.5 22zM529 48q106 0 184.5 46t121.5 153.5t43 289.5q0 116 -17.5 201t-51.5 143l-522 -737q45 -51 106.5 -73.5t135.5 -22.5z" />
    <glyph glyph-name="ugrave" unicode="&#xf9;" horiz-adv-x="1077" 
d="M486 -18q-96 0 -170.5 34t-117 112.5t-42.5 210.5v741h68v-742q0 -162 74 -226t190 -64q57 0 121 17.5t124 56.5t106 103v855h68v-1080h-60l-6 124h-8q-70 -71 -160.5 -106.5t-186.5 -35.5zM500 1264l-222 352h78l208 -352h-64z" />
    <glyph glyph-name="uacute" unicode="&#xfa;" horiz-adv-x="1077" 
d="M486 -18q-96 0 -170.5 34t-117 112.5t-42.5 210.5v741h68v-742q0 -162 74 -226t190 -64q57 0 121 17.5t124 56.5t106 103v855h68v-1080h-60l-6 124h-8q-70 -71 -160.5 -106.5t-186.5 -35.5zM500 1264l208 352h78l-222 -352h-64z" />
    <glyph glyph-name="ucircumflex" unicode="&#xfb;" horiz-adv-x="1077" 
d="M486 -18q-96 0 -170.5 34t-117 112.5t-42.5 210.5v741h68v-742q0 -162 74 -226t190 -64q57 0 121 17.5t124 56.5t106 103v855h68v-1080h-60l-6 124h-8q-70 -71 -160.5 -106.5t-186.5 -35.5zM276 1264l218 352h76l218 -352h-71l-198 327h26l-198 -327h-71z" />
    <glyph glyph-name="udieresis" unicode="&#xfc;" horiz-adv-x="1077" 
d="M486 -18q-96 0 -170.5 34t-117 112.5t-42.5 210.5v741h68v-742q0 -162 74 -226t190 -64q57 0 121 17.5t124 56.5t106 103v855h68v-1080h-60l-6 124h-8q-70 -71 -160.5 -106.5t-186.5 -35.5zM732 1360q-27 0 -44.5 17t-17.5 45q0 29 17.5 46.5t44.5 17.5t44.5 -17.5
t17.5 -46.5q0 -28 -17.5 -45t-44.5 -17zM332 1360q-27 0 -44.5 17t-17.5 45q0 29 17.5 46.5t44.5 17.5t44.5 -17.5t17.5 -46.5q0 -28 -17.5 -45t-44.5 -17z" />
    <glyph glyph-name="yacute" unicode="&#xfd;" horiz-adv-x="995" 
d="M299 -440l174 440l17 36l407 1044h73l-599 -1520h-72zM451 0l-426 1080h76l420 -1080h-70zM467 1264l208 352h78l-222 -352h-64z" />
    <glyph glyph-name="thorn" unicode="&#xfe;" horiz-adv-x="1071" 
d="M170 -440v2056h68v-653h6q52 58 130.5 95.5t180.5 37.5q112 0 205 -50t148 -167.5t55 -318.5q0 -198 -59 -326t-174.5 -190t-285.5 -62q-53 0 -107 5.5t-99 11.5v-439h-68zM447 48q220 0 332 119t112 385q0 187 -45 290.5t-122.5 145.5t-173.5 42q-87 0 -171.5 -39.5
t-140.5 -126.5v-793q42 -10 99 -16.5t110 -6.5z" />
    <glyph glyph-name="ydieresis" unicode="&#xff;" horiz-adv-x="995" 
d="M299 -440l174 440l17 36l407 1044h73l-599 -1520h-72zM451 0l-426 1080h76l420 -1080h-70zM699 1360q-27 0 -44.5 17t-17.5 45q0 29 17.5 46.5t44.5 17.5t44.5 -17.5t17.5 -46.5q0 -28 -17.5 -45t-44.5 -17zM299 1360q-27 0 -44.5 17t-17.5 45q0 29 17.5 46.5t44.5 17.5
t44.5 -17.5t17.5 -46.5q0 -28 -17.5 -45t-44.5 -17z" />
    <glyph glyph-name="Amacron" unicode="&#x100;" horiz-adv-x="1286" 
d="M37 0l563 1480h86l563 -1480h-75l-544 1440h24l-544 -1440h-73zM284 528l20 66h678l20 -66h-718zM374 1723v59h540v-59h-540z" />
    <glyph glyph-name="amacron" unicode="&#x101;" horiz-adv-x="979" 
d="M422 -16q-144 0 -229 74t-85 209t86 210.5t273 96.5l327 39l3 -66l-332 -39q-150 -17 -216.5 -74.5t-66.5 -160.5q0 -109 61 -166t182 -57q88 0 175 39.5t155 130.5v526q0 113 -35 174.5t-101.5 85.5t-161.5 24q-61 0 -136.5 -11.5t-154.5 -39.5v68q63 24 141.5 36.5
t149.5 12.5q116 0 198 -32t125 -108.5t43 -209.5v-746h-60l-6 128h-8q-55 -67 -141 -105.5t-186 -38.5zM202 1394v59h566v-59h-566z" />
    <glyph glyph-name="Abreve" unicode="&#x102;" horiz-adv-x="1286" 
d="M37 0l563 1480h86l563 -1480h-75l-544 1440h24l-544 -1440h-73zM284 528l20 66h678l20 -66h-718zM646 1628q-89 0 -150 29t-94.5 81t-39.5 122h58q12 -84 62.5 -128.5t163.5 -44.5q114 0 163.5 44.5t58.5 128.5h58q-6 -71 -38 -123t-92 -80.5t-150 -28.5z" />
    <glyph glyph-name="abreve" unicode="&#x103;" horiz-adv-x="979" 
d="M422 -16q-144 0 -229 74t-85 209t86 210.5t273 96.5l327 39l3 -66l-332 -39q-150 -17 -216.5 -74.5t-66.5 -160.5q0 -109 61 -166t182 -57q88 0 175 39.5t155 130.5v526q0 113 -35 174.5t-101.5 85.5t-161.5 24q-61 0 -136.5 -11.5t-154.5 -39.5v68q63 24 141.5 36.5
t149.5 12.5q116 0 198 -32t125 -108.5t43 -209.5v-746h-60l-6 128h-8q-55 -67 -141 -105.5t-186 -38.5zM487 1276q-121 0 -189.5 82.5t-74.5 229.5h58q8 -124 57.5 -189.5t148.5 -65.5q100 0 148.5 65.5t53.5 189.5h58q-5 -148 -72 -230t-188 -82z" />
    <glyph glyph-name="Aogonek" unicode="&#x104;" horiz-adv-x="1286" 
d="M37 0l563 1480h86l563 -1480h-75l-544 1440h24l-544 -1440h-73zM284 528l20 66h678l20 -66h-718zM1207 -400q-100 0 -154.5 44.5t-54.5 124.5q0 52 22 99t71.5 91t131.5 88l26 -47q-75 -40 -117.5 -77t-60 -74t-17.5 -77q0 -59 38.5 -89.5t111.5 -30.5q40 0 79 10t91 31
v-54q-41 -19 -83 -29t-84 -10z" />
    <glyph glyph-name="aogonek" unicode="&#x105;" horiz-adv-x="979" 
d="M422 -16q-144 0 -229 74t-85 209t86 210.5t273 96.5l327 39l3 -66l-332 -39q-150 -17 -216.5 -74.5t-66.5 -160.5q0 -109 61 -166t182 -57q88 0 175 39.5t155 130.5v526q0 113 -35 174.5t-101.5 85.5t-161.5 24q-61 0 -136.5 -11.5t-154.5 -39.5v68q63 24 141.5 36.5
t149.5 12.5q116 0 198 -32t125 -108.5t43 -209.5v-746h-60l-6 128h-8q-55 -67 -141 -105.5t-186 -38.5zM781 -400q-88 0 -138.5 45.5t-50.5 123.5q0 53 22 100t67 91t116 87l26 -47q-62 -38 -100.5 -74.5t-56.5 -74t-18 -79.5q0 -56 35 -88t95 -32q39 0 77.5 11.5t75.5 33.5
v-56q-32 -19 -72.5 -30t-77.5 -11z" />
    <glyph glyph-name="Cacute" unicode="&#x106;" horiz-adv-x="1101" 
d="M729 -18q-135 0 -247 39t-193.5 126.5t-126 232.5t-44.5 358q0 275 76 442t217 242.5t334 75.5q86 0 164.5 -11.5t155.5 -35.5v-68q-82 27 -162 38t-163 11q-173 0 -296 -65.5t-188.5 -217t-65.5 -407.5q0 -266 67 -417.5t188 -214t284 -62.5q86 0 164.5 13.5t171.5 46.5
v-68q-75 -27 -158 -42.5t-178 -15.5zM642 1616l175 272h79l-190 -272h-64z" />
    <glyph glyph-name="cacute" unicode="&#x107;" horiz-adv-x="826" 
d="M538 -18q-137 0 -233 56.5t-146.5 179.5t-50.5 322t54.5 321.5t160.5 178.5t260 56q51 0 106 -7t104 -22v-68q-53 16 -106 23.5t-102 7.5q-135 0 -225 -46t-135 -152.5t-45 -287.5q0 -183 41.5 -292t123 -156.5t200.5 -47.5q53 0 114 11.5t134 37.5v-68
q-65 -24 -128.5 -35.5t-126.5 -11.5zM468 1264l208 352h78l-222 -352h-64z" />
    <glyph glyph-name="Ccircumflex" unicode="&#x108;" horiz-adv-x="1101" 
d="M729 -18q-135 0 -247 39t-193.5 126.5t-126 232.5t-44.5 358q0 275 76 442t217 242.5t334 75.5q86 0 164.5 -11.5t155.5 -35.5v-68q-82 27 -162 38t-163 11q-173 0 -296 -65.5t-188.5 -217t-65.5 -407.5q0 -266 67 -417.5t188 -214t284 -62.5q86 0 164.5 13.5t171.5 46.5
v-68q-75 -27 -158 -42.5t-178 -15.5zM396 1616l240 272h76l240 -272h-81l-210 243h26l-210 -243h-81z" />
    <glyph glyph-name="ccircumflex" unicode="&#x109;" horiz-adv-x="826" 
d="M538 -18q-137 0 -233 56.5t-146.5 179.5t-50.5 322t54.5 321.5t160.5 178.5t260 56q51 0 106 -7t104 -22v-68q-53 16 -106 23.5t-102 7.5q-135 0 -225 -46t-135 -152.5t-45 -287.5q0 -183 41.5 -292t123 -156.5t200.5 -47.5q53 0 114 11.5t134 37.5v-68
q-65 -24 -128.5 -35.5t-126.5 -11.5zM244 1264l218 352h76l218 -352h-71l-198 327h26l-198 -327h-71z" />
    <glyph glyph-name="Cdotaccent" unicode="&#x10a;" horiz-adv-x="1101" 
d="M729 -18q-135 0 -247 39t-193.5 126.5t-126 232.5t-44.5 358q0 275 76 442t217 242.5t334 75.5q86 0 164.5 -11.5t155.5 -35.5v-68q-82 27 -162 38t-163 11q-173 0 -296 -65.5t-188.5 -217t-65.5 -407.5q0 -266 67 -417.5t188 -214t284 -62.5q86 0 164.5 13.5t171.5 46.5
v-68q-75 -27 -158 -42.5t-178 -15.5zM674 1690q-27 0 -44.5 17t-17.5 45q0 29 17.5 46.5t44.5 17.5t44.5 -17.5t17.5 -46.5q0 -28 -17.5 -45t-44.5 -17z" />
    <glyph glyph-name="cdotaccent" unicode="&#x10b;" horiz-adv-x="826" 
d="M538 -18q-137 0 -233 56.5t-146.5 179.5t-50.5 322t54.5 321.5t160.5 178.5t260 56q51 0 106 -7t104 -22v-68q-53 16 -106 23.5t-102 7.5q-135 0 -225 -46t-135 -152.5t-45 -287.5q0 -183 41.5 -292t123 -156.5t200.5 -47.5q53 0 114 11.5t134 37.5v-68
q-65 -24 -128.5 -35.5t-126.5 -11.5zM500 1360q-27 0 -44.5 17t-17.5 45q0 29 17.5 46.5t44.5 17.5t44.5 -17.5t17.5 -46.5q0 -28 -17.5 -45t-44.5 -17z" />
    <glyph glyph-name="Ccaron" unicode="&#x10c;" horiz-adv-x="1101" 
d="M729 -18q-135 0 -247 39t-193.5 126.5t-126 232.5t-44.5 358q0 275 76 442t217 242.5t334 75.5q86 0 164.5 -11.5t155.5 -35.5v-68q-82 27 -162 38t-163 11q-173 0 -296 -65.5t-188.5 -217t-65.5 -407.5q0 -266 67 -417.5t188 -214t284 -62.5q86 0 164.5 13.5t171.5 46.5
v-68q-75 -27 -158 -42.5t-178 -15.5zM636 1616l-240 272h81l210 -243h-26l210 243h81l-240 -272h-76z" />
    <glyph glyph-name="ccaron" unicode="&#x10d;" horiz-adv-x="826" 
d="M538 -18q-137 0 -233 56.5t-146.5 179.5t-50.5 322t54.5 321.5t160.5 178.5t260 56q51 0 106 -7t104 -22v-68q-53 16 -106 23.5t-102 7.5q-135 0 -225 -46t-135 -152.5t-45 -287.5q0 -183 41.5 -292t123 -156.5t200.5 -47.5q53 0 114 11.5t134 37.5v-68
q-65 -24 -128.5 -35.5t-126.5 -11.5zM462 1264l-222 352h71l202 -328h-26l202 328h71l-222 -352h-76z" />
    <glyph glyph-name="Dcaron" unicode="&#x10e;" horiz-adv-x="1343" 
d="M508 -10q-52 0 -100.5 2t-100.5 6.5t-117 11.5v1451q55 11 113 18.5t115 11t111 3.5q345 0 520.5 -185.5t175.5 -568.5q0 -259 -81 -424.5t-240.5 -245.5t-395.5 -80zM510 56q215 0 357.5 71t214 222t71.5 391q0 238 -68.5 390.5t-208.5 225t-352 72.5q-63 0 -129 -5.5
t-137 -16.5v-1334q58 -8 117.5 -12t134.5 -4zM573 1616l-240 272h81l210 -243h-26l210 243h81l-240 -272h-76z" />
    <glyph glyph-name="dcaron" unicode="&#x10f;" horiz-adv-x="1071" 
d="M523 -18q-117 0 -211 52t-149 169.5t-55 314.5q0 199 59.5 327t175 189.5t284.5 61.5q54 0 107.5 -5t98.5 -13v538h68v-1616h-60l-6 119h-8q-49 -59 -127.5 -98t-176.5 -39zM526 48q87 0 169.5 40.5t137.5 128.5v790q-42 11 -98 17t-111 6q-219 0 -331.5 -118
t-112.5 -386q0 -184 44.5 -288t122.5 -147t179 -43zM1003 1180q12 105 15 224t3 212h64q0 -97 -7.5 -213t-28.5 -223h-46z" />
    <glyph glyph-name="Dcroat" unicode="&#x110;" horiz-adv-x="1343" 
d="M2 732v60h620v-60h-620zM508 -10q-52 0 -100.5 2t-100.5 6.5t-117 11.5v1451q55 11 113 18.5t115 11t111 3.5q345 0 520.5 -185.5t175.5 -568.5q0 -259 -81 -424.5t-240.5 -245.5t-395.5 -80zM510 56q215 0 357.5 71t214 222t71.5 391q0 238 -68.5 390.5t-208.5 225
t-352 72.5q-63 0 -129 -5.5t-137 -16.5v-1334q58 -8 117.5 -12t134.5 -4z" />
    <glyph glyph-name="dcroat" unicode="&#x111;" horiz-adv-x="1071" 
d="M469 1326v60h591v-60h-591zM523 -18q-117 0 -211 52t-149 169.5t-55 314.5q0 199 59.5 327t175 189.5t284.5 61.5q54 0 107.5 -5t98.5 -13v538h68v-1616h-60l-6 119h-8q-49 -59 -127.5 -98t-176.5 -39zM526 48q87 0 169.5 40.5t137.5 128.5v790q-42 11 -98 17t-111 6
q-219 0 -331.5 -118t-112.5 -386q0 -184 44.5 -288t122.5 -147t179 -43z" />
    <glyph glyph-name="Emacron" unicode="&#x112;" horiz-adv-x="1115" 
d="M190 0v1480h844v-66h-776v-1348h786v-66h-854zM240 728v66h699v-66h-699zM364 1723v59h540v-59h-540z" />
    <glyph glyph-name="emacron" unicode="&#x113;" horiz-adv-x="984" 
d="M572 -18q-147 0 -251 56.5t-158.5 179.5t-54.5 322q0 197 50.5 319.5t140 179.5t208.5 57q120 0 206.5 -57t133 -179.5t46.5 -319.5v-30h-752v66h708l-27 -26q0 177 -37.5 282.5t-108 151.5t-169.5 46t-172.5 -46t-114 -151t-40.5 -283v-15q0 -178 46.5 -285t135 -154.5
t214.5 -47.5q61 0 125.5 12.5t141.5 36.5v-68q-73 -24 -139 -35.5t-132 -11.5zM225 1394v59h566v-59h-566z" />
    <glyph glyph-name="Ebreve" unicode="&#x114;" horiz-adv-x="1115" 
d="M190 0v1480h844v-66h-776v-1348h786v-66h-854zM240 728v66h699v-66h-699zM636 1628q-89 0 -150 29t-94.5 81t-39.5 122h58q12 -84 62.5 -128.5t163.5 -44.5q114 0 163.5 44.5t58.5 128.5h58q-6 -71 -38 -123t-92 -80.5t-150 -28.5z" />
    <glyph glyph-name="ebreve" unicode="&#x115;" horiz-adv-x="984" 
d="M572 -18q-147 0 -251 56.5t-158.5 179.5t-54.5 322q0 197 50.5 319.5t140 179.5t208.5 57q120 0 206.5 -57t133 -179.5t46.5 -319.5v-30h-752v66h708l-27 -26q0 177 -37.5 282.5t-108 151.5t-169.5 46t-172.5 -46t-114 -151t-40.5 -283v-15q0 -178 46.5 -285t135 -154.5
t214.5 -47.5q61 0 125.5 12.5t141.5 36.5v-68q-73 -24 -139 -35.5t-132 -11.5zM510 1276q-121 0 -189.5 82.5t-74.5 229.5h58q8 -124 57.5 -189.5t148.5 -65.5q100 0 148.5 65.5t53.5 189.5h58q-5 -148 -72 -230t-188 -82z" />
    <glyph glyph-name="Edotaccent" unicode="&#x116;" horiz-adv-x="1115" 
d="M190 0v1480h844v-66h-776v-1348h786v-66h-854zM240 728v66h699v-66h-699zM634 1690q-27 0 -44.5 17t-17.5 45q0 29 17.5 46.5t44.5 17.5t44.5 -17.5t17.5 -46.5q0 -28 -17.5 -45t-44.5 -17z" />
    <glyph glyph-name="edotaccent" unicode="&#x117;" horiz-adv-x="984" 
d="M572 -18q-147 0 -251 56.5t-158.5 179.5t-54.5 322q0 197 50.5 319.5t140 179.5t208.5 57q120 0 206.5 -57t133 -179.5t46.5 -319.5v-30h-752v66h708l-27 -26q0 177 -37.5 282.5t-108 151.5t-169.5 46t-172.5 -46t-114 -151t-40.5 -283v-15q0 -178 46.5 -285t135 -154.5
t214.5 -47.5q61 0 125.5 12.5t141.5 36.5v-68q-73 -24 -139 -35.5t-132 -11.5zM508 1360q-27 0 -44.5 17t-17.5 45q0 29 17.5 46.5t44.5 17.5t44.5 -17.5t17.5 -46.5q0 -28 -17.5 -45t-44.5 -17z" />
    <glyph glyph-name="Eogonek" unicode="&#x118;" horiz-adv-x="1115" 
d="M190 0v1480h844v-66h-776v-1348h786v-66h-854zM240 728v66h699v-66h-699zM1002 -400q-100 0 -154.5 44.5t-54.5 124.5q0 52 22 99t71.5 91t131.5 88l26 -47q-75 -40 -117.5 -77t-60 -74t-17.5 -77q0 -59 38.5 -89.5t111.5 -30.5q40 0 79 10t91 31v-54q-41 -19 -83 -29
t-84 -10z" />
    <glyph glyph-name="eogonek" unicode="&#x119;" horiz-adv-x="984" 
d="M693 -400q-88 0 -138.5 45.5t-50.5 123.5q0 70 39 129.5t111 100.5l3 -11q-20 -2 -42 -4t-43 -2q-147 0 -251 56.5t-158.5 179.5t-54.5 322q0 197 50.5 319.5t140 179.5t208.5 57q120 0 206.5 -57t133 -179.5t46.5 -319.5v-30h-752v66h708l-27 -26q0 177 -37.5 282.5
t-108 151.5t-169.5 46t-172.5 -46t-114 -151t-40.5 -283v-15q0 -178 46.5 -285t135 -154.5t214.5 -47.5q61 0 125.5 12.5t141.5 36.5v-68q-115 -37 -176 -80.5t-84 -88.5t-23 -87q0 -57 35 -89t95 -32q39 0 77.5 11.5t75.5 33.5v-56q-32 -19 -72.5 -30t-77.5 -11z" />
    <glyph glyph-name="Ecaron" unicode="&#x11a;" horiz-adv-x="1115" 
d="M190 0v1480h844v-66h-776v-1348h786v-66h-854zM240 728v66h699v-66h-699zM596 1616l-240 272h81l210 -243h-26l210 243h81l-240 -272h-76z" />
    <glyph glyph-name="ecaron" unicode="&#x11b;" horiz-adv-x="984" 
d="M572 -18q-147 0 -251 56.5t-158.5 179.5t-54.5 322q0 197 50.5 319.5t140 179.5t208.5 57q120 0 206.5 -57t133 -179.5t46.5 -319.5v-30h-752v66h708l-27 -26q0 177 -37.5 282.5t-108 151.5t-169.5 46t-172.5 -46t-114 -151t-40.5 -283v-15q0 -178 46.5 -285t135 -154.5
t214.5 -47.5q61 0 125.5 12.5t141.5 36.5v-68q-73 -24 -139 -35.5t-132 -11.5zM470 1264l-222 352h71l202 -328h-26l202 328h71l-222 -352h-76z" />
    <glyph glyph-name="Gcircumflex" unicode="&#x11c;" horiz-adv-x="1301" 
d="M827 -10q-231 0 -388.5 77t-239 242t-81.5 429q0 277 84 443.5t233 241.5t342 75q84 0 165.5 -11.5t164.5 -35.5v-68q-96 29 -176 39t-155 10q-174 0 -305.5 -65.5t-206 -217t-74.5 -409.5q0 -246 71.5 -396.5t213.5 -219t352 -68.5q78 0 142 6.5t121 17.5l-22 -35v675
h68v-703q-92 -15 -162.5 -21t-146.5 -6zM431 1616l240 272h76l240 -272h-81l-210 243h26l-210 -243h-81z" />
    <glyph glyph-name="gcircumflex" unicode="&#x11d;" horiz-adv-x="1071" 
d="M466 -460q-67 0 -147.5 13.5t-145.5 37.5v68q81 -27 153 -40t141 -13q185 0 275.5 84.5t90.5 297.5v125h-6q-50 -55 -128.5 -93t-181.5 -38q-112 0 -205 50.5t-148.5 167.5t-55.5 318q0 298 131.5 438t377.5 140q49 0 98.5 -5t96.5 -14.5t89 -22.5v-1061
q0 -245 -110 -349t-325 -104zM521 48q88 0 172.5 39.5t139.5 121.5v794q-42 12 -99.5 19.5t-120.5 7.5q-211 0 -322 -118t-111 -386q0 -186 45.5 -290t122.5 -146t173 -42zM297 1264l218 352h76l218 -352h-71l-198 327h26l-198 -327h-71z" />
    <glyph glyph-name="Gbreve" unicode="&#x11e;" horiz-adv-x="1301" 
d="M827 -10q-231 0 -388.5 77t-239 242t-81.5 429q0 277 84 443.5t233 241.5t342 75q84 0 165.5 -11.5t164.5 -35.5v-68q-96 29 -176 39t-155 10q-174 0 -305.5 -65.5t-206 -217t-74.5 -409.5q0 -246 71.5 -396.5t213.5 -219t352 -68.5q78 0 142 6.5t121 17.5l-22 -35v675
h68v-703q-92 -15 -162.5 -21t-146.5 -6zM711 1628q-89 0 -150 29t-94.5 81t-39.5 122h58q12 -84 62.5 -128.5t163.5 -44.5q114 0 163.5 44.5t58.5 128.5h58q-6 -71 -38 -123t-92 -80.5t-150 -28.5z" />
    <glyph glyph-name="gbreve" unicode="&#x11f;" horiz-adv-x="1071" 
d="M466 -460q-67 0 -147.5 13.5t-145.5 37.5v68q81 -27 153 -40t141 -13q185 0 275.5 84.5t90.5 297.5v125h-6q-50 -55 -128.5 -93t-181.5 -38q-112 0 -205 50.5t-148.5 167.5t-55.5 318q0 298 131.5 438t377.5 140q49 0 98.5 -5t96.5 -14.5t89 -22.5v-1061
q0 -245 -110 -349t-325 -104zM521 48q88 0 172.5 39.5t139.5 121.5v794q-42 12 -99.5 19.5t-120.5 7.5q-211 0 -322 -118t-111 -386q0 -186 45.5 -290t122.5 -146t173 -42zM555 1276q-121 0 -189.5 82.5t-74.5 229.5h58q8 -124 57.5 -189.5t148.5 -65.5q100 0 148.5 65.5
t53.5 189.5h58q-5 -148 -72 -230t-188 -82z" />
    <glyph glyph-name="Gdotaccent" unicode="&#x120;" horiz-adv-x="1301" 
d="M827 -10q-231 0 -388.5 77t-239 242t-81.5 429q0 277 84 443.5t233 241.5t342 75q84 0 165.5 -11.5t164.5 -35.5v-68q-96 29 -176 39t-155 10q-174 0 -305.5 -65.5t-206 -217t-74.5 -409.5q0 -246 71.5 -396.5t213.5 -219t352 -68.5q78 0 142 6.5t121 17.5l-22 -35v675
h68v-703q-92 -15 -162.5 -21t-146.5 -6zM709 1690q-27 0 -44.5 17t-17.5 45q0 29 17.5 46.5t44.5 17.5t44.5 -17.5t17.5 -46.5q0 -28 -17.5 -45t-44.5 -17z" />
    <glyph glyph-name="gdotaccent" unicode="&#x121;" horiz-adv-x="1071" 
d="M466 -460q-67 0 -147.5 13.5t-145.5 37.5v68q81 -27 153 -40t141 -13q185 0 275.5 84.5t90.5 297.5v125h-6q-50 -55 -128.5 -93t-181.5 -38q-112 0 -205 50.5t-148.5 167.5t-55.5 318q0 298 131.5 438t377.5 140q49 0 98.5 -5t96.5 -14.5t89 -22.5v-1061
q0 -245 -110 -349t-325 -104zM521 48q88 0 172.5 39.5t139.5 121.5v794q-42 12 -99.5 19.5t-120.5 7.5q-211 0 -322 -118t-111 -386q0 -186 45.5 -290t122.5 -146t173 -42zM553 1360q-27 0 -44.5 17t-17.5 45q0 29 17.5 46.5t44.5 17.5t44.5 -17.5t17.5 -46.5
q0 -28 -17.5 -45t-44.5 -17z" />
    <glyph glyph-name="uni0122" unicode="&#x122;" horiz-adv-x="1301" 
d="M827 -10q-231 0 -388.5 77t-239 242t-81.5 429q0 277 84 443.5t233 241.5t342 75q84 0 165.5 -11.5t164.5 -35.5v-68q-96 29 -176 39t-155 10q-174 0 -305.5 -65.5t-206 -217t-74.5 -409.5q0 -246 71.5 -396.5t213.5 -219t352 -68.5q78 0 142 6.5t121 17.5l-22 -35v675
h68v-703q-92 -15 -162.5 -21t-146.5 -6zM683 -448q21 54 27.5 94t6.5 76l4 -32h-12q-27 0 -44.5 18t-17.5 46q0 27 16.5 44.5t41.5 17.5q30 0 48 -21t18 -65q0 -36 -10.5 -83.5t-33.5 -94.5h-44z" />
    <glyph glyph-name="uni0123" unicode="&#x123;" horiz-adv-x="1071" 
d="M466 -460q-67 0 -147.5 13.5t-145.5 37.5v68q81 -27 153 -40t141 -13q185 0 275.5 84.5t90.5 297.5v125h-6q-50 -55 -128.5 -93t-181.5 -38q-112 0 -205 50.5t-148.5 167.5t-55.5 318q0 298 131.5 438t377.5 140q49 0 98.5 -5t96.5 -14.5t89 -22.5v-1061
q0 -245 -110 -349t-325 -104zM521 48q88 0 172.5 39.5t139.5 121.5v794q-42 12 -99.5 19.5t-120.5 7.5q-211 0 -322 -118t-111 -386q0 -186 45.5 -290t122.5 -146t173 -42zM557 1360q-30 0 -48 21.5t-18 64.5q0 36 11 84t33 94h44q-21 -54 -27.5 -94t-6.5 -76l-4 32h12
q27 0 44.5 -17.5t17.5 -46.5q0 -27 -16 -44.5t-42 -17.5z" />
    <glyph glyph-name="Hcircumflex" unicode="&#x124;" horiz-adv-x="1398" 
d="M190 0v1480h68v-686h882v686h68v-1480h-68v728h-882v-728h-68zM421 1616l240 272h76l240 -272h-81l-210 243h26l-210 -243h-81z" />
    <glyph glyph-name="hcircumflex" unicode="&#x125;" horiz-adv-x="1087" 
d="M170 0v1616h68v-663h6q72 72 163 107.5t190 35.5q98 0 173.5 -34t118 -112t42.5 -211v-739h-68v740q0 163 -74 225.5t-195 62.5q-59 0 -123 -17t-125 -55.5t-108 -103.5v-852h-68zM273 1712l240 272h76l240 -272h-81l-210 243h26l-210 -243h-81z" />
    <glyph glyph-name="Hbar" unicode="&#x126;" horiz-adv-x="1398" 
d="M2 1110v60h1394v-60h-1394zM190 0v1480h68v-686h882v686h68v-1480h-68v728h-882v-728h-68z" />
    <glyph glyph-name="hbar" unicode="&#x127;" horiz-adv-x="1087" 
d="M11 1326v60h591v-60h-591zM170 0v1616h68v-663h6q72 72 163 107.5t190 35.5q98 0 173.5 -34t118 -112t42.5 -211v-739h-68v740q0 163 -74 225.5t-195 62.5q-59 0 -123 -17t-125 -55.5t-108 -103.5v-852h-68z" />
    <glyph glyph-name="Itilde" unicode="&#x128;" horiz-adv-x="448" 
d="M190 0v1480h68v-1480h-68zM368 1697q-44 0 -83 13t-75 28q-33 14 -65 24.5t-65 10.5q-49 0 -85.5 -17.5t-69.5 -53.5v67q27 30 65.5 45.5t89.5 15.5q44 0 83.5 -12.5t75.5 -28.5q33 -13 64.5 -24t64.5 -11q50 0 86.5 17.5t68.5 53.5v-67q-26 -29 -64.5 -45t-90.5 -16z
" />
    <glyph glyph-name="itilde" unicode="&#x129;" horiz-adv-x="408" 
d="M170 0v1080h68v-1080h-68zM338 1380q-40 0 -77 13.5t-71 27.5q-31 14 -60.5 24.5t-59.5 10.5q-44 0 -80 -17.5t-69 -53.5v67q55 61 149 61q41 0 78 -13t71 -28q31 -13 60.5 -24t58.5 -11q46 0 81.5 17.5t67.5 53.5v-67q-54 -61 -149 -61z" />
    <glyph glyph-name="Imacron" unicode="&#x12a;" horiz-adv-x="448" 
d="M190 0v1480h68v-1480h-68zM-46 1723v59h540v-59h-540z" />
    <glyph glyph-name="imacron" unicode="&#x12b;" horiz-adv-x="408" 
d="M170 0v1080h68v-1080h-68zM-79 1394v59h566v-59h-566z" />
    <glyph glyph-name="Ibreve" unicode="&#x12c;" horiz-adv-x="448" 
d="M190 0v1480h68v-1480h-68zM226 1628q-89 0 -150 29t-94.5 81t-39.5 122h58q12 -84 62.5 -128.5t163.5 -44.5q114 0 163.5 44.5t58.5 128.5h58q-6 -71 -38 -123t-92 -80.5t-150 -28.5z" />
    <glyph glyph-name="ibreve" unicode="&#x12d;" horiz-adv-x="408" 
d="M170 0v1080h68v-1080h-68zM206 1276q-121 0 -189.5 82.5t-74.5 229.5h58q8 -124 57.5 -189.5t148.5 -65.5q100 0 148.5 65.5t53.5 189.5h58q-5 -148 -72 -230t-188 -82z" />
    <glyph glyph-name="Iogonek" unicode="&#x12e;" horiz-adv-x="448" 
d="M190 0v1480h68v-1480h-68zM216 -400q-100 0 -154.5 44.5t-54.5 124.5q0 52 22 99t71.5 91t131.5 88l26 -47q-75 -40 -117.5 -77t-60 -74t-17.5 -77q0 -59 38.5 -89.5t111.5 -30.5q40 0 79 10t91 31v-54q-41 -19 -83 -29t-84 -10z" />
    <glyph glyph-name="iogonek" unicode="&#x12f;" horiz-adv-x="408" 
d="M170 0v1080h68v-1080h-68zM204 1360q-27 0 -44.5 17t-17.5 45q0 29 17.5 46.5t44.5 17.5t44.5 -17.5t17.5 -46.5q0 -28 -17.5 -45t-44.5 -17zM196 -400q-88 0 -138.5 45.5t-50.5 123.5q0 53 22 100t67 91t116 87l26 -47q-62 -38 -100.5 -74.5t-56.5 -74t-18 -79.5
q0 -56 35 -88t95 -32q39 0 77.5 11.5t75.5 33.5v-56q-32 -19 -72.5 -30t-77.5 -11z" />
    <glyph glyph-name="Idotaccent" unicode="&#x130;" horiz-adv-x="448" 
d="M190 0v1480h68v-1480h-68zM224 1690q-27 0 -44.5 17t-17.5 45q0 29 17.5 46.5t44.5 17.5t44.5 -17.5t17.5 -46.5q0 -28 -17.5 -45t-44.5 -17z" />
    <glyph glyph-name="dotlessi" unicode="&#x131;" horiz-adv-x="408" 
d="M170 0v1080h68v-1080h-68z" />
    <glyph glyph-name="Jcircumflex" unicode="&#x134;" horiz-adv-x="448" 
d="M48 -340l-49 35q66 93 108.5 179.5t62.5 185t20 226.5v1194h68v-1227q0 -121 -22 -217.5t-68.5 -186.5t-119.5 -189zM-54 1616l240 272h76l240 -272h-81l-210 243h26l-210 -243h-81z" />
    <glyph glyph-name="jcircumflex" unicode="&#x135;" horiz-adv-x="408" 
d="M28 -460l-49 35q67 92 109 182t62 189.5t20 219.5v914h68v-907q0 -130 -22 -236t-68.5 -202t-119.5 -195zM-52 1270l218 352h76l218 -352h-71l-198 327h26l-198 -327h-71z" />
    <glyph glyph-name="uni0136" unicode="&#x136;" horiz-adv-x="1183" 
d="M1108 0l-620 758l580 722h83l-590 -730v24l632 -774h-85zM190 0v1480h68v-1480h-68zM242 728v65h290v-65h-290zM590 -448q21 54 27.5 94t6.5 76l4 -32h-12q-27 0 -44.5 18t-17.5 46q0 27 16.5 44.5t41.5 17.5q30 0 48 -21t18 -65q0 -36 -10.5 -83.5t-33.5 -94.5h-44z" />
    <glyph glyph-name="uni0137" unicode="&#x137;" horiz-adv-x="957" 
d="M887 0l-464 552l433 528h84l-440 -539v22l472 -563h-85zM222 520v64h244v-64h-244zM170 0v1616h68v-1616h-68zM493 -448q21 54 27.5 94t6.5 76l4 -32h-12q-27 0 -44.5 18t-17.5 46q0 27 16.5 44.5t41.5 17.5q30 0 48 -21t18 -65q0 -36 -10.5 -83.5t-33.5 -94.5h-44z" />
    <glyph glyph-name="kgreenlandic" unicode="&#x138;" horiz-adv-x="957" 
d="M887 0l-464 552l433 528h84l-440 -539v22l472 -563h-85zM170 0v1080h68v-1080h-68zM222 520v64h244v-64h-244z" />
    <glyph glyph-name="Lacute" unicode="&#x139;" horiz-adv-x="1027" 
d="M190 0v1480h68v-1414h756v-66h-824zM192 1616l175 272h79l-190 -272h-64z" />
    <glyph glyph-name="lacute" unicode="&#x13a;" horiz-adv-x="408" 
d="M170 0v1616h68v-1616h-68zM172 1712l175 272h79l-190 -272h-64z" />
    <glyph glyph-name="uni013B" unicode="&#x13b;" horiz-adv-x="1027" 
d="M190 0v1480h68v-1414h756v-66h-824zM577 -448q21 54 27.5 94t6.5 76l4 -32h-12q-27 0 -44.5 18t-17.5 46q0 27 16.5 44.5t41.5 17.5q30 0 48 -21t18 -65q0 -36 -10.5 -83.5t-33.5 -94.5h-44z" />
    <glyph glyph-name="uni013C" unicode="&#x13c;" horiz-adv-x="408" 
d="M170 0v1616h68v-1616h-68zM178 -448q21 54 27.5 94t6.5 76l4 -32h-12q-27 0 -44.5 18t-17.5 46q0 27 16.5 44.5t41.5 17.5q30 0 48 -21t18 -65q0 -36 -10.5 -83.5t-33.5 -94.5h-44z" />
    <glyph glyph-name="Lcaron" unicode="&#x13d;" horiz-adv-x="1027" 
d="M190 0v1480h68v-1414h756v-66h-824zM648 1140q8 70 12 149t5 162t1 165h64q0 -127 -7.5 -248t-28.5 -228h-46z" />
    <glyph glyph-name="lcaron" unicode="&#x13e;" horiz-adv-x="408" 
d="M170 0v1616h68v-1616h-68zM340 1180q12 105 15 224t3 212h64q0 -97 -7.5 -213t-28.5 -223h-46z" />
    <glyph glyph-name="Ldot" unicode="&#x13f;" horiz-adv-x="1027" 
d="M190 0v1480h68v-1414h756v-66h-824zM727 710q-27 0 -44.5 17t-17.5 45q0 29 17.5 46.5t44.5 17.5t44.5 -17.5t17.5 -46.5q0 -28 -17.5 -45t-44.5 -17z" />
    <glyph glyph-name="ldot" unicode="&#x140;" horiz-adv-x="408" 
d="M170 0v1616h68v-1616h-68zM397 730q-27 0 -44.5 17t-17.5 45q0 29 17.5 46.5t44.5 17.5t44.5 -17.5t17.5 -46.5q0 -28 -17.5 -45t-44.5 -17z" />
    <glyph glyph-name="Lslash" unicode="&#x141;" horiz-adv-x="1027" 
d="M9 540v79l533 467v-79zM190 0v1480h68v-1414h756v-66h-824z" />
    <glyph glyph-name="lslash" unicode="&#x142;" horiz-adv-x="408" 
d="M27 522v79l347 304v-79zM170 0v1616h68v-1616h-68z" />
    <glyph glyph-name="Nacute" unicode="&#x143;" horiz-adv-x="1427" 
d="M190 0v1480h75l937 -1420h-31v1420h66v-1480h-75l-937 1420h31v-1420h-66zM682 1616l175 272h79l-190 -272h-64z" />
    <glyph glyph-name="nacute" unicode="&#x144;" horiz-adv-x="1087" 
d="M170 0v1080h60l6 -129h8q70 70 161 107.5t191 37.5q99 0 174.5 -34t118 -112.5t42.5 -211.5v-738h-68v738q0 163 -72.5 227.5t-196.5 64.5q-56 0 -120 -16.5t-126 -55.5t-110 -105v-853h-68zM519 1264l208 352h78l-222 -352h-64z" />
    <glyph glyph-name="uni0145" unicode="&#x145;" horiz-adv-x="1427" 
d="M190 0v1480h75l937 -1420h-31v1420h66v-1480h-75l-937 1420h31v-1420h-66zM688 -448q21 54 27.5 94t6.5 76l4 -32h-12q-27 0 -44.5 18t-17.5 46q0 27 16.5 44.5t41.5 17.5q30 0 48 -21t18 -65q0 -36 -10.5 -83.5t-33.5 -94.5h-44z" />
    <glyph glyph-name="uni0146" unicode="&#x146;" horiz-adv-x="1087" 
d="M170 0v1080h60l6 -129h8q70 70 161 107.5t191 37.5q99 0 174.5 -34t118 -112.5t42.5 -211.5v-738h-68v738q0 163 -72.5 227.5t-196.5 64.5q-56 0 -120 -16.5t-126 -55.5t-110 -105v-853h-68zM525 -448q21 54 27.5 94t6.5 76l4 -32h-12q-27 0 -44.5 18t-17.5 46
q0 27 16.5 44.5t41.5 17.5q30 0 48 -21t18 -65q0 -36 -10.5 -83.5t-33.5 -94.5h-44z" />
    <glyph glyph-name="Ncaron" unicode="&#x147;" horiz-adv-x="1427" 
d="M190 0v1480h75l937 -1420h-31v1420h66v-1480h-75l-937 1420h31v-1420h-66zM676 1616l-240 272h81l210 -243h-26l210 243h81l-240 -272h-76z" />
    <glyph glyph-name="ncaron" unicode="&#x148;" horiz-adv-x="1087" 
d="M170 0v1080h60l6 -129h8q70 70 161 107.5t191 37.5q99 0 174.5 -34t118 -112.5t42.5 -211.5v-738h-68v738q0 163 -72.5 227.5t-196.5 64.5q-56 0 -120 -16.5t-126 -55.5t-110 -105v-853h-68zM513 1264l-222 352h71l202 -328h-26l202 328h71l-222 -352h-76z" />
    <glyph glyph-name="napostrophe" unicode="&#x149;" horiz-adv-x="1087" 
d="M170 0v1080h60l6 -129h8q70 70 161 107.5t191 37.5q99 0 174.5 -34t118 -112.5t42.5 -211.5v-738h-68v738q0 163 -72.5 227.5t-196.5 64.5q-56 0 -120 -16.5t-126 -55.5t-110 -105v-853h-68zM49 1360q21 54 27.5 94t6.5 76l4 -32h-12q-27 0 -44.5 18t-17.5 46
q0 27 16.5 44.5t41.5 17.5q30 0 48 -21t18 -65q0 -36 -10.5 -83.5t-33.5 -94.5h-44z" />
    <glyph glyph-name="Eng" unicode="&#x14a;" horiz-adv-x="1427" 
d="M1175 -21l-951 1441h32v-1420h-66v1480h75l951 -1441zM1027 -460l-49 35q67 92 109.5 182t63 189.5t20.5 219.5v1314h66v-1307q0 -130 -22 -236t-68.5 -202t-119.5 -195z" />
    <glyph glyph-name="eng" unicode="&#x14b;" horiz-adv-x="1087" 
d="M721 -460l-49 35q67 92 109 182t62 189.5t20 219.5v574q0 163 -74 226.5t-195 63.5q-59 0 -123 -17.5t-125 -56.5t-108 -104v-852h-68v1080h60l6 -129h8q72 74 163 109.5t190 35.5q98 0 173.5 -34t118 -112t42.5 -211v-606q0 -115 -22 -212.5t-68.5 -189.5t-119.5 -191z
" />
    <glyph glyph-name="Omacron" unicode="&#x14c;" horiz-adv-x="1368" 
d="M684 -18q-169 0 -296.5 76t-198.5 243t-71 439q0 273 71.5 440t199 242.5t295.5 75.5q170 0 297 -75.5t198 -242.5t71 -440q0 -272 -71.5 -439t-199 -243t-295.5 -76zM684 49q147 0 258.5 65t173.5 215.5t62 406.5q0 260 -62 412t-173.5 217.5t-258.5 65.5t-258 -65
t-173.5 -215.5t-62.5 -406.5q0 -260 62.5 -412t173.5 -217.5t258 -65.5zM414 1723v59h540v-59h-540z" />
    <glyph glyph-name="omacron" unicode="&#x14d;" horiz-adv-x="1058" 
d="M529 -18q-126 0 -220.5 56t-147.5 179t-53 323q0 199 53 321.5t147.5 178.5t220.5 56t221 -55.5t147.5 -177.5t52.5 -323q0 -198 -52.5 -321t-147.5 -180t-221 -57zM529 48q106 0 184.5 46t121.5 153.5t43 289.5q0 186 -43 293.5t-121.5 153.5t-184.5 46t-184.5 -45.5
t-121.5 -152t-43 -289.5q0 -185 43 -293.5t121.5 -155t184.5 -46.5zM246 1394v59h566v-59h-566z" />
    <glyph glyph-name="Obreve" unicode="&#x14e;" horiz-adv-x="1368" 
d="M684 -18q-169 0 -296.5 76t-198.5 243t-71 439q0 273 71.5 440t199 242.5t295.5 75.5q170 0 297 -75.5t198 -242.5t71 -440q0 -272 -71.5 -439t-199 -243t-295.5 -76zM684 49q147 0 258.5 65t173.5 215.5t62 406.5q0 260 -62 412t-173.5 217.5t-258.5 65.5t-258 -65
t-173.5 -215.5t-62.5 -406.5q0 -260 62.5 -412t173.5 -217.5t258 -65.5zM686 1628q-89 0 -150 29t-94.5 81t-39.5 122h58q12 -84 62.5 -128.5t163.5 -44.5q114 0 163.5 44.5t58.5 128.5h58q-6 -71 -38 -123t-92 -80.5t-150 -28.5z" />
    <glyph glyph-name="obreve" unicode="&#x14f;" horiz-adv-x="1058" 
d="M529 -18q-126 0 -220.5 56t-147.5 179t-53 323q0 199 53 321.5t147.5 178.5t220.5 56t221 -55.5t147.5 -177.5t52.5 -323q0 -198 -52.5 -321t-147.5 -180t-221 -57zM529 48q106 0 184.5 46t121.5 153.5t43 289.5q0 186 -43 293.5t-121.5 153.5t-184.5 46t-184.5 -45.5
t-121.5 -152t-43 -289.5q0 -185 43 -293.5t121.5 -155t184.5 -46.5zM531 1276q-121 0 -189.5 82.5t-74.5 229.5h58q8 -124 57.5 -189.5t148.5 -65.5q100 0 148.5 65.5t53.5 189.5h58q-5 -148 -72 -230t-188 -82z" />
    <glyph glyph-name="Ohungarumlaut" unicode="&#x150;" horiz-adv-x="1368" 
d="M684 -18q-169 0 -296.5 76t-198.5 243t-71 439q0 273 71.5 440t199 242.5t295.5 75.5q170 0 297 -75.5t198 -242.5t71 -440q0 -272 -71.5 -439t-199 -243t-295.5 -76zM684 49q147 0 258.5 65t173.5 215.5t62 406.5q0 260 -62 412t-173.5 217.5t-258.5 65.5t-258 -65
t-173.5 -215.5t-62.5 -406.5q0 -260 62.5 -412t173.5 -217.5t258 -65.5zM801 1616l123 272h68l-130 -272h-61zM506 1616l123 272h68l-130 -272h-61z" />
    <glyph glyph-name="ohungarumlaut" unicode="&#x151;" horiz-adv-x="1058" 
d="M529 -18q-126 0 -220.5 56t-147.5 179t-53 323q0 199 53 321.5t147.5 178.5t220.5 56t221 -55.5t147.5 -177.5t52.5 -323q0 -198 -52.5 -321t-147.5 -180t-221 -57zM529 48q106 0 184.5 46t121.5 153.5t43 289.5q0 186 -43 293.5t-121.5 153.5t-184.5 46t-184.5 -45.5
t-121.5 -152t-43 -289.5q0 -185 43 -293.5t121.5 -155t184.5 -46.5zM646 1264l134 352h66l-142 -352h-58zM354 1264l134 352h66l-142 -352h-58z" />
    <glyph glyph-name="OE" unicode="&#x152;" horiz-adv-x="1946" 
d="M818 -10q-227 0 -383 80t-236.5 245.5t-80.5 424.5q0 255 78 422.5t230 249.5t374 82q85 0 162.5 -7t140.5 -7h762v-66h-744v-1348h754v-66h-759q-39 0 -87.5 -2.5t-102 -5t-108.5 -2.5zM816 56q76 0 134 2.5t103 8.5v1346q-61 8 -120 11.5t-128 3.5q-205 0 -341.5 -72.5
t-205 -225t-68.5 -390.5q0 -240 71 -391t210 -222t345 -71zM1113 728v66h657v-66h-657z" />
    <glyph glyph-name="oe" unicode="&#x153;" horiz-adv-x="1738" 
d="M525 -18q-124 0 -218 56t-146.5 179t-52.5 323q0 199 52.5 321.5t146.5 178.5t218 56t216 -55.5t143 -177.5t51 -323q0 -198 -51 -321t-143 -180t-216 -57zM525 48q104 0 181.5 46t120.5 153.5t43 289.5q0 186 -43 293.5t-120.5 153.5t-181.5 46t-181.5 -45.5
t-120.5 -152t-43 -289.5q0 -185 43 -293.5t120.5 -155t181.5 -46.5zM1330 -18q-146 0 -247.5 57t-155 180.5t-53.5 322.5l6 9q0 194 47 314.5t133 176t203 55.5q119 0 205 -56.5t132.5 -179t46.5 -319.5v-32h-732v66h688l-27 -32q0 182 -37.5 288.5t-107.5 152.5t-168 46
q-97 0 -169 -46t-112 -151.5t-40 -283.5v-15q0 -178 46 -285t134 -154.5t212 -47.5q60 0 124 12.5t139 36.5v-68q-71 -24 -137 -35.5t-130 -11.5z" />
    <glyph glyph-name="Racute" unicode="&#x154;" horiz-adv-x="1266" 
d="M190 0v1461q51 9 104.5 16.5t115 12t135.5 4.5q277 0 409.5 -100.5t132.5 -316.5q0 -141 -65.5 -235.5t-197.5 -142.5t-333 -48q-71 0 -124 3t-109 7v-661h-68zM1110 0l-549 703h85l551 -703h-87zM489 716q283 0 406.5 89.5t123.5 269.5q0 126 -49 204t-154 113.5
t-275 35.5q-89 0 -153 -6t-130 -18v-678q44 -3 78.5 -5.5t70 -3.5t82.5 -1zM570 1616l175 272h79l-190 -272h-64z" />
    <glyph glyph-name="racute" unicode="&#x155;" horiz-adv-x="673" 
d="M170 0v1080h60l6 -147h8q61 75 151 115t181 40q25 0 44.5 -1.5t39.5 -5.5v-68q-21 4 -40.5 4.5t-44.5 0.5q-57 0 -119.5 -19.5t-119.5 -60t-98 -102.5v-836h-68zM370 1264l208 352h78l-222 -352h-64z" />
    <glyph glyph-name="uni0156" unicode="&#x156;" horiz-adv-x="1266" 
d="M190 0v1461q51 9 104.5 16.5t115 12t135.5 4.5q277 0 409.5 -100.5t132.5 -316.5q0 -141 -65.5 -235.5t-197.5 -142.5t-333 -48q-71 0 -124 3t-109 7v-661h-68zM1110 0l-549 703h85l551 -703h-87zM489 716q283 0 406.5 89.5t123.5 269.5q0 126 -49 204t-154 113.5
t-275 35.5q-89 0 -153 -6t-130 -18v-678q44 -3 78.5 -5.5t70 -3.5t82.5 -1zM634 -448q21 54 27.5 94t6.5 76l4 -32h-12q-27 0 -44.5 18t-17.5 46q0 27 16.5 44.5t41.5 17.5q30 0 48 -21t18 -65q0 -36 -10.5 -83.5t-33.5 -94.5h-44z" />
    <glyph glyph-name="uni0157" unicode="&#x157;" horiz-adv-x="673" 
d="M170 0v1080h60l6 -147h8q61 75 151 115t181 40q25 0 44.5 -1.5t39.5 -5.5v-68q-21 4 -40.5 4.5t-44.5 0.5q-57 0 -119.5 -19.5t-119.5 -60t-98 -102.5v-836h-68zM178 -448q21 54 27.5 94t6.5 76l4 -32h-12q-27 0 -44.5 18t-17.5 46q0 27 16.5 44.5t41.5 17.5q30 0 48 -21
t18 -65q0 -36 -10.5 -83.5t-33.5 -94.5h-44z" />
    <glyph glyph-name="Rcaron" unicode="&#x158;" horiz-adv-x="1266" 
d="M190 0v1461q51 9 104.5 16.5t115 12t135.5 4.5q277 0 409.5 -100.5t132.5 -316.5q0 -141 -65.5 -235.5t-197.5 -142.5t-333 -48q-71 0 -124 3t-109 7v-661h-68zM1110 0l-549 703h85l551 -703h-87zM489 716q283 0 406.5 89.5t123.5 269.5q0 126 -49 204t-154 113.5
t-275 35.5q-89 0 -153 -6t-130 -18v-678q44 -3 78.5 -5.5t70 -3.5t82.5 -1zM564 1616l-240 272h81l210 -243h-26l210 243h81l-240 -272h-76z" />
    <glyph glyph-name="rcaron" unicode="&#x159;" horiz-adv-x="673" 
d="M170 0v1080h60l6 -147h8q61 75 151 115t181 40q25 0 44.5 -1.5t39.5 -5.5v-68q-21 4 -40.5 4.5t-44.5 0.5q-57 0 -119.5 -19.5t-119.5 -60t-98 -102.5v-836h-68zM364 1264l-222 352h71l202 -328h-26l202 328h71l-222 -352h-76z" />
    <glyph glyph-name="Sacute" unicode="&#x15a;" horiz-adv-x="1010" 
d="M438 -18q-77 0 -165 14t-172 43v68q62 -21 121 -34t114 -19t106 -6q204 0 307.5 83.5t103.5 245.5q0 138 -79 210t-260 119l-62 16q-185 48 -276 142t-91 248q0 179 120.5 282.5t355.5 103.5q77 0 157.5 -11t148.5 -34v-68q-78 25 -155 36t-155 11q-133 0 -222 -36.5
t-133.5 -107t-44.5 -172.5q0 -134 73 -207t247 -119l62 -16q133 -34 218.5 -86.5t126.5 -128t41 -179.5q0 -128 -56.5 -217t-165.5 -135t-265 -46zM480 1616l175 272h79l-190 -272h-64z" />
    <glyph glyph-name="sacute" unicode="&#x15b;" horiz-adv-x="856" 
d="M392 -18q-74 0 -140.5 10t-131.5 31v68q80 -24 144.5 -33.5t130.5 -9.5q160 0 235 59.5t75 166.5q0 94 -47.5 144t-159.5 74l-129 28q-145 34 -205 105t-60 178q0 126 93.5 209.5t287.5 83.5q64 0 121 -7t114 -23v-68q-66 19 -120 25.5t-115 6.5q-111 0 -179 -29.5
t-99.5 -80t-31.5 -114.5q0 -81 44 -135t155 -79l129 -28q153 -34 213 -104t60 -180q0 -137 -96 -217.5t-288 -80.5zM402 1264l208 352h78l-222 -352h-64z" />
    <glyph glyph-name="Scircumflex" unicode="&#x15c;" horiz-adv-x="1010" 
d="M438 -18q-77 0 -165 14t-172 43v68q62 -21 121 -34t114 -19t106 -6q204 0 307.5 83.5t103.5 245.5q0 138 -79 210t-260 119l-62 16q-185 48 -276 142t-91 248q0 179 120.5 282.5t355.5 103.5q77 0 157.5 -11t148.5 -34v-68q-78 25 -155 36t-155 11q-133 0 -222 -36.5
t-133.5 -107t-44.5 -172.5q0 -134 73 -207t247 -119l62 -16q133 -34 218.5 -86.5t126.5 -128t41 -179.5q0 -128 -56.5 -217t-165.5 -135t-265 -46zM234 1616l240 272h76l240 -272h-81l-210 243h26l-210 -243h-81z" />
    <glyph glyph-name="scircumflex" unicode="&#x15d;" horiz-adv-x="856" 
d="M392 -18q-74 0 -140.5 10t-131.5 31v68q80 -24 144.5 -33.5t130.5 -9.5q160 0 235 59.5t75 166.5q0 94 -47.5 144t-159.5 74l-129 28q-145 34 -205 105t-60 178q0 126 93.5 209.5t287.5 83.5q64 0 121 -7t114 -23v-68q-66 19 -120 25.5t-115 6.5q-111 0 -179 -29.5
t-99.5 -80t-31.5 -114.5q0 -81 44 -135t155 -79l129 -28q153 -34 213 -104t60 -180q0 -137 -96 -217.5t-288 -80.5zM178 1264l218 352h76l218 -352h-71l-198 327h26l-198 -327h-71z" />
    <glyph glyph-name="Scedilla" unicode="&#x15e;" horiz-adv-x="1010" 
d="M438 -18q-77 0 -165 14t-172 43v68q62 -21 121 -34t114 -19t106 -6q204 0 307.5 83.5t103.5 245.5q0 138 -79 210t-260 119l-62 16q-185 48 -276 142t-91 248q0 179 120.5 282.5t355.5 103.5q77 0 157.5 -11t148.5 -34v-68q-78 25 -155 36t-155 11q-133 0 -222 -36.5
t-133.5 -107t-44.5 -172.5q0 -134 73 -207t247 -119l62 -16q133 -34 218.5 -86.5t126.5 -128t41 -179.5q0 -128 -56.5 -217t-165.5 -135t-265 -46zM530 -400q-45 0 -94.5 10t-92.5 29v56q56 -24 100 -33.5t87 -9.5q63 0 99 22t36 70t-36 70t-101 22h-38v184h56v-162l-13 30
q84 0 136 -35.5t52 -108.5q0 -71 -52.5 -107.5t-138.5 -36.5z" />
    <glyph glyph-name="scedilla" unicode="&#x15f;" horiz-adv-x="856" 
d="M392 -18q-74 0 -140.5 10t-131.5 31v68q80 -24 144.5 -33.5t130.5 -9.5q160 0 235 59.5t75 166.5q0 94 -47.5 144t-159.5 74l-129 28q-145 34 -205 105t-60 178q0 126 93.5 209.5t287.5 83.5q64 0 121 -7t114 -23v-68q-66 19 -120 25.5t-115 6.5q-111 0 -179 -29.5
t-99.5 -80t-31.5 -114.5q0 -81 44 -135t155 -79l129 -28q153 -34 213 -104t60 -180q0 -137 -96 -217.5t-288 -80.5zM442 -400q-41 0 -86 10t-77 27v56q45 -23 86.5 -32t79.5 -9q60 0 89 23t29 68q0 93 -120 93h-32v184h56v-162l-23 29q84 0 129 -37.5t45 -106.5
q0 -66 -46 -104.5t-130 -38.5z" />
    <glyph glyph-name="Scaron" unicode="&#x160;" horiz-adv-x="1010" 
d="M438 -18q-77 0 -165 14t-172 43v68q62 -21 121 -34t114 -19t106 -6q204 0 307.5 83.5t103.5 245.5q0 138 -79 210t-260 119l-62 16q-185 48 -276 142t-91 248q0 179 120.5 282.5t355.5 103.5q77 0 157.5 -11t148.5 -34v-68q-78 25 -155 36t-155 11q-133 0 -222 -36.5
t-133.5 -107t-44.5 -172.5q0 -134 73 -207t247 -119l62 -16q133 -34 218.5 -86.5t126.5 -128t41 -179.5q0 -128 -56.5 -217t-165.5 -135t-265 -46zM474 1616l-240 272h81l210 -243h-26l210 243h81l-240 -272h-76z" />
    <glyph glyph-name="scaron" unicode="&#x161;" horiz-adv-x="856" 
d="M392 -18q-74 0 -140.5 10t-131.5 31v68q80 -24 144.5 -33.5t130.5 -9.5q160 0 235 59.5t75 166.5q0 94 -47.5 144t-159.5 74l-129 28q-145 34 -205 105t-60 178q0 126 93.5 209.5t287.5 83.5q64 0 121 -7t114 -23v-68q-66 19 -120 25.5t-115 6.5q-111 0 -179 -29.5
t-99.5 -80t-31.5 -114.5q0 -81 44 -135t155 -79l129 -28q153 -34 213 -104t60 -180q0 -137 -96 -217.5t-288 -80.5zM396 1264l-222 352h71l202 -328h-26l202 328h71l-222 -352h-76z" />
    <glyph glyph-name="uni0162" unicode="&#x162;" horiz-adv-x="1112" 
d="M522 0v1414h-508v66h1084v-66h-508v-1414h-68zM574 -400q-45 0 -94.5 10t-92.5 29v56q56 -24 100 -33.5t87 -9.5q63 0 99 22t36 70t-36 70t-101 22h-38v184h56v-162l-13 30q84 0 136 -35.5t52 -108.5q0 -71 -52.5 -107.5t-138.5 -36.5z" />
    <glyph glyph-name="uni0163" unicode="&#x163;" horiz-adv-x="694" 
d="M542 -18q-147 0 -231 77.5t-84 250.5v770l8 400h60v-1158q0 -150 64.5 -212t186.5 -62q33 0 67 5t75 14v-68q-39 -9 -74 -13t-72 -4zM7 1016v64h659v-64h-659zM466 -400q-41 0 -86 10t-77 27v56q45 -23 86.5 -32t79.5 -9q60 0 89 23t29 68q0 93 -120 93h-32v184h56v-162
l-23 29q84 0 129 -37.5t45 -106.5q0 -66 -46 -104.5t-130 -38.5z" />
    <glyph glyph-name="Tcaron" unicode="&#x164;" horiz-adv-x="1112" 
d="M522 0v1414h-508v66h1084v-66h-508v-1414h-68zM518 1616l-240 272h81l210 -243h-26l210 243h81l-240 -272h-76z" />
    <glyph glyph-name="tcaron" unicode="&#x165;" horiz-adv-x="694" 
d="M542 -18q-147 0 -231 77.5t-84 250.5v770l8 400h60v-1158q0 -150 64.5 -212t186.5 -62q33 0 67 5t75 14v-68q-39 -9 -74 -13t-72 -4zM7 1016v64h659v-64h-659zM478 1180q12 105 15 224t3 212h64q0 -97 -7.5 -213t-28.5 -223h-46z" />
    <glyph glyph-name="Tbar" unicode="&#x166;" horiz-adv-x="1112" 
d="M184 770v60h744v-60h-744zM522 0v1414h-508v66h1084v-66h-508v-1414h-68z" />
    <glyph glyph-name="tbar" unicode="&#x167;" horiz-adv-x="694" 
d="M68 630v60h551v-60h-551zM542 -18q-147 0 -231 77.5t-84 250.5v770l8 400h60v-1158q0 -150 64.5 -212t186.5 -62q33 0 67 5t75 14v-68q-39 -9 -74 -13t-72 -4zM7 1016v64h659v-64h-659z" />
    <glyph glyph-name="Utilde" unicode="&#x168;" horiz-adv-x="1372" 
d="M687 -18q-173 0 -285 58t-166 179t-54 310v951h68v-961q0 -243 104.5 -357t332.5 -114q229 0 333 114t104 357v961h66v-951q0 -189 -53.5 -310t-164.5 -179t-285 -58zM831 1697q-44 0 -83 13t-75 28q-33 14 -65 24.5t-65 10.5q-49 0 -85.5 -17.5t-69.5 -53.5v67
q27 30 65.5 45.5t89.5 15.5q44 0 83.5 -12.5t75.5 -28.5q33 -13 64.5 -24t64.5 -11q50 0 86.5 17.5t68.5 53.5v-67q-26 -29 -64.5 -45t-90.5 -16z" />
    <glyph glyph-name="utilde" unicode="&#x169;" horiz-adv-x="1077" 
d="M486 -18q-96 0 -170.5 34t-117 112.5t-42.5 210.5v741h68v-742q0 -162 74 -226t190 -64q57 0 121 17.5t124 56.5t106 103v855h68v-1080h-60l-6 124h-8q-70 -71 -160.5 -106.5t-186.5 -35.5zM666 1380q-40 0 -77 13.5t-71 27.5q-31 14 -60.5 24.5t-59.5 10.5
q-44 0 -80 -17.5t-69 -53.5v67q55 61 149 61q41 0 78 -13t71 -28q31 -13 60.5 -24t58.5 -11q46 0 81.5 17.5t67.5 53.5v-67q-54 -61 -149 -61z" />
    <glyph glyph-name="Umacron" unicode="&#x16a;" horiz-adv-x="1372" 
d="M687 -18q-173 0 -285 58t-166 179t-54 310v951h68v-961q0 -243 104.5 -357t332.5 -114q229 0 333 114t104 357v961h66v-951q0 -189 -53.5 -310t-164.5 -179t-285 -58zM417 1723v59h540v-59h-540z" />
    <glyph glyph-name="umacron" unicode="&#x16b;" horiz-adv-x="1077" 
d="M486 -18q-96 0 -170.5 34t-117 112.5t-42.5 210.5v741h68v-742q0 -162 74 -226t190 -64q57 0 121 17.5t124 56.5t106 103v855h68v-1080h-60l-6 124h-8q-70 -71 -160.5 -106.5t-186.5 -35.5zM249 1394v59h566v-59h-566z" />
    <glyph glyph-name="Ubreve" unicode="&#x16c;" horiz-adv-x="1372" 
d="M687 -18q-173 0 -285 58t-166 179t-54 310v951h68v-961q0 -243 104.5 -357t332.5 -114q229 0 333 114t104 357v961h66v-951q0 -189 -53.5 -310t-164.5 -179t-285 -58zM689 1628q-89 0 -150 29t-94.5 81t-39.5 122h58q12 -84 62.5 -128.5t163.5 -44.5q114 0 163.5 44.5
t58.5 128.5h58q-6 -71 -38 -123t-92 -80.5t-150 -28.5z" />
    <glyph glyph-name="ubreve" unicode="&#x16d;" horiz-adv-x="1077" 
d="M486 -18q-96 0 -170.5 34t-117 112.5t-42.5 210.5v741h68v-742q0 -162 74 -226t190 -64q57 0 121 17.5t124 56.5t106 103v855h68v-1080h-60l-6 124h-8q-70 -71 -160.5 -106.5t-186.5 -35.5zM534 1276q-121 0 -189.5 82.5t-74.5 229.5h58q8 -124 57.5 -189.5t148.5 -65.5
q100 0 148.5 65.5t53.5 189.5h58q-5 -148 -72 -230t-188 -82z" />
    <glyph glyph-name="Uring" unicode="&#x16e;" horiz-adv-x="1372" 
d="M687 -18q-173 0 -285 58t-166 179t-54 310v951h68v-961q0 -243 104.5 -357t332.5 -114q229 0 333 114t104 357v961h66v-951q0 -189 -53.5 -310t-164.5 -179t-285 -58zM687 1611q-79 0 -131.5 52.5t-52.5 131.5q0 80 52.5 132t131.5 52q80 0 132 -52t52 -132
q0 -79 -52 -131.5t-132 -52.5zM687 1663q57 0 93.5 35.5t36.5 96.5q0 62 -36.5 97t-93.5 35t-93.5 -35t-36.5 -97q0 -61 36.5 -96.5t93.5 -35.5z" />
    <glyph glyph-name="uring" unicode="&#x16f;" horiz-adv-x="1077" 
d="M486 -18q-96 0 -170.5 34t-117 112.5t-42.5 210.5v741h68v-742q0 -162 74 -226t190 -64q57 0 121 17.5t124 56.5t106 103v855h68v-1080h-60l-6 124h-8q-70 -71 -160.5 -106.5t-186.5 -35.5zM532 1260q-79 0 -131.5 52.5t-52.5 131.5q0 80 52.5 132t131.5 52q80 0 132 -52
t52 -132q0 -79 -52 -131.5t-132 -52.5zM532 1312q57 0 93.5 35.5t36.5 96.5q0 62 -36.5 97t-93.5 35t-93.5 -35t-36.5 -97q0 -61 36.5 -96.5t93.5 -35.5z" />
    <glyph glyph-name="Uhungarumlaut" unicode="&#x170;" horiz-adv-x="1372" 
d="M687 -18q-173 0 -285 58t-166 179t-54 310v951h68v-961q0 -243 104.5 -357t332.5 -114q229 0 333 114t104 357v961h66v-951q0 -189 -53.5 -310t-164.5 -179t-285 -58zM804 1616l123 272h68l-130 -272h-61zM509 1616l123 272h68l-130 -272h-61z" />
    <glyph glyph-name="uhungarumlaut" unicode="&#x171;" horiz-adv-x="1077" 
d="M486 -18q-96 0 -170.5 34t-117 112.5t-42.5 210.5v741h68v-742q0 -162 74 -226t190 -64q57 0 121 17.5t124 56.5t106 103v855h68v-1080h-60l-6 124h-8q-70 -71 -160.5 -106.5t-186.5 -35.5zM649 1264l134 352h66l-142 -352h-58zM357 1264l134 352h66l-142 -352h-58z" />
    <glyph glyph-name="Uogonek" unicode="&#x172;" horiz-adv-x="1372" 
d="M780 -398q-101 0 -155 45t-54 128q0 62 35 120t119 100l7 -13h-45q-173 0 -285 58t-166 179t-54 310v951h68v-961q0 -243 104.5 -357t332.5 -114q229 0 333 114t104 357v961h66v-951q0 -213 -71 -344.5t-237 -179.5q-96 -28 -152 -64.5t-79.5 -78.5t-23.5 -86
q0 -60 38.5 -91t111.5 -31q40 0 79 10t91 31v-54q-41 -19 -83 -29t-84 -10z" />
    <glyph glyph-name="uogonek" unicode="&#x173;" horiz-adv-x="1077" 
d="M486 -18q-96 0 -170.5 34t-117 112.5t-42.5 210.5v741h68v-742q0 -162 74 -226t190 -64q57 0 121 17.5t124 56.5t106 103v855h68v-1080h-60l-6 124h-8q-70 -71 -160.5 -106.5t-186.5 -35.5zM865 -400q-88 0 -138.5 45.5t-50.5 123.5q0 53 22 100t67 91t116 87l26 -47
q-62 -38 -100.5 -74.5t-56.5 -74t-18 -79.5q0 -56 35 -88t95 -32q39 0 77.5 11.5t75.5 33.5v-56q-32 -19 -72.5 -30t-77.5 -11z" />
    <glyph glyph-name="Wcircumflex" unicode="&#x174;" horiz-adv-x="2021" 
d="M502 0l-433 1480h73l416 -1440h-16l422 1440h94l423 -1440h-16l417 1440h69l-432 -1480h-94l-423 1432h17l-423 -1432h-94zM734 1616l240 272h76l240 -272h-81l-210 243h26l-210 -243h-81z" />
    <glyph glyph-name="wcircumflex" unicode="&#x175;" horiz-adv-x="1624" 
d="M401 0l-331 1080h73l314 -1040h-16l325 1040h94l326 -1040h-16l313 1040h71l-330 -1080h-94l-326 1034h17l-326 -1034h-94zM558 1264l218 352h76l218 -352h-71l-198 327h26l-198 -327h-71z" />
    <glyph glyph-name="Ycircumflex" unicode="&#x176;" horiz-adv-x="1112" 
d="M522 0v707l18 -55l-559 828h83l510 -760h-34l503 760h80l-551 -828l18 55v-707h-68zM278 1616l240 272h76l240 -272h-81l-210 243h26l-210 -243h-81z" />
    <glyph glyph-name="ycircumflex" unicode="&#x177;" horiz-adv-x="995" 
d="M299 -440l174 440l17 36l407 1044h73l-599 -1520h-72zM451 0l-426 1080h76l420 -1080h-70zM243 1264l218 352h76l218 -352h-71l-198 327h26l-198 -327h-71z" />
    <glyph glyph-name="Ydieresis" unicode="&#x178;" horiz-adv-x="1112" 
d="M522 0v707l18 -55l-559 828h83l510 -760h-34l503 760h80l-551 -828l18 55v-707h-68zM776 1690q-27 0 -44.5 17t-17.5 45q0 29 17.5 46.5t44.5 17.5t44.5 -17.5t17.5 -46.5q0 -28 -17.5 -45t-44.5 -17zM336 1690q-27 0 -44.5 17t-17.5 45q0 29 17.5 46.5t44.5 17.5
t44.5 -17.5t17.5 -46.5q0 -28 -17.5 -45t-44.5 -17z" />
    <glyph glyph-name="Zacute" unicode="&#x179;" horiz-adv-x="1103" 
d="M63 0v40l887 1401l14 -25h-889v64h953v-40l-887 -1401l-14 25h913v-64h-977zM520 1616l175 272h79l-190 -272h-64z" />
    <glyph glyph-name="zacute" unicode="&#x17a;" horiz-adv-x="865" 
d="M61 0v40l658 1001v-25h-646v64h723v-40l-658 -1001v25h670v-64h-747zM403 1264l208 352h78l-222 -352h-64z" />
    <glyph glyph-name="Zdotaccent" unicode="&#x17b;" horiz-adv-x="1103" 
d="M63 0v40l887 1401l14 -25h-889v64h953v-40l-887 -1401l-14 25h913v-64h-977zM552 1690q-27 0 -44.5 17t-17.5 45q0 29 17.5 46.5t44.5 17.5t44.5 -17.5t17.5 -46.5q0 -28 -17.5 -45t-44.5 -17z" />
    <glyph glyph-name="zdotaccent" unicode="&#x17c;" horiz-adv-x="865" 
d="M61 0v40l658 1001v-25h-646v64h723v-40l-658 -1001v25h670v-64h-747zM435 1360q-27 0 -44.5 17t-17.5 45q0 29 17.5 46.5t44.5 17.5t44.5 -17.5t17.5 -46.5q0 -28 -17.5 -45t-44.5 -17z" />
    <glyph glyph-name="Zcaron" unicode="&#x17d;" horiz-adv-x="1103" 
d="M63 0v40l887 1401l14 -25h-889v64h953v-40l-887 -1401l-14 25h913v-64h-977zM514 1616l-240 272h81l210 -243h-26l210 243h81l-240 -272h-76z" />
    <glyph glyph-name="zcaron" unicode="&#x17e;" horiz-adv-x="865" 
d="M61 0v40l658 1001v-25h-646v64h723v-40l-658 -1001v25h670v-64h-747zM397 1264l-222 352h71l202 -328h-26l202 328h71l-222 -352h-76z" />
    <glyph glyph-name="uni018F" unicode="&#x18f;" horiz-adv-x="1370" 
d="M684 -18q-175 0 -304.5 75t-200.5 239.5t-71 433.5v50h1101v-66h-1059l30 24q0 -257 61.5 -407.5t174.5 -216t268 -65.5q148 0 259.5 65t174 216t62.5 407q0 261 -71 413t-210 217t-340 65q-84 0 -183.5 -11t-194.5 -38v68q97 26 190.5 36.5t189.5 10.5q216 0 371 -75.5
t237.5 -242t82.5 -441.5t-71 -441.5t-199 -241t-298 -74.5z" />
    <glyph glyph-name="florin" unicode="&#x192;" horiz-adv-x="667" 
d="M-33 -460q-31 0 -68 3t-74 9v68q44 -6 77 -10t69 -4q131 0 197.5 59t66.5 194v1451q0 110 38 182t112.5 108t185.5 36q32 0 69 -2.5t73 -9.5v-68q-43 7 -76 10.5t-70 3.5q-130 0 -197 -58.5t-67 -194.5v-1451q0 -109 -37.5 -181.5t-112.5 -108.5t-186 -36zM15 1014v66
h659v-66h-659z" />
    <glyph glyph-name="Ohorn" unicode="&#x1a0;" horiz-adv-x="1368" 
d="M684 -18q-168 0 -295.5 76t-199 243t-71.5 439q0 273 71.5 440t199 242.5t295.5 75.5q57 0 103.5 -6l93 -12t104.5 -6q91 0 145 39.5t54 120.5q0 42 -6.5 75t-18.5 67h66q13 -34 19 -66.5t6 -77.5q0 -70 -32 -120.5t-92.5 -77.5t-144.5 -27l3 14q124 -76 195 -242
t71 -439q0 -275 -71 -442t-198.5 -241.5t-296.5 -74.5zM684 49q147 0 258.5 65t173.5 215.5t62 406.5q0 260 -62 412t-173.5 217.5t-258.5 65.5t-258 -65t-173.5 -215.5t-62.5 -406.5q0 -260 62.5 -412t173.5 -217.5t258 -65.5z" />
    <glyph glyph-name="ohorn" unicode="&#x1a1;" horiz-adv-x="1058" 
d="M529 -18q-126 0 -220.5 56t-147.5 179t-53 323q0 199 53 321.5t147.5 178.5t220.5 56q53 0 98 -4.5t78 -4.5q91 0 145 40t54 127q0 42 -6.5 75t-18.5 67h66q13 -34 19 -66.5t6 -77.5q0 -74 -31.5 -126t-89.5 -79t-138 -27l27 28q212 -121 212 -508q0 -198 -52.5 -321
t-147.5 -180t-221 -57zM529 48q106 0 184.5 46t121.5 153.5t43 289.5q0 186 -43 293.5t-121.5 153.5t-184.5 46t-184.5 -45.5t-121.5 -152t-43 -289.5q0 -185 43 -293.5t121.5 -155t184.5 -46.5z" />
    <glyph glyph-name="Uhorn" unicode="&#x1af;" horiz-adv-x="1372" 
d="M687 -18q-173 0 -285 58t-166 179t-54 310v951h68v-961q0 -243 104.5 -357t332.5 -114q229 0 333 114t104 357v961h33q91 0 145 36.5t54 117.5q0 42 -6.5 75t-18.5 67h66q13 -34 19 -66.5t6 -77.5q0 -99 -62.5 -154.5t-169.5 -60.5v-888q0 -189 -53.5 -310t-164.5 -179
t-285 -58z" />
    <glyph glyph-name="uhorn" unicode="&#x1b0;" horiz-adv-x="1097" 
d="M486 -18q-96 0 -170.5 34t-117 112.5t-42.5 210.5v741h68v-742q0 -162 74 -226t190 -64q57 0 121 17.5t124 56.5t106 103v855h33q91 0 145 40t54 127q0 42 -6.5 75t-18.5 67h66q13 -34 19 -66.5t6 -77.5q0 -73 -31.5 -125t-89.5 -79.5t-138 -27.5l29 31v-1044h-60l-6 124
h-8q-70 -71 -160.5 -106.5t-186.5 -35.5z" />
    <glyph glyph-name="uni01C4" unicode="&#x1c4;" horiz-adv-x="2397" 
d="M508 -10q-52 0 -100.5 2t-100.5 6.5t-117 11.5v1451q55 11 113 18.5t115 11t111 3.5q345 0 520.5 -185.5t175.5 -568.5q0 -259 -81 -424.5t-240.5 -245.5t-395.5 -80zM510 56q215 0 357.5 71t214 222t71.5 391q0 238 -68.5 390.5t-208.5 225t-352 72.5q-63 0 -129 -5.5
t-137 -16.5v-1334q58 -8 117.5 -12t134.5 -4zM1357 0v40l887 1401l14 -25h-889v64h953v-40l-887 -1401l-14 25h913v-64h-977zM1808 1616l-240 272h81l210 -243h-26l210 243h81l-240 -272h-76z" />
    <glyph glyph-name="uni01C5" unicode="&#x1c5;" horiz-adv-x="2208" 
d="M508 -10q-52 0 -100.5 2t-100.5 6.5t-117 11.5v1451q55 11 113 18.5t115 11t111 3.5q345 0 520.5 -185.5t175.5 -568.5q0 -259 -81 -424.5t-240.5 -245.5t-395.5 -80zM510 56q215 0 357.5 71t214 222t71.5 391q0 238 -68.5 390.5t-208.5 225t-352 72.5q-63 0 -129 -5.5
t-137 -16.5v-1334q58 -8 117.5 -12t134.5 -4zM1404 0v40l658 1001v-25h-646v64h723v-40l-658 -1001v25h670v-64h-747zM1740 1296l-240 272h81l210 -243h-26l210 243h81l-240 -272h-76z" />
    <glyph glyph-name="uni01C6" unicode="&#x1c6;" horiz-adv-x="1936" 
d="M523 -18q-117 0 -211 52t-149 169.5t-55 314.5q0 199 59.5 327t175 189.5t284.5 61.5q54 0 107.5 -5t98.5 -13v538h68v-1616h-60l-6 119h-8q-49 -59 -127.5 -98t-176.5 -39zM526 48q87 0 169.5 40.5t137.5 128.5v790q-42 11 -98 17t-111 6q-219 0 -331.5 -118
t-112.5 -386q0 -184 44.5 -288t122.5 -147t179 -43zM1132 0v40l658 1001v-25h-646v64h723v-40l-658 -1001v25h670v-64h-747zM1468 1264l-222 352h71l202 -328h-26l202 328h71l-222 -352h-76z" />
    <glyph glyph-name="uni01C7" unicode="&#x1c7;" horiz-adv-x="1475" 
d="M190 0v1480h68v-1414h756v-66h-824zM1075 -340l-49 35q66 93 108.5 179.5t62.5 185t20 226.5v1194h68v-1227q0 -121 -22 -217.5t-68.5 -186.5t-119.5 -189z" />
    <glyph glyph-name="uni01C8" unicode="&#x1c8;" horiz-adv-x="1435" 
d="M190 0v1480h68v-1414h756v-66h-824zM1055 -460l-49 35q67 92 109 182t62 189.5t20 219.5v914h68v-907q0 -130 -22 -236t-68.5 -202t-119.5 -195zM1231 1366q-27 0 -44.5 17t-17.5 45q0 29 17.5 46.5t44.5 17.5t44.5 -17.5t17.5 -46.5q0 -28 -17.5 -45t-44.5 -17z" />
    <glyph glyph-name="uni01C9" unicode="&#x1c9;" horiz-adv-x="816" 
d="M170 0v1616h68v-1616h-68zM436 -460l-49 35q67 92 109 182t62 189.5t20 219.5v914h68v-907q0 -130 -22 -236t-68.5 -202t-119.5 -195zM612 1366q-27 0 -44.5 17t-17.5 45q0 29 17.5 46.5t44.5 17.5t44.5 -17.5t17.5 -46.5q0 -28 -17.5 -45t-44.5 -17z" />
    <glyph glyph-name="uni01CA" unicode="&#x1ca;" horiz-adv-x="1875" 
d="M190 0v1480h75l937 -1420h-31v1420h66v-1480h-75l-937 1420h31v-1420h-66zM1475 -340l-49 35q66 93 108.5 179.5t62.5 185t20 226.5v1194h68v-1227q0 -121 -22 -217.5t-68.5 -186.5t-119.5 -189z" />
    <glyph glyph-name="uni01CB" unicode="&#x1cb;" horiz-adv-x="1835" 
d="M190 0v1480h75l937 -1420h-31v1420h66v-1480h-75l-937 1420h31v-1420h-66zM1455 -460l-49 35q67 92 109 182t62 189.5t20 219.5v914h68v-907q0 -130 -22 -236t-68.5 -202t-119.5 -195zM1631 1366q-27 0 -44.5 17t-17.5 45q0 29 17.5 46.5t44.5 17.5t44.5 -17.5
t17.5 -46.5q0 -28 -17.5 -45t-44.5 -17z" />
    <glyph glyph-name="uni01CC" unicode="&#x1cc;" horiz-adv-x="1495" 
d="M170 0v1080h60l6 -129h8q70 70 161 107.5t191 37.5q99 0 174.5 -34t118 -112.5t42.5 -211.5v-738h-68v738q0 163 -72.5 227.5t-196.5 64.5q-56 0 -120 -16.5t-126 -55.5t-110 -105v-853h-68zM1115 -460l-49 35q67 92 109 182t62 189.5t20 219.5v914h68v-907
q0 -130 -22 -236t-68.5 -202t-119.5 -195zM1291 1366q-27 0 -44.5 17t-17.5 45q0 29 17.5 46.5t44.5 17.5t44.5 -17.5t17.5 -46.5q0 -28 -17.5 -45t-44.5 -17z" />
    <glyph glyph-name="Gcaron" unicode="&#x1e6;" horiz-adv-x="1301" 
d="M827 -10q-231 0 -388.5 77t-239 242t-81.5 429q0 277 84 443.5t233 241.5t342 75q84 0 165.5 -11.5t164.5 -35.5v-68q-96 29 -176 39t-155 10q-174 0 -305.5 -65.5t-206 -217t-74.5 -409.5q0 -246 71.5 -396.5t213.5 -219t352 -68.5q78 0 142 6.5t121 17.5l-22 -35v675
h68v-703q-92 -15 -162.5 -21t-146.5 -6zM671 1616l-240 272h81l210 -243h-26l210 243h81l-240 -272h-76z" />
    <glyph glyph-name="gcaron" unicode="&#x1e7;" horiz-adv-x="1071" 
d="M466 -460q-67 0 -147.5 13.5t-145.5 37.5v68q81 -27 153 -40t141 -13q185 0 275.5 84.5t90.5 297.5v125h-6q-50 -55 -128.5 -93t-181.5 -38q-112 0 -205 50.5t-148.5 167.5t-55.5 318q0 298 131.5 438t377.5 140q49 0 98.5 -5t96.5 -14.5t89 -22.5v-1061
q0 -245 -110 -349t-325 -104zM521 48q88 0 172.5 39.5t139.5 121.5v794q-42 12 -99.5 19.5t-120.5 7.5q-211 0 -322 -118t-111 -386q0 -186 45.5 -290t122.5 -146t173 -42zM515 1264l-222 352h71l202 -328h-26l202 328h71l-222 -352h-76z" />
    <glyph glyph-name="uni01EA" unicode="&#x1ea;" horiz-adv-x="1368" 
d="M802 -400q-100 0 -155.5 44.5t-55.5 124.5q0 65 35.5 123t122.5 106v-16h-61q-171 0 -299 76t-199.5 243t-71.5 439q0 273 71.5 440t199 242.5t295.5 75.5t295.5 -74.5t199 -241t71.5 -442.5q0 -218 -44.5 -364t-124.5 -233.5t-185 -127.5q-95 -35 -149 -75t-76 -82
t-22 -86q0 -59 38.5 -89.5t111.5 -30.5q40 0 79 10t91 31v-54q-41 -19 -83 -29t-84 -10zM684 49q147 0 258.5 65t173.5 215.5t62 406.5q0 260 -62 412t-173.5 217.5t-258.5 65.5t-258 -65t-173.5 -215.5t-62.5 -406.5q0 -260 62.5 -412t173.5 -217.5t258 -65.5z" />
    <glyph glyph-name="uni01EB" unicode="&#x1eb;" horiz-adv-x="1058" 
d="M576 -400q-84 0 -136.5 46.5t-52.5 126.5q0 68 38.5 127.5t112.5 97.5l-6 -16q-127 0 -222.5 56t-148.5 179t-53 323q0 199 53 321.5t147.5 178.5t220.5 56t221 -55.5t147.5 -177.5t52.5 -323q0 -241 -76.5 -370t-210.5 -170q-81 -25 -129 -62t-69.5 -79.5t-21.5 -82.5
q0 -60 36 -92t94 -32q36 0 69 8.5t65 25.5l19 -47q-34 -19 -73 -29t-77 -10zM529 48q106 0 184.5 46t121.5 153.5t43 289.5q0 186 -43 293.5t-121.5 153.5t-184.5 46t-184.5 -45.5t-121.5 -152t-43 -289.5q0 -185 43 -293.5t121.5 -155t184.5 -46.5z" />
    <glyph glyph-name="uni01F1" unicode="&#x1f1;" horiz-adv-x="2397" 
d="M508 -10q-52 0 -100.5 2t-100.5 6.5t-117 11.5v1451q55 11 113 18.5t115 11t111 3.5q345 0 520.5 -185.5t175.5 -568.5q0 -259 -81 -424.5t-240.5 -245.5t-395.5 -80zM510 56q215 0 357.5 71t214 222t71.5 391q0 238 -68.5 390.5t-208.5 225t-352 72.5q-63 0 -129 -5.5
t-137 -16.5v-1334q58 -8 117.5 -12t134.5 -4zM1357 0v40l887 1401l14 -25h-889v64h953v-40l-887 -1401l-14 25h913v-64h-977z" />
    <glyph glyph-name="uni01F2" unicode="&#x1f2;" horiz-adv-x="2208" 
d="M508 -10q-52 0 -100.5 2t-100.5 6.5t-117 11.5v1451q55 11 113 18.5t115 11t111 3.5q345 0 520.5 -185.5t175.5 -568.5q0 -259 -81 -424.5t-240.5 -245.5t-395.5 -80zM510 56q215 0 357.5 71t214 222t71.5 391q0 238 -68.5 390.5t-208.5 225t-352 72.5q-63 0 -129 -5.5
t-137 -16.5v-1334q58 -8 117.5 -12t134.5 -4zM1404 0v40l658 1001v-25h-646v64h723v-40l-658 -1001v25h670v-64h-747z" />
    <glyph glyph-name="uni01F3" unicode="&#x1f3;" horiz-adv-x="1936" 
d="M523 -18q-117 0 -211 52t-149 169.5t-55 314.5q0 199 59.5 327t175 189.5t284.5 61.5q54 0 107.5 -5t98.5 -13v538h68v-1616h-60l-6 119h-8q-49 -59 -127.5 -98t-176.5 -39zM526 48q87 0 169.5 40.5t137.5 128.5v790q-42 11 -98 17t-111 6q-219 0 -331.5 -118
t-112.5 -386q0 -184 44.5 -288t122.5 -147t179 -43zM1132 0v40l658 1001v-25h-646v64h723v-40l-658 -1001v25h670v-64h-747z" />
    <glyph glyph-name="uni01F4" unicode="&#x1f4;" horiz-adv-x="1301" 
d="M827 -10q-231 0 -388.5 77t-239 242t-81.5 429q0 277 84 443.5t233 241.5t342 75q84 0 165.5 -11.5t164.5 -35.5v-68q-96 29 -176 39t-155 10q-174 0 -305.5 -65.5t-206 -217t-74.5 -409.5q0 -246 71.5 -396.5t213.5 -219t352 -68.5q78 0 142 6.5t121 17.5l-22 -35v675
h68v-703q-92 -15 -162.5 -21t-146.5 -6zM677 1616l175 272h79l-190 -272h-64z" />
    <glyph glyph-name="uni01F5" unicode="&#x1f5;" horiz-adv-x="1071" 
d="M466 -460q-67 0 -147.5 13.5t-145.5 37.5v68q81 -27 153 -40t141 -13q185 0 275.5 84.5t90.5 297.5v125h-6q-50 -55 -128.5 -93t-181.5 -38q-112 0 -205 50.5t-148.5 167.5t-55.5 318q0 298 131.5 438t377.5 140q49 0 98.5 -5t96.5 -14.5t89 -22.5v-1061
q0 -245 -110 -349t-325 -104zM521 48q88 0 172.5 39.5t139.5 121.5v794q-42 12 -99.5 19.5t-120.5 7.5q-211 0 -322 -118t-111 -386q0 -186 45.5 -290t122.5 -146t173 -42zM521 1264l208 352h78l-222 -352h-64z" />
    <glyph glyph-name="Aringacute" unicode="&#x1fa;" horiz-adv-x="1286" 
d="M37 0l563 1480h86l563 -1480h-75l-544 1440h24l-544 -1440h-73zM284 528l20 66h678l20 -66h-718zM644 1612q-79 0 -131.5 52.5t-52.5 131.5q0 80 52.5 132t131.5 52q80 0 132 -52t52 -132q0 -79 -52 -131.5t-132 -52.5zM644 1664q57 0 93.5 35.5t36.5 96.5q0 62 -36.5 97
t-93.5 35t-93.5 -35t-36.5 -97q0 -61 36.5 -96.5t93.5 -35.5zM780 1908l-48 28l154 152h80z" />
    <glyph glyph-name="aringacute" unicode="&#x1fb;" horiz-adv-x="979" 
d="M422 -16q-144 0 -229 74t-85 209t86 210.5t273 96.5l327 39l3 -66l-332 -39q-150 -17 -216.5 -74.5t-66.5 -160.5q0 -109 61 -166t182 -57q88 0 175 39.5t155 130.5v526q0 113 -35 174.5t-101.5 85.5t-161.5 24q-61 0 -136.5 -11.5t-154.5 -39.5v68q63 24 141.5 36.5
t149.5 12.5q116 0 198 -32t125 -108.5t43 -209.5v-746h-60l-6 128h-8q-55 -67 -141 -105.5t-186 -38.5zM486 1260q-79 0 -131.5 52.5t-52.5 131.5q0 80 52.5 132t131.5 52q80 0 132 -52t52 -132q0 -79 -52 -131.5t-132 -52.5zM486 1312q57 0 93.5 35.5t36.5 96.5
q0 62 -36.5 97t-93.5 35t-93.5 -35t-36.5 -97q0 -61 36.5 -96.5t93.5 -35.5zM613 1558l-48 24l166 198h78z" />
    <glyph glyph-name="AEacute" unicode="&#x1fc;" horiz-adv-x="1755" 
d="M37 0l574 1480h248l-2 -66h-202l-545 -1414h-73zM290 528l20 66h609v-66h-629zM918 0l-94 1480h850v-66h-779l88 -1348h701v-66h-766zM921 728v66h658v-66h-658zM828 1616l175 272h79l-190 -272h-64z" />
    <glyph glyph-name="aeacute" unicode="&#x1fd;" horiz-adv-x="1619" 
d="M1211 -18q-145 0 -247 56.5t-155.5 180t-53.5 323.5l6 9q0 194 47 314.5t133 176t203 55.5q119 0 205 -56.5t132.5 -179t46.5 -319.5v-32h-732v66h688l-27 -32q0 182 -37.5 288.5t-107.5 152.5t-168 46q-97 0 -169 -46t-112 -151.5t-40 -283.5v-15q0 -178 46 -285
t134 -154.5t212 -47.5q59 0 123.5 12.5t139.5 36.5v-68q-71 -24 -137 -35.5t-130 -11.5zM424 -16q-95 0 -166 33t-110.5 96t-39.5 153t39 160t125 110t228 40h285v-66h-290q-116 0 -184.5 -31t-98.5 -84.5t-30 -122.5q0 -108 62.5 -165t182.5 -57q96 0 195 50t173 180
l39 -62q-95 -137 -199.5 -185.5t-210.5 -48.5zM755 542v207q0 112 -35 173t-101.5 84.5t-161.5 23.5q-61 0 -136.5 -11.5t-154.5 -39.5v68q63 24 141.5 36.5t149.5 12.5q115 0 195.5 -32t122.5 -107.5t42 -207.5v-227zM757 1264l208 352h78l-222 -352h-64z" />
    <glyph glyph-name="Oslashacute" unicode="&#x1fe;" horiz-adv-x="1368" 
d="M188 0h-78l1067 1480h78zM684 -18q-169 0 -296.5 76t-198.5 243t-71 439q0 273 71.5 440t199 242.5t295.5 75.5q170 0 297 -75.5t198 -242.5t71 -440q0 -272 -71.5 -439t-199 -243t-295.5 -76zM684 49q147 0 258.5 65t173.5 215.5t62 406.5q0 260 -62 412t-173.5 217.5
t-258.5 65.5t-258 -65t-173.5 -215.5t-62.5 -406.5q0 -260 62.5 -412t173.5 -217.5t258 -65.5zM648 1616l175 272h79l-190 -272h-64z" />
    <glyph glyph-name="oslashacute" unicode="&#x1ff;" horiz-adv-x="1058" 
d="M853 943q46 -67 71.5 -166.5t25.5 -236.5q0 -198 -52.5 -321t-147.5 -180t-221 -57q-85 0 -156.5 25t-125.5 79l-61 -86h-77l97 137q-47 68 -72.5 167.5t-25.5 235.5q0 199 53 321.5t147.5 178.5t220.5 56q85 0 156.5 -24.5t125.5 -78.5l62 87h77zM529 1030
q-106 0 -184.5 -45.5t-121.5 -152t-43 -289.5q0 -115 18 -200.5t51 -143.5l522 737q-45 50 -106.5 72t-135.5 22zM529 48q106 0 184.5 46t121.5 153.5t43 289.5q0 116 -17.5 201t-51.5 143l-522 -737q45 -51 106.5 -73.5t135.5 -22.5zM491 1264l208 352h78l-222 -352h-64z
" />
    <glyph glyph-name="uni0200" unicode="&#x200;" horiz-adv-x="1286" 
d="M37 0l563 1480h86l563 -1480h-75l-544 1440h24l-544 -1440h-73zM284 528l20 66h678l20 -66h-718zM761 1616l-130 272h68l123 -272h-61zM466 1616l-130 272h68l123 -272h-61z" />
    <glyph glyph-name="uni0201" unicode="&#x201;" horiz-adv-x="979" 
d="M422 -16q-144 0 -229 74t-85 209t86 210.5t273 96.5l327 39l3 -66l-332 -39q-150 -17 -216.5 -74.5t-66.5 -160.5q0 -109 61 -166t182 -57q88 0 175 39.5t155 130.5v526q0 113 -35 174.5t-101.5 85.5t-161.5 24q-61 0 -136.5 -11.5t-154.5 -39.5v68q63 24 141.5 36.5
t149.5 12.5q116 0 198 -32t125 -108.5t43 -209.5v-746h-60l-6 128h-8q-55 -67 -141 -105.5t-186 -38.5zM602 1264l-142 352h70l133 -352h-61zM307 1264l-142 352h70l133 -352h-61z" />
    <glyph glyph-name="uni0202" unicode="&#x202;" horiz-adv-x="1286" 
d="M37 0l563 1480h86l563 -1480h-75l-544 1440h24l-544 -1440h-73zM284 528l20 66h678l20 -66h-718zM362 1644q6 72 38.5 124t92.5 80t149 28q90 0 151 -28.5t94 -80.5t39 -123h-58q-11 85 -61.5 129t-164.5 44q-113 0 -162.5 -44t-59.5 -129h-58z" />
    <glyph glyph-name="uni0203" unicode="&#x203;" horiz-adv-x="979" 
d="M422 -16q-144 0 -229 74t-85 209t86 210.5t273 96.5l327 39l3 -66l-332 -39q-150 -17 -216.5 -74.5t-66.5 -160.5q0 -109 61 -166t182 -57q88 0 175 39.5t155 130.5v526q0 113 -35 174.5t-101.5 85.5t-161.5 24q-61 0 -136.5 -11.5t-154.5 -39.5v68q63 24 141.5 36.5
t149.5 12.5q116 0 198 -32t125 -108.5t43 -209.5v-746h-60l-6 128h-8q-55 -67 -141 -105.5t-186 -38.5zM223 1292q6 151 72.5 231.5t187.5 80.5q122 0 190.5 -81.5t73.5 -230.5h-58q-7 125 -57 189t-149 64q-98 0 -146.5 -64t-55.5 -189h-58z" />
    <glyph glyph-name="uni0204" unicode="&#x204;" horiz-adv-x="1115" 
d="M190 0v1480h844v-66h-776v-1348h786v-66h-854zM240 728v66h699v-66h-699zM751 1616l-130 272h68l123 -272h-61zM456 1616l-130 272h68l123 -272h-61z" />
    <glyph glyph-name="uni0205" unicode="&#x205;" horiz-adv-x="984" 
d="M572 -18q-147 0 -251 56.5t-158.5 179.5t-54.5 322q0 197 50.5 319.5t140 179.5t208.5 57q120 0 206.5 -57t133 -179.5t46.5 -319.5v-30h-752v66h708l-27 -26q0 177 -37.5 282.5t-108 151.5t-169.5 46t-172.5 -46t-114 -151t-40.5 -283v-15q0 -178 46.5 -285t135 -154.5
t214.5 -47.5q61 0 125.5 12.5t141.5 36.5v-68q-73 -24 -139 -35.5t-132 -11.5zM625 1264l-142 352h70l133 -352h-61zM330 1264l-142 352h70l133 -352h-61z" />
    <glyph glyph-name="uni0206" unicode="&#x206;" horiz-adv-x="1115" 
d="M190 0v1480h844v-66h-776v-1348h786v-66h-854zM240 728v66h699v-66h-699zM352 1644q6 72 38.5 124t92.5 80t149 28q90 0 151 -28.5t94 -80.5t39 -123h-58q-11 85 -61.5 129t-164.5 44q-113 0 -162.5 -44t-59.5 -129h-58z" />
    <glyph glyph-name="uni0207" unicode="&#x207;" horiz-adv-x="984" 
d="M572 -18q-147 0 -251 56.5t-158.5 179.5t-54.5 322q0 197 50.5 319.5t140 179.5t208.5 57q120 0 206.5 -57t133 -179.5t46.5 -319.5v-30h-752v66h708l-27 -26q0 177 -37.5 282.5t-108 151.5t-169.5 46t-172.5 -46t-114 -151t-40.5 -283v-15q0 -178 46.5 -285t135 -154.5
t214.5 -47.5q61 0 125.5 12.5t141.5 36.5v-68q-73 -24 -139 -35.5t-132 -11.5zM246 1292q6 151 72.5 231.5t187.5 80.5q122 0 190.5 -81.5t73.5 -230.5h-58q-7 125 -57 189t-149 64q-98 0 -146.5 -64t-55.5 -189h-58z" />
    <glyph glyph-name="uni0208" unicode="&#x208;" horiz-adv-x="448" 
d="M190 0v1480h68v-1480h-68zM341 1616l-130 272h68l123 -272h-61zM46 1616l-130 272h68l123 -272h-61z" />
    <glyph glyph-name="uni0209" unicode="&#x209;" horiz-adv-x="408" 
d="M170 0v1080h68v-1080h-68zM321 1264l-142 352h70l133 -352h-61zM26 1264l-142 352h70l133 -352h-61z" />
    <glyph glyph-name="uni020A" unicode="&#x20a;" horiz-adv-x="448" 
d="M190 0v1480h68v-1480h-68zM-58 1644q6 72 38.5 124t92.5 80t149 28q90 0 151 -28.5t94 -80.5t39 -123h-58q-11 85 -61.5 129t-164.5 44q-113 0 -162.5 -44t-59.5 -129h-58z" />
    <glyph glyph-name="uni020B" unicode="&#x20b;" horiz-adv-x="408" 
d="M170 0v1080h68v-1080h-68zM-58 1292q6 151 72.5 231.5t187.5 80.5q122 0 190.5 -81.5t73.5 -230.5h-58q-7 125 -57 189t-149 64q-98 0 -146.5 -64t-55.5 -189h-58z" />
    <glyph glyph-name="uni020C" unicode="&#x20c;" horiz-adv-x="1368" 
d="M684 -18q-169 0 -296.5 76t-198.5 243t-71 439q0 273 71.5 440t199 242.5t295.5 75.5q170 0 297 -75.5t198 -242.5t71 -440q0 -272 -71.5 -439t-199 -243t-295.5 -76zM684 49q147 0 258.5 65t173.5 215.5t62 406.5q0 260 -62 412t-173.5 217.5t-258.5 65.5t-258 -65
t-173.5 -215.5t-62.5 -406.5q0 -260 62.5 -412t173.5 -217.5t258 -65.5zM801 1616l-130 272h68l123 -272h-61zM506 1616l-130 272h68l123 -272h-61z" />
    <glyph glyph-name="uni020D" unicode="&#x20d;" horiz-adv-x="1058" 
d="M529 -18q-126 0 -220.5 56t-147.5 179t-53 323q0 199 53 321.5t147.5 178.5t220.5 56t221 -55.5t147.5 -177.5t52.5 -323q0 -198 -52.5 -321t-147.5 -180t-221 -57zM529 48q106 0 184.5 46t121.5 153.5t43 289.5q0 186 -43 293.5t-121.5 153.5t-184.5 46t-184.5 -45.5
t-121.5 -152t-43 -289.5q0 -185 43 -293.5t121.5 -155t184.5 -46.5zM646 1264l-142 352h70l133 -352h-61zM351 1264l-142 352h70l133 -352h-61z" />
    <glyph glyph-name="uni020E" unicode="&#x20e;" horiz-adv-x="1368" 
d="M684 -18q-169 0 -296.5 76t-198.5 243t-71 439q0 273 71.5 440t199 242.5t295.5 75.5q170 0 297 -75.5t198 -242.5t71 -440q0 -272 -71.5 -439t-199 -243t-295.5 -76zM684 49q147 0 258.5 65t173.5 215.5t62 406.5q0 260 -62 412t-173.5 217.5t-258.5 65.5t-258 -65
t-173.5 -215.5t-62.5 -406.5q0 -260 62.5 -412t173.5 -217.5t258 -65.5zM402 1644q6 72 38.5 124t92.5 80t149 28q90 0 151 -28.5t94 -80.5t39 -123h-58q-11 85 -61.5 129t-164.5 44q-113 0 -162.5 -44t-59.5 -129h-58z" />
    <glyph glyph-name="uni020F" unicode="&#x20f;" horiz-adv-x="1058" 
d="M529 -18q-126 0 -220.5 56t-147.5 179t-53 323q0 199 53 321.5t147.5 178.5t220.5 56t221 -55.5t147.5 -177.5t52.5 -323q0 -198 -52.5 -321t-147.5 -180t-221 -57zM529 48q106 0 184.5 46t121.5 153.5t43 289.5q0 186 -43 293.5t-121.5 153.5t-184.5 46t-184.5 -45.5
t-121.5 -152t-43 -289.5q0 -185 43 -293.5t121.5 -155t184.5 -46.5zM267 1292q6 151 72.5 231.5t187.5 80.5q122 0 190.5 -81.5t73.5 -230.5h-58q-7 125 -57 189t-149 64q-98 0 -146.5 -64t-55.5 -189h-58z" />
    <glyph glyph-name="uni0210" unicode="&#x210;" horiz-adv-x="1266" 
d="M190 0v1461q51 9 104.5 16.5t115 12t135.5 4.5q277 0 409.5 -100.5t132.5 -316.5q0 -141 -65.5 -235.5t-197.5 -142.5t-333 -48q-71 0 -124 3t-109 7v-661h-68zM1110 0l-549 703h85l551 -703h-87zM489 716q283 0 406.5 89.5t123.5 269.5q0 126 -49 204t-154 113.5
t-275 35.5q-89 0 -153 -6t-130 -18v-678q44 -3 78.5 -5.5t70 -3.5t82.5 -1zM719 1616l-130 272h68l123 -272h-61zM424 1616l-130 272h68l123 -272h-61z" />
    <glyph glyph-name="uni0211" unicode="&#x211;" horiz-adv-x="673" 
d="M170 0v1080h60l6 -147h8q61 75 151 115t181 40q25 0 44.5 -1.5t39.5 -5.5v-68q-21 4 -40.5 4.5t-44.5 0.5q-57 0 -119.5 -19.5t-119.5 -60t-98 -102.5v-836h-68zM519 1264l-142 352h70l133 -352h-61zM224 1264l-142 352h70l133 -352h-61z" />
    <glyph glyph-name="uni0212" unicode="&#x212;" horiz-adv-x="1266" 
d="M190 0v1461q51 9 104.5 16.5t115 12t135.5 4.5q277 0 409.5 -100.5t132.5 -316.5q0 -141 -65.5 -235.5t-197.5 -142.5t-333 -48q-71 0 -124 3t-109 7v-661h-68zM1110 0l-549 703h85l551 -703h-87zM489 716q283 0 406.5 89.5t123.5 269.5q0 126 -49 204t-154 113.5
t-275 35.5q-89 0 -153 -6t-130 -18v-678q44 -3 78.5 -5.5t70 -3.5t82.5 -1zM320 1644q6 72 38.5 124t92.5 80t149 28q90 0 151 -28.5t94 -80.5t39 -123h-58q-11 85 -61.5 129t-164.5 44q-113 0 -162.5 -44t-59.5 -129h-58z" />
    <glyph glyph-name="uni0213" unicode="&#x213;" horiz-adv-x="673" 
d="M170 0v1080h60l6 -147h8q61 75 151 115t181 40q25 0 44.5 -1.5t39.5 -5.5v-68q-21 4 -40.5 4.5t-44.5 0.5q-57 0 -119.5 -19.5t-119.5 -60t-98 -102.5v-836h-68zM140 1292q6 151 72.5 231.5t187.5 80.5q122 0 190.5 -81.5t73.5 -230.5h-58q-7 125 -57 189t-149 64
q-98 0 -146.5 -64t-55.5 -189h-58z" />
    <glyph glyph-name="uni0214" unicode="&#x214;" horiz-adv-x="1372" 
d="M687 -18q-173 0 -285 58t-166 179t-54 310v951h68v-961q0 -243 104.5 -357t332.5 -114q229 0 333 114t104 357v961h66v-951q0 -189 -53.5 -310t-164.5 -179t-285 -58zM804 1616l-130 272h68l123 -272h-61zM509 1616l-130 272h68l123 -272h-61z" />
    <glyph glyph-name="uni0215" unicode="&#x215;" horiz-adv-x="1077" 
d="M486 -18q-96 0 -170.5 34t-117 112.5t-42.5 210.5v741h68v-742q0 -162 74 -226t190 -64q57 0 121 17.5t124 56.5t106 103v855h68v-1080h-60l-6 124h-8q-70 -71 -160.5 -106.5t-186.5 -35.5zM649 1264l-142 352h70l133 -352h-61zM354 1264l-142 352h70l133 -352h-61z" />
    <glyph glyph-name="uni0216" unicode="&#x216;" horiz-adv-x="1372" 
d="M687 -18q-173 0 -285 58t-166 179t-54 310v951h68v-961q0 -243 104.5 -357t332.5 -114q229 0 333 114t104 357v961h66v-951q0 -189 -53.5 -310t-164.5 -179t-285 -58zM405 1644q6 72 38.5 124t92.5 80t149 28q90 0 151 -28.5t94 -80.5t39 -123h-58q-11 85 -61.5 129
t-164.5 44q-113 0 -162.5 -44t-59.5 -129h-58z" />
    <glyph glyph-name="uni0217" unicode="&#x217;" horiz-adv-x="1077" 
d="M486 -18q-96 0 -170.5 34t-117 112.5t-42.5 210.5v741h68v-742q0 -162 74 -226t190 -64q57 0 121 17.5t124 56.5t106 103v855h68v-1080h-60l-6 124h-8q-70 -71 -160.5 -106.5t-186.5 -35.5zM270 1292q6 151 72.5 231.5t187.5 80.5q122 0 190.5 -81.5t73.5 -230.5h-58
q-7 125 -57 189t-149 64q-98 0 -146.5 -64t-55.5 -189h-58z" />
    <glyph glyph-name="uni0218" unicode="&#x218;" horiz-adv-x="1010" 
d="M438 -18q-77 0 -165 14t-172 43v68q62 -21 121 -34t114 -19t106 -6q204 0 307.5 83.5t103.5 245.5q0 138 -79 210t-260 119l-62 16q-185 48 -276 142t-91 248q0 179 120.5 282.5t355.5 103.5q77 0 157.5 -11t148.5 -34v-68q-78 25 -155 36t-155 11q-133 0 -222 -36.5
t-133.5 -107t-44.5 -172.5q0 -134 73 -207t247 -119l62 -16q133 -34 218.5 -86.5t126.5 -128t41 -179.5q0 -128 -56.5 -217t-165.5 -135t-265 -46zM486 -448q21 54 27.5 94t6.5 76l4 -32h-12q-27 0 -44.5 18t-17.5 46q0 27 16.5 44.5t41.5 17.5q30 0 48 -21t18 -65
q0 -36 -10.5 -83.5t-33.5 -94.5h-44z" />
    <glyph glyph-name="uni0219" unicode="&#x219;" horiz-adv-x="856" 
d="M392 -18q-74 0 -140.5 10t-131.5 31v68q80 -24 144.5 -33.5t130.5 -9.5q160 0 235 59.5t75 166.5q0 94 -47.5 144t-159.5 74l-129 28q-145 34 -205 105t-60 178q0 126 93.5 209.5t287.5 83.5q64 0 121 -7t114 -23v-68q-66 19 -120 25.5t-115 6.5q-111 0 -179 -29.5
t-99.5 -80t-31.5 -114.5q0 -81 44 -135t155 -79l129 -28q153 -34 213 -104t60 -180q0 -137 -96 -217.5t-288 -80.5zM408 -448q21 54 27.5 94t6.5 76l4 -32h-12q-27 0 -44.5 18t-17.5 46q0 27 16.5 44.5t41.5 17.5q30 0 48 -21t18 -65q0 -36 -10.5 -83.5t-33.5 -94.5h-44z
" />
    <glyph glyph-name="uni021A" unicode="&#x21a;" horiz-adv-x="1112" 
d="M522 0v1414h-508v66h1084v-66h-508v-1414h-68zM530 -448q21 54 27.5 94t6.5 76l4 -32h-12q-27 0 -44.5 18t-17.5 46q0 27 16.5 44.5t41.5 17.5q30 0 48 -21t18 -65q0 -36 -10.5 -83.5t-33.5 -94.5h-44z" />
    <glyph glyph-name="uni021B" unicode="&#x21b;" horiz-adv-x="694" 
d="M542 -18q-147 0 -231 77.5t-84 250.5v770l8 400h60v-1158q0 -150 64.5 -212t186.5 -62q33 0 67 5t75 14v-68q-39 -9 -74 -13t-72 -4zM7 1016v64h659v-64h-659zM432 -448q21 54 27.5 94t6.5 76l4 -32h-12q-27 0 -44.5 18t-17.5 46q0 27 16.5 44.5t41.5 17.5q30 0 48 -21
t18 -65q0 -36 -10.5 -83.5t-33.5 -94.5h-44z" />
    <glyph glyph-name="uni022A" unicode="&#x22a;" horiz-adv-x="1368" 
d="M684 -18q-169 0 -296.5 76t-198.5 243t-71 439q0 273 71.5 440t199 242.5t295.5 75.5q170 0 297 -75.5t198 -242.5t71 -440q0 -272 -71.5 -439t-199 -243t-295.5 -76zM684 49q147 0 258.5 65t173.5 215.5t62 406.5q0 260 -62 412t-173.5 217.5t-258.5 65.5t-258 -65
t-173.5 -215.5t-62.5 -406.5q0 -260 62.5 -412t173.5 -217.5t258 -65.5zM904 1690q-27 0 -44.5 17t-17.5 45q0 29 17.5 46.5t44.5 17.5t44.5 -17.5t17.5 -46.5q0 -28 -17.5 -45t-44.5 -17zM464 1690q-27 0 -44.5 17t-17.5 45q0 29 17.5 46.5t44.5 17.5t44.5 -17.5
t17.5 -46.5q0 -28 -17.5 -45t-44.5 -17zM414 1951v59h540v-59h-540z" />
    <glyph glyph-name="uni022B" unicode="&#x22b;" horiz-adv-x="1058" 
d="M529 -18q-126 0 -220.5 56t-147.5 179t-53 323q0 199 53 321.5t147.5 178.5t220.5 56t221 -55.5t147.5 -177.5t52.5 -323q0 -198 -52.5 -321t-147.5 -180t-221 -57zM529 48q106 0 184.5 46t121.5 153.5t43 289.5q0 186 -43 293.5t-121.5 153.5t-184.5 46t-184.5 -45.5
t-121.5 -152t-43 -289.5q0 -185 43 -293.5t121.5 -155t184.5 -46.5zM729 1360q-27 0 -44.5 17t-17.5 45q0 29 17.5 46.5t44.5 17.5t44.5 -17.5t17.5 -46.5q0 -28 -17.5 -45t-44.5 -17zM329 1360q-27 0 -44.5 17t-17.5 45q0 29 17.5 46.5t44.5 17.5t44.5 -17.5t17.5 -46.5
q0 -28 -17.5 -45t-44.5 -17zM246 1658v59h566v-59h-566z" />
    <glyph glyph-name="uni022C" unicode="&#x22c;" horiz-adv-x="1368" 
d="M684 -18q-169 0 -296.5 76t-198.5 243t-71 439q0 273 71.5 440t199 242.5t295.5 75.5q170 0 297 -75.5t198 -242.5t71 -440q0 -272 -71.5 -439t-199 -243t-295.5 -76zM684 49q147 0 258.5 65t173.5 215.5t62 406.5q0 260 -62 412t-173.5 217.5t-258.5 65.5t-258 -65
t-173.5 -215.5t-62.5 -406.5q0 -260 62.5 -412t173.5 -217.5t258 -65.5zM828 1697q-44 0 -83 13t-75 28q-33 14 -65 24.5t-65 10.5q-49 0 -85.5 -17.5t-69.5 -53.5v67q27 30 65.5 45.5t89.5 15.5q44 0 83.5 -12.5t75.5 -28.5q33 -13 64.5 -24t64.5 -11q50 0 86.5 17.5
t68.5 53.5v-67q-26 -29 -64.5 -45t-90.5 -16zM414 1951v59h540v-59h-540z" />
    <glyph glyph-name="uni022D" unicode="&#x22d;" horiz-adv-x="1058" 
d="M529 -18q-126 0 -220.5 56t-147.5 179t-53 323q0 199 53 321.5t147.5 178.5t220.5 56t221 -55.5t147.5 -177.5t52.5 -323q0 -198 -52.5 -321t-147.5 -180t-221 -57zM529 48q106 0 184.5 46t121.5 153.5t43 289.5q0 186 -43 293.5t-121.5 153.5t-184.5 46t-184.5 -45.5
t-121.5 -152t-43 -289.5q0 -185 43 -293.5t121.5 -155t184.5 -46.5zM663 1380q-40 0 -77 13.5t-71 27.5q-31 14 -60.5 24.5t-59.5 10.5q-44 0 -80 -17.5t-69 -53.5v67q55 61 149 61q41 0 78 -13t71 -28q31 -13 60.5 -24t58.5 -11q46 0 81.5 17.5t67.5 53.5v-67
q-54 -61 -149 -61zM246 1658v59h566v-59h-566z" />
    <glyph glyph-name="uni0230" unicode="&#x230;" horiz-adv-x="1368" 
d="M684 -18q-169 0 -296.5 76t-198.5 243t-71 439q0 273 71.5 440t199 242.5t295.5 75.5q170 0 297 -75.5t198 -242.5t71 -440q0 -272 -71.5 -439t-199 -243t-295.5 -76zM684 49q147 0 258.5 65t173.5 215.5t62 406.5q0 260 -62 412t-173.5 217.5t-258.5 65.5t-258 -65
t-173.5 -215.5t-62.5 -406.5q0 -260 62.5 -412t173.5 -217.5t258 -65.5zM684 1690q-27 0 -44.5 17t-17.5 45q0 29 17.5 46.5t44.5 17.5t44.5 -17.5t17.5 -46.5q0 -28 -17.5 -45t-44.5 -17zM414 1951v59h540v-59h-540z" />
    <glyph glyph-name="uni0231" unicode="&#x231;" horiz-adv-x="1058" 
d="M529 -18q-126 0 -220.5 56t-147.5 179t-53 323q0 199 53 321.5t147.5 178.5t220.5 56t221 -55.5t147.5 -177.5t52.5 -323q0 -198 -52.5 -321t-147.5 -180t-221 -57zM529 48q106 0 184.5 46t121.5 153.5t43 289.5q0 186 -43 293.5t-121.5 153.5t-184.5 46t-184.5 -45.5
t-121.5 -152t-43 -289.5q0 -185 43 -293.5t121.5 -155t184.5 -46.5zM529 1360q-27 0 -44.5 17t-17.5 45q0 29 17.5 46.5t44.5 17.5t44.5 -17.5t17.5 -46.5q0 -28 -17.5 -45t-44.5 -17zM246 1658v59h566v-59h-566z" />
    <glyph glyph-name="uni0232" unicode="&#x232;" horiz-adv-x="1112" 
d="M522 0v707l18 -55l-559 828h83l510 -760h-34l503 760h80l-551 -828l18 55v-707h-68zM286 1723v59h540v-59h-540z" />
    <glyph glyph-name="uni0233" unicode="&#x233;" horiz-adv-x="995" 
d="M299 -440l174 440l17 36l407 1044h73l-599 -1520h-72zM451 0l-426 1080h76l420 -1080h-70zM216 1394v59h566v-59h-566z" />
    <glyph glyph-name="uni0237" unicode="&#x237;" horiz-adv-x="408" 
d="M28 -460l-49 35q67 92 109 182t62 189.5t20 219.5v914h68v-907q0 -130 -22 -236t-68.5 -202t-119.5 -195z" />
    <glyph glyph-name="uni0259" unicode="&#x259;" horiz-adv-x="984" 
d="M412 1098q147 0 251 -56.5t158.5 -179.5t54.5 -322q0 -197 -50.5 -319.5t-140 -179.5t-208.5 -57q-120 0 -206.5 57t-133 179.5t-46.5 319.5v30h752v-66h-708l27 26q0 -177 37.5 -282.5t108 -151.5t169.5 -46t172.5 46t114 151t40.5 283v15q0 178 -46.5 285t-135 154.5
t-214.5 47.5q-61 0 -125.5 -12.5t-141.5 -36.5v68q73 24 139 35.5t132 11.5z" />
    <glyph glyph-name="uni02BB" unicode="&#x2bb;" horiz-adv-x="1000" 
d="M504 1360q-30 0 -48 21.5t-18 64.5q0 36 11 84t33 94h44q-21 -54 -27.5 -94t-6.5 -76l-4 32h12q27 0 44.5 -17.5t17.5 -46.5q0 -27 -16 -44.5t-42 -17.5z" />
    <glyph glyph-name="uni02BC" unicode="&#x2bc;" horiz-adv-x="1000" 
d="M536 1360q21 54 27.5 94t6.5 76l4 -32h-12q-27 0 -44.5 18t-17.5 46q0 27 16.5 44.5t41.5 17.5q30 0 48 -21t18 -65q0 -36 -10.5 -83.5t-33.5 -94.5h-44z" />
    <glyph glyph-name="uni02BE" unicode="&#x2be;" horiz-adv-x="1000" 
d="M500 1260v52q57 0 93.5 35.5t36.5 96.5q0 62 -36.5 97t-93.5 35v52q80 0 132 -52t52 -132q0 -79 -52 -131.5t-132 -52.5z" />
    <glyph glyph-name="uni02BF" unicode="&#x2bf;" horiz-adv-x="1000" 
d="M500 1260q-79 0 -131.5 52.5t-52.5 131.5q0 80 52.5 132t131.5 52v-52q-57 0 -93.5 -35t-36.5 -97q0 -61 36.5 -96.5t93.5 -35.5v-52z" />
    <glyph glyph-name="circumflex" unicode="&#x2c6;" horiz-adv-x="1000" 
d="M344 1264l218 352h76l218 -352h-71l-198 327h26l-198 -327h-71z" />
    <glyph glyph-name="caron" unicode="&#x2c7;" horiz-adv-x="1000" 
d="M562 1264l-222 352h71l202 -328h-26l202 328h71l-222 -352h-76z" />
    <glyph glyph-name="uni02C8" unicode="&#x2c8;" horiz-adv-x="1200" 
d="M570 1218v400h60v-400h-60z" />
    <glyph glyph-name="uni02C9" unicode="&#x2c9;" horiz-adv-x="1000" 
d="M217 1394v59h566v-59h-566z" />
    <glyph glyph-name="uni02CA" unicode="&#x2ca;" horiz-adv-x="1000" 
d="M468 1264l208 352h78l-222 -352h-64z" />
    <glyph glyph-name="uni02CB" unicode="&#x2cb;" horiz-adv-x="1000" 
d="M468 1264l-222 352h78l208 -352h-64z" />
    <glyph glyph-name="uni02CC" unicode="&#x2cc;" horiz-adv-x="1200" 
d="M570 -440v400h60v-400h-60z" />
    <glyph glyph-name="breve" unicode="&#x2d8;" horiz-adv-x="1000" 
d="M602 1276q-121 0 -189.5 82.5t-74.5 229.5h58q8 -124 57.5 -189.5t148.5 -65.5q100 0 148.5 65.5t53.5 189.5h58q-5 -148 -72 -230t-188 -82z" />
    <glyph glyph-name="dotaccent" unicode="&#x2d9;" horiz-adv-x="1000" 
d="M600 1360q-27 0 -44.5 17t-17.5 45q0 29 17.5 46.5t44.5 17.5t44.5 -17.5t17.5 -46.5q0 -28 -17.5 -45t-44.5 -17z" />
    <glyph glyph-name="ring" unicode="&#x2da;" horiz-adv-x="1000" 
d="M600 1260q-79 0 -131.5 52.5t-52.5 131.5q0 80 52.5 132t131.5 52q80 0 132 -52t52 -132q0 -79 -52 -131.5t-132 -52.5zM600 1312q57 0 93.5 35.5t36.5 96.5q0 62 -36.5 97t-93.5 35t-93.5 -35t-36.5 -97q0 -61 36.5 -96.5t93.5 -35.5z" />
    <glyph glyph-name="ogonek" unicode="&#x2db;" horiz-adv-x="1000" 
d="M558 -400q-88 0 -138.5 45.5t-50.5 123.5q0 53 22 100t67 91t116 87l26 -47q-62 -38 -100.5 -74.5t-56.5 -74t-18 -79.5q0 -56 35 -88t95 -32q39 0 77.5 11.5t75.5 33.5v-56q-32 -19 -72.5 -30t-77.5 -11z" />
    <glyph glyph-name="tilde" unicode="&#x2dc;" horiz-adv-x="1000" 
d="M734 1380q-40 0 -77 13.5t-71 27.5q-31 14 -60.5 24.5t-59.5 10.5q-44 0 -80 -17.5t-69 -53.5v67q55 61 149 61q41 0 78 -13t71 -28q31 -13 60.5 -24t58.5 -11q46 0 81.5 17.5t67.5 53.5v-67q-54 -61 -149 -61z" />
    <glyph glyph-name="hungarumlaut" unicode="&#x2dd;" horiz-adv-x="1000" 
d="M717 1264l134 352h66l-142 -352h-58zM425 1264l134 352h66l-142 -352h-58z" />
    <glyph glyph-name="gravecomb" unicode="&#x300;" 
d="M568 1264l-222 352h78l208 -352h-64z" />
    <glyph glyph-name="acutecomb" unicode="&#x301;" 
d="M568 1264l208 352h78l-222 -352h-64z" />
    <glyph glyph-name="uni0302" unicode="&#x302;" 
d="M344 1264l218 352h76l218 -352h-71l-198 327h26l-198 -327h-71z" />
    <glyph glyph-name="tildecomb" unicode="&#x303;" 
d="M734 1380q-40 0 -77 13.5t-71 27.5q-31 14 -60.5 24.5t-59.5 10.5q-44 0 -80 -17.5t-69 -53.5v67q55 61 149 61q41 0 78 -13t71 -28q31 -13 60.5 -24t58.5 -11q46 0 81.5 17.5t67.5 53.5v-67q-54 -61 -149 -61z" />
    <glyph glyph-name="uni0304" unicode="&#x304;" 
d="M317 1394v59h566v-59h-566z" />
    <glyph glyph-name="uni0306" unicode="&#x306;" 
d="M602 1276q-121 0 -189.5 82.5t-74.5 229.5h58q8 -124 57.5 -189.5t148.5 -65.5q100 0 148.5 65.5t53.5 189.5h58q-5 -148 -72 -230t-188 -82z" />
    <glyph glyph-name="uni0307" unicode="&#x307;" 
d="M600 1360q-27 0 -44.5 17t-17.5 45q0 29 17.5 46.5t44.5 17.5t44.5 -17.5t17.5 -46.5q0 -28 -17.5 -45t-44.5 -17z" />
    <glyph glyph-name="uni0308" unicode="&#x308;" 
d="M800 1360q-27 0 -44.5 17t-17.5 45q0 29 17.5 46.5t44.5 17.5t44.5 -17.5t17.5 -46.5q0 -28 -17.5 -45t-44.5 -17zM400 1360q-27 0 -44.5 17t-17.5 45q0 29 17.5 46.5t44.5 17.5t44.5 -17.5t17.5 -46.5q0 -28 -17.5 -45t-44.5 -17z" />
    <glyph glyph-name="hookabovecomb" unicode="&#x309;" 
d="M576 1264q1 55 26 86t56.5 51t55 41t23.5 53q0 40 -30 58.5t-98 18.5q-35 0 -77.5 -6t-75.5 -18v56q30 11 70 17.5t79 6.5q99 0 145 -35t46 -97q0 -48 -23.5 -74.5t-54.5 -45.5t-55 -43.5t-25 -68.5h-62z" />
    <glyph glyph-name="uni030A" unicode="&#x30a;" 
d="M600 1260q-79 0 -131.5 52.5t-52.5 131.5q0 80 52.5 132t131.5 52q80 0 132 -52t52 -132q0 -79 -52 -131.5t-132 -52.5zM600 1312q57 0 93.5 35.5t36.5 96.5q0 62 -36.5 97t-93.5 35t-93.5 -35t-36.5 -97q0 -61 36.5 -96.5t93.5 -35.5z" />
    <glyph glyph-name="uni030B" unicode="&#x30b;" 
d="M717 1264l134 352h66l-142 -352h-58zM425 1264l134 352h66l-142 -352h-58z" />
    <glyph glyph-name="uni030C" unicode="&#x30c;" 
d="M562 1264l-222 352h71l202 -328h-26l202 328h71l-222 -352h-76z" />
    <glyph glyph-name="uni030F" unicode="&#x30f;" 
d="M717 1264l-142 352h70l133 -352h-61zM422 1264l-142 352h70l133 -352h-61z" />
    <glyph glyph-name="uni0311" unicode="&#x311;" 
d="M338 1292q6 151 72.5 231.5t187.5 80.5q122 0 190.5 -81.5t73.5 -230.5h-58q-7 125 -57 189t-149 64q-98 0 -146.5 -64t-55.5 -189h-58z" />
    <glyph glyph-name="uni0312" unicode="&#x312;" 
d="M604 1360q-30 0 -48 21.5t-18 64.5q0 36 11 84t33 94h44q-21 -54 -27.5 -94t-6.5 -76l-4 32h12q27 0 44.5 -17.5t17.5 -46.5q0 -27 -16 -44.5t-42 -17.5z" />
    <glyph glyph-name="uni031B" unicode="&#x31b;" 
d="M600 1413v67h33q91 0 145 40t54 127q0 42 -6.5 75t-18.5 67h66q13 -34 19 -66.5t6 -77.5q0 -73 -31.5 -125t-89.5 -79.5t-138 -27.5h-39z" />
    <glyph glyph-name="dotbelowcomb" unicode="&#x323;" 
d="M600 -310q-27 0 -44.5 17t-17.5 45q0 29 17.5 46.5t44.5 17.5t44.5 -17.5t17.5 -46.5q0 -28 -17.5 -45t-44.5 -17z" />
    <glyph glyph-name="uni0324" unicode="&#x324;" 
d="M800 -310q-27 0 -44.5 17t-17.5 45q0 29 17.5 46.5t44.5 17.5t44.5 -17.5t17.5 -46.5q0 -28 -17.5 -45t-44.5 -17zM400 -310q-27 0 -44.5 17t-17.5 45q0 29 17.5 46.5t44.5 17.5t44.5 -17.5t17.5 -46.5q0 -28 -17.5 -45t-44.5 -17z" />
    <glyph glyph-name="uni0326" unicode="&#x326;" 
d="M574 -448q21 54 27.5 94t6.5 76l4 -32h-12q-27 0 -44.5 18t-17.5 46q0 27 16.5 44.5t41.5 17.5q30 0 48 -21t18 -65q0 -36 -10.5 -83.5t-33.5 -94.5h-44z" />
    <glyph glyph-name="uni0327" unicode="&#x327;" 
d="M608 -400q-41 0 -86 10t-77 27v56q45 -23 86.5 -32t79.5 -9q60 0 89 23t29 68q0 93 -120 93h-32v184h56v-162l-23 29q84 0 129 -37.5t45 -106.5q0 -66 -46 -104.5t-130 -38.5z" />
    <glyph glyph-name="uni0328" unicode="&#x328;" 
d="M558 -400q-88 0 -138.5 45.5t-50.5 123.5q0 53 22 100t67 91t116 87l26 -47q-62 -38 -100.5 -74.5t-56.5 -74t-18 -79.5q0 -56 35 -88t95 -32q39 0 77.5 11.5t75.5 33.5v-56q-32 -19 -72.5 -30t-77.5 -11z" />
    <glyph glyph-name="uni032E" unicode="&#x32e;" 
d="M602 -400q-124 0 -193 66t-71 174h58q5 -86 55 -133.5t151 -47.5q102 0 151 47.5t51 133.5h58q-1 -109 -68 -174.5t-192 -65.5z" />
    <glyph glyph-name="uni0331" unicode="&#x331;" 
d="M350 -278v59h500v-59h-500z" />
    <glyph glyph-name="uni0394" unicode="&#x394;" horiz-adv-x="1286" 
d="M37 0l563 1480h86l563 -1480h-1212zM124 37l-19 29h1074l-19 -29l-529 1400h22z" />
    <glyph glyph-name="uni03A9" unicode="&#x3a9;" horiz-adv-x="1368" 
d="M118 0v66h379l-18 -10q-118 82 -198.5 190t-121.5 244t-41 300q0 237 67.5 394.5t194 235.5t304.5 78q179 0 305.5 -78t193.5 -235.5t67 -394.5q0 -164 -40.5 -300t-121 -244t-199.5 -190l-18 10h379v-66h-459v64q132 84 218 189t127.5 237.5t41.5 299.5
q0 222 -58.5 363.5t-168.5 209.5t-267 68q-156 0 -266.5 -68t-169 -209.5t-58.5 -363.5q0 -167 42 -299.5t128 -237.5t217 -189v-64h-459z" />
    <glyph glyph-name="uni03BC" unicode="&#x3bc;" horiz-adv-x="1077" 
d="M486 -18q-96 0 -165.5 34t-107 112.5t-37.5 210.5v131h48v-132q0 -162 74 -226t190 -64q57 0 121 17.5t124 56.5t106 103v855h68v-1080h-60l-6 124h-8q-70 -71 -160.5 -106.5t-186.5 -35.5zM156 -440v1520h68v-1520h-68z" />
    <glyph glyph-name="pi" unicode="&#x3c0;" horiz-adv-x="1248" 
d="M1122 -18q-124 0 -195.5 68t-72.5 228l-2 768h70v-756q0 -136 51 -189t153 -53q27 0 56.5 4.5t59.5 11.5v-68q-27 -6 -59 -10t-61 -4zM227 -2v1048h68v-1048h-68zM7 1016v64h1135v-64h-1135z" />
    <glyph glyph-name="uni1E08" unicode="&#x1e08;" horiz-adv-x="1101" 
d="M729 -18q-135 0 -247 39t-193.5 126.5t-126 232.5t-44.5 358q0 275 76 442t217 242.5t334 75.5q86 0 164.5 -11.5t155.5 -35.5v-68q-82 27 -162 38t-163 11q-173 0 -296 -65.5t-188.5 -217t-65.5 -407.5q0 -266 67 -417.5t188 -214t284 -62.5q86 0 164.5 13.5t171.5 46.5
v-68q-75 -27 -158 -42.5t-178 -15.5zM707 -400q-45 0 -94.5 10t-92.5 29v56q56 -24 100 -33.5t87 -9.5q63 0 99 22t36 70t-36 70t-101 22h-38v184h56v-162l-13 30q84 0 136 -35.5t52 -108.5q0 -71 -52.5 -107.5t-138.5 -36.5zM642 1616l175 272h79l-190 -272h-64z" />
    <glyph glyph-name="uni1E09" unicode="&#x1e09;" horiz-adv-x="826" 
d="M538 -18q-137 0 -233 56.5t-146.5 179.5t-50.5 322t54.5 321.5t160.5 178.5t260 56q51 0 106 -7t104 -22v-68q-53 16 -106 23.5t-102 7.5q-135 0 -225 -46t-135 -152.5t-45 -287.5q0 -183 41.5 -292t123 -156.5t200.5 -47.5q53 0 114 11.5t134 37.5v-68
q-65 -24 -128.5 -35.5t-126.5 -11.5zM505 -400q-41 0 -86 10t-77 27v56q45 -23 86.5 -32t79.5 -9q60 0 89 23t29 68q0 93 -120 93h-32v184h56v-162l-23 29q84 0 129 -37.5t45 -106.5q0 -66 -46 -104.5t-130 -38.5zM468 1264l208 352h78l-222 -352h-64z" />
    <glyph glyph-name="uni1E0C" unicode="&#x1e0c;" horiz-adv-x="1343" 
d="M508 -10q-52 0 -100.5 2t-100.5 6.5t-117 11.5v1451q55 11 113 18.5t115 11t111 3.5q345 0 520.5 -185.5t175.5 -568.5q0 -259 -81 -424.5t-240.5 -245.5t-395.5 -80zM510 56q215 0 357.5 71t214 222t71.5 391q0 238 -68.5 390.5t-208.5 225t-352 72.5q-63 0 -129 -5.5
t-137 -16.5v-1334q58 -8 117.5 -12t134.5 -4zM611 -310q-27 0 -44.5 17t-17.5 45q0 29 17.5 46.5t44.5 17.5t44.5 -17.5t17.5 -46.5q0 -28 -17.5 -45t-44.5 -17z" />
    <glyph glyph-name="uni1E0D" unicode="&#x1e0d;" horiz-adv-x="1071" 
d="M523 -18q-117 0 -211 52t-149 169.5t-55 314.5q0 199 59.5 327t175 189.5t284.5 61.5q54 0 107.5 -5t98.5 -13v538h68v-1616h-60l-6 119h-8q-49 -59 -127.5 -98t-176.5 -39zM526 48q87 0 169.5 40.5t137.5 128.5v790q-42 11 -98 17t-111 6q-219 0 -331.5 -118
t-112.5 -386q0 -184 44.5 -288t122.5 -147t179 -43zM533 -310q-27 0 -44.5 17t-17.5 45q0 29 17.5 46.5t44.5 17.5t44.5 -17.5t17.5 -46.5q0 -28 -17.5 -45t-44.5 -17z" />
    <glyph glyph-name="uni1E0E" unicode="&#x1e0e;" horiz-adv-x="1343" 
d="M508 -10q-52 0 -100.5 2t-100.5 6.5t-117 11.5v1451q55 11 113 18.5t115 11t111 3.5q345 0 520.5 -185.5t175.5 -568.5q0 -259 -81 -424.5t-240.5 -245.5t-395.5 -80zM510 56q215 0 357.5 71t214 222t71.5 391q0 238 -68.5 390.5t-208.5 225t-352 72.5q-63 0 -129 -5.5
t-137 -16.5v-1334q58 -8 117.5 -12t134.5 -4zM341 -278v59h540v-59h-540z" />
    <glyph glyph-name="uni1E0F" unicode="&#x1e0f;" horiz-adv-x="1071" 
d="M523 -18q-117 0 -211 52t-149 169.5t-55 314.5q0 199 59.5 327t175 189.5t284.5 61.5q54 0 107.5 -5t98.5 -13v538h68v-1616h-60l-6 119h-8q-49 -59 -127.5 -98t-176.5 -39zM526 48q87 0 169.5 40.5t137.5 128.5v790q-42 11 -98 17t-111 6q-219 0 -331.5 -118
t-112.5 -386q0 -184 44.5 -288t122.5 -147t179 -43zM283 -278v59h500v-59h-500z" />
    <glyph glyph-name="uni1E14" unicode="&#x1e14;" horiz-adv-x="1115" 
d="M190 0v1480h844v-66h-776v-1348h786v-66h-854zM240 728v66h699v-66h-699zM603 1884l-190 232h79l175 -232h-64zM364 1723v59h540v-59h-540z" />
    <glyph glyph-name="uni1E15" unicode="&#x1e15;" horiz-adv-x="984" 
d="M572 -18q-147 0 -251 56.5t-158.5 179.5t-54.5 322q0 197 50.5 319.5t140 179.5t208.5 57q120 0 206.5 -57t133 -179.5t46.5 -319.5v-30h-752v66h708l-27 -26q0 177 -37.5 282.5t-108 151.5t-169.5 46t-172.5 -46t-114 -151t-40.5 -283v-15q0 -178 46.5 -285t135 -154.5
t214.5 -47.5q61 0 125.5 12.5t141.5 36.5v-68q-73 -24 -139 -35.5t-132 -11.5zM225 1394v59h566v-59h-566zM476 1596l-190 272h79l175 -272h-64z" />
    <glyph glyph-name="uni1E16" unicode="&#x1e16;" horiz-adv-x="1115" 
d="M190 0v1480h844v-66h-776v-1348h786v-66h-854zM240 728v66h699v-66h-699zM601 1884l174 232h80l-189 -232h-65zM364 1723v59h540v-59h-540z" />
    <glyph glyph-name="uni1E17" unicode="&#x1e17;" horiz-adv-x="984" 
d="M572 -18q-147 0 -251 56.5t-158.5 179.5t-54.5 322q0 197 50.5 319.5t140 179.5t208.5 57q120 0 206.5 -57t133 -179.5t46.5 -319.5v-30h-752v66h708l-27 -26q0 177 -37.5 282.5t-108 151.5t-169.5 46t-172.5 -46t-114 -151t-40.5 -283v-15q0 -178 46.5 -285t135 -154.5
t214.5 -47.5q61 0 125.5 12.5t141.5 36.5v-68q-73 -24 -139 -35.5t-132 -11.5zM225 1394v59h566v-59h-566zM476 1596l175 272h79l-190 -272h-64z" />
    <glyph glyph-name="uni1E1C" unicode="&#x1e1c;" horiz-adv-x="1115" 
d="M190 0v1480h844v-66h-776v-1348h786v-66h-854zM240 728v66h699v-66h-699zM654 -400q-45 0 -94.5 10t-92.5 29v56q56 -24 100 -33.5t87 -9.5q63 0 99 22t36 70t-36 70t-101 22h-38v184h56v-162l-13 30q84 0 136 -35.5t52 -108.5q0 -71 -52.5 -107.5t-138.5 -36.5z
M636 1628q-89 0 -150 29t-94.5 81t-39.5 122h58q12 -84 62.5 -128.5t163.5 -44.5q114 0 163.5 44.5t58.5 128.5h58q-6 -71 -38 -123t-92 -80.5t-150 -28.5z" />
    <glyph glyph-name="uni1E1D" unicode="&#x1e1d;" horiz-adv-x="984" 
d="M572 -18q-147 0 -251 56.5t-158.5 179.5t-54.5 322q0 197 50.5 319.5t140 179.5t208.5 57q120 0 206.5 -57t133 -179.5t46.5 -319.5v-30h-752v66h708l-27 -26q0 177 -37.5 282.5t-108 151.5t-169.5 46t-172.5 -46t-114 -151t-40.5 -283v-15q0 -178 46.5 -285t135 -154.5
t214.5 -47.5q61 0 125.5 12.5t141.5 36.5v-68q-73 -24 -139 -35.5t-132 -11.5zM516 -400q-41 0 -86 10t-77 27v56q45 -23 86.5 -32t79.5 -9q60 0 89 23t29 68q0 93 -120 93h-32v184h56v-162l-23 29q84 0 129 -37.5t45 -106.5q0 -66 -46 -104.5t-130 -38.5zM510 1276
q-121 0 -189.5 82.5t-74.5 229.5h58q8 -124 57.5 -189.5t148.5 -65.5q100 0 148.5 65.5t53.5 189.5h58q-5 -148 -72 -230t-188 -82z" />
    <glyph glyph-name="uni1E20" unicode="&#x1e20;" horiz-adv-x="1301" 
d="M827 -10q-231 0 -388.5 77t-239 242t-81.5 429q0 277 84 443.5t233 241.5t342 75q84 0 165.5 -11.5t164.5 -35.5v-68q-96 29 -176 39t-155 10q-174 0 -305.5 -65.5t-206 -217t-74.5 -409.5q0 -246 71.5 -396.5t213.5 -219t352 -68.5q78 0 142 6.5t121 17.5l-22 -35v675
h68v-703q-92 -15 -162.5 -21t-146.5 -6zM439 1723v59h540v-59h-540z" />
    <glyph glyph-name="uni1E21" unicode="&#x1e21;" horiz-adv-x="1071" 
d="M466 -460q-67 0 -147.5 13.5t-145.5 37.5v68q81 -27 153 -40t141 -13q185 0 275.5 84.5t90.5 297.5v125h-6q-50 -55 -128.5 -93t-181.5 -38q-112 0 -205 50.5t-148.5 167.5t-55.5 318q0 298 131.5 438t377.5 140q49 0 98.5 -5t96.5 -14.5t89 -22.5v-1061
q0 -245 -110 -349t-325 -104zM521 48q88 0 172.5 39.5t139.5 121.5v794q-42 12 -99.5 19.5t-120.5 7.5q-211 0 -322 -118t-111 -386q0 -186 45.5 -290t122.5 -146t173 -42zM270 1394v59h566v-59h-566z" />
    <glyph glyph-name="uni1E24" unicode="&#x1e24;" horiz-adv-x="1398" 
d="M190 0v1480h68v-686h882v686h68v-1480h-68v728h-882v-728h-68zM699 -310q-27 0 -44.5 17t-17.5 45q0 29 17.5 46.5t44.5 17.5t44.5 -17.5t17.5 -46.5q0 -28 -17.5 -45t-44.5 -17z" />
    <glyph glyph-name="uni1E25" unicode="&#x1e25;" horiz-adv-x="1087" 
d="M170 0v1616h68v-663h6q72 72 163 107.5t190 35.5q98 0 173.5 -34t118 -112t42.5 -211v-739h-68v740q0 163 -74 225.5t-195 62.5q-59 0 -123 -17t-125 -55.5t-108 -103.5v-852h-68zM551 -310q-27 0 -44.5 17t-17.5 45q0 29 17.5 46.5t44.5 17.5t44.5 -17.5t17.5 -46.5
q0 -28 -17.5 -45t-44.5 -17z" />
    <glyph glyph-name="uni1E2A" unicode="&#x1e2a;" horiz-adv-x="1398" 
d="M190 0v1480h68v-686h882v686h68v-1480h-68v728h-882v-728h-68zM701 -400q-93 0 -156 30t-95 84t-33 126h58q5 -86 57.5 -133.5t168.5 -47.5q117 0 168.5 47.5t53.5 133.5h58q-1 -73 -32 -127t-93 -83.5t-155 -29.5z" />
    <glyph glyph-name="uni1E2B" unicode="&#x1e2b;" horiz-adv-x="1087" 
d="M170 0v1616h68v-663h6q72 72 163 107.5t190 35.5q98 0 173.5 -34t118 -112t42.5 -211v-739h-68v740q0 163 -74 225.5t-195 62.5q-59 0 -123 -17t-125 -55.5t-108 -103.5v-852h-68zM553 -400q-124 0 -193 66t-71 174h58q5 -86 55 -133.5t151 -47.5q102 0 151 47.5
t51 133.5h58q-1 -109 -68 -174.5t-192 -65.5z" />
    <glyph glyph-name="uni1E2E" unicode="&#x1e2e;" horiz-adv-x="448" 
d="M190 0v1480h68v-1480h-68zM191 1884l174 232h80l-189 -232h-65zM444 1690q-27 0 -44.5 17t-17.5 45q0 29 17.5 46.5t44.5 17.5t44.5 -17.5t17.5 -46.5q0 -28 -17.5 -45t-44.5 -17zM4 1690q-27 0 -44.5 17t-17.5 45q0 29 17.5 46.5t44.5 17.5t44.5 -17.5t17.5 -46.5
q0 -28 -17.5 -45t-44.5 -17z" />
    <glyph glyph-name="uni1E2F" unicode="&#x1e2f;" horiz-adv-x="408" 
d="M170 0v1080h68v-1080h-68zM404 1360q-27 0 -44.5 17t-17.5 45q0 29 17.5 46.5t44.5 17.5t44.5 -17.5t17.5 -46.5q0 -28 -17.5 -45t-44.5 -17zM4 1360q-27 0 -44.5 17t-17.5 45q0 29 17.5 46.5t44.5 17.5t44.5 -17.5t17.5 -46.5q0 -28 -17.5 -45t-44.5 -17zM172 1652
l175 272h79l-190 -272h-64z" />
    <glyph glyph-name="uni1E36" unicode="&#x1e36;" horiz-adv-x="1027" 
d="M190 0v1480h68v-1414h756v-66h-824zM603 -310q-27 0 -44.5 17t-17.5 45q0 29 17.5 46.5t44.5 17.5t44.5 -17.5t17.5 -46.5q0 -28 -17.5 -45t-44.5 -17z" />
    <glyph glyph-name="uni1E37" unicode="&#x1e37;" horiz-adv-x="408" 
d="M170 0v1616h68v-1616h-68zM204 -310q-27 0 -44.5 17t-17.5 45q0 29 17.5 46.5t44.5 17.5t44.5 -17.5t17.5 -46.5q0 -28 -17.5 -45t-44.5 -17z" />
    <glyph glyph-name="uni1E3A" unicode="&#x1e3a;" horiz-adv-x="1027" 
d="M190 0v1480h68v-1414h756v-66h-824zM333 -278v59h540v-59h-540z" />
    <glyph glyph-name="uni1E3B" unicode="&#x1e3b;" horiz-adv-x="408" 
d="M170 0v1616h68v-1616h-68zM-46 -278v59h500v-59h-500z" />
    <glyph glyph-name="uni1E42" unicode="&#x1e42;" horiz-adv-x="1692" 
d="M194 0v1480h75l595 -1248h-32l591 1248h75v-1480h-66v1422h36l-584 -1222h-76l-586 1222h38v-1422h-66zM846 -310q-27 0 -44.5 17t-17.5 45q0 29 17.5 46.5t44.5 17.5t44.5 -17.5t17.5 -46.5q0 -28 -17.5 -45t-44.5 -17z" />
    <glyph glyph-name="uni1E43" unicode="&#x1e43;" horiz-adv-x="1632" 
d="M170 0v1080h60l6 -130h8q65 74 147.5 110t170.5 36q87 0 154.5 -34t105.5 -112t38 -211v-739h-68v738q0 165 -65.5 228.5t-171.5 63.5q-51 0 -108.5 -18t-111.5 -58t-97 -107v-847h-68zM1408 0v738q0 165 -68 228.5t-174 63.5q-51 0 -112.5 -19t-120.5 -65.5t-102 -128.5
l-26 84q82 111 180 153t185 42q88 0 157.5 -34t109 -112t39.5 -211v-739h-68zM826 -310q-27 0 -44.5 17t-17.5 45q0 29 17.5 46.5t44.5 17.5t44.5 -17.5t17.5 -46.5q0 -28 -17.5 -45t-44.5 -17z" />
    <glyph glyph-name="uni1E44" unicode="&#x1e44;" horiz-adv-x="1427" 
d="M190 0v1480h75l937 -1420h-31v1420h66v-1480h-75l-937 1420h31v-1420h-66zM714 1690q-27 0 -44.5 17t-17.5 45q0 29 17.5 46.5t44.5 17.5t44.5 -17.5t17.5 -46.5q0 -28 -17.5 -45t-44.5 -17z" />
    <glyph glyph-name="uni1E45" unicode="&#x1e45;" horiz-adv-x="1087" 
d="M170 0v1080h60l6 -129h8q70 70 161 107.5t191 37.5q99 0 174.5 -34t118 -112.5t42.5 -211.5v-738h-68v738q0 163 -72.5 227.5t-196.5 64.5q-56 0 -120 -16.5t-126 -55.5t-110 -105v-853h-68zM551 1360q-27 0 -44.5 17t-17.5 45q0 29 17.5 46.5t44.5 17.5t44.5 -17.5
t17.5 -46.5q0 -28 -17.5 -45t-44.5 -17z" />
    <glyph glyph-name="uni1E46" unicode="&#x1e46;" horiz-adv-x="1427" 
d="M190 0v1480h75l937 -1420h-31v1420h66v-1480h-75l-937 1420h31v-1420h-66zM714 -310q-27 0 -44.5 17t-17.5 45q0 29 17.5 46.5t44.5 17.5t44.5 -17.5t17.5 -46.5q0 -28 -17.5 -45t-44.5 -17z" />
    <glyph glyph-name="uni1E47" unicode="&#x1e47;" horiz-adv-x="1087" 
d="M170 0v1080h60l6 -129h8q70 70 161 107.5t191 37.5q99 0 174.5 -34t118 -112.5t42.5 -211.5v-738h-68v738q0 163 -72.5 227.5t-196.5 64.5q-56 0 -120 -16.5t-126 -55.5t-110 -105v-853h-68zM551 -310q-27 0 -44.5 17t-17.5 45q0 29 17.5 46.5t44.5 17.5t44.5 -17.5
t17.5 -46.5q0 -28 -17.5 -45t-44.5 -17z" />
    <glyph glyph-name="uni1E48" unicode="&#x1e48;" horiz-adv-x="1427" 
d="M190 0v1480h75l937 -1420h-31v1420h66v-1480h-75l-937 1420h31v-1420h-66zM444 -278v59h540v-59h-540z" />
    <glyph glyph-name="uni1E49" unicode="&#x1e49;" horiz-adv-x="1087" 
d="M170 0v1080h60l6 -129h8q70 70 161 107.5t191 37.5q99 0 174.5 -34t118 -112.5t42.5 -211.5v-738h-68v738q0 163 -72.5 227.5t-196.5 64.5q-56 0 -120 -16.5t-126 -55.5t-110 -105v-853h-68zM301 -278v59h500v-59h-500z" />
    <glyph glyph-name="uni1E4C" unicode="&#x1e4c;" horiz-adv-x="1368" 
d="M684 -18q-169 0 -296.5 76t-198.5 243t-71 439q0 273 71.5 440t199 242.5t295.5 75.5q170 0 297 -75.5t198 -242.5t71 -440q0 -272 -71.5 -439t-199 -243t-295.5 -76zM684 49q147 0 258.5 65t173.5 215.5t62 406.5q0 260 -62 412t-173.5 217.5t-258.5 65.5t-258 -65
t-173.5 -215.5t-62.5 -406.5q0 -260 62.5 -412t173.5 -217.5t258 -65.5zM650 1884l174 232h80l-189 -232h-65zM828 1697q-44 0 -83 13t-75 28q-33 14 -65 24.5t-65 10.5q-49 0 -85.5 -17.5t-69.5 -53.5v67q27 30 65.5 45.5t89.5 15.5q44 0 83.5 -12.5t75.5 -28.5
q33 -13 64.5 -24t64.5 -11q50 0 86.5 17.5t68.5 53.5v-67q-26 -29 -64.5 -45t-90.5 -16z" />
    <glyph glyph-name="uni1E4D" unicode="&#x1e4d;" horiz-adv-x="1058" 
d="M529 -18q-126 0 -220.5 56t-147.5 179t-53 323q0 199 53 321.5t147.5 178.5t220.5 56t221 -55.5t147.5 -177.5t52.5 -323q0 -198 -52.5 -321t-147.5 -180t-221 -57zM529 48q106 0 184.5 46t121.5 153.5t43 289.5q0 186 -43 293.5t-121.5 153.5t-184.5 46t-184.5 -45.5
t-121.5 -152t-43 -289.5q0 -185 43 -293.5t121.5 -155t184.5 -46.5zM663 1380q-40 0 -77 13.5t-71 27.5q-31 14 -60.5 24.5t-59.5 10.5q-44 0 -80 -17.5t-69 -53.5v67q55 61 149 61q41 0 78 -13t71 -28q31 -13 60.5 -24t58.5 -11q46 0 81.5 17.5t67.5 53.5v-67
q-54 -61 -149 -61zM497 1596l175 272h79l-190 -272h-64z" />
    <glyph glyph-name="uni1E4E" unicode="&#x1e4e;" horiz-adv-x="1368" 
d="M684 -18q-169 0 -296.5 76t-198.5 243t-71 439q0 273 71.5 440t199 242.5t295.5 75.5q170 0 297 -75.5t198 -242.5t71 -440q0 -272 -71.5 -439t-199 -243t-295.5 -76zM684 49q147 0 258.5 65t173.5 215.5t62 406.5q0 260 -62 412t-173.5 217.5t-258.5 65.5t-258 -65
t-173.5 -215.5t-62.5 -406.5q0 -260 62.5 -412t173.5 -217.5t258 -65.5zM828 1697q-44 0 -83 13t-75 28q-33 14 -65 24.5t-65 10.5q-49 0 -85.5 -17.5t-69.5 -53.5v67q27 30 65.5 45.5t89.5 15.5q44 0 83.5 -12.5t75.5 -28.5q33 -13 64.5 -24t64.5 -11q50 0 86.5 17.5
t68.5 53.5v-67q-26 -29 -64.5 -45t-90.5 -16zM904 1918q-27 0 -44.5 17t-17.5 45q0 29 17.5 46.5t44.5 17.5t44.5 -17.5t17.5 -46.5q0 -28 -17.5 -45t-44.5 -17zM464 1918q-27 0 -44.5 17t-17.5 45q0 29 17.5 46.5t44.5 17.5t44.5 -17.5t17.5 -46.5q0 -28 -17.5 -45
t-44.5 -17z" />
    <glyph glyph-name="uni1E4F" unicode="&#x1e4f;" horiz-adv-x="1058" 
d="M529 -18q-126 0 -220.5 56t-147.5 179t-53 323q0 199 53 321.5t147.5 178.5t220.5 56t221 -55.5t147.5 -177.5t52.5 -323q0 -198 -52.5 -321t-147.5 -180t-221 -57zM529 48q106 0 184.5 46t121.5 153.5t43 289.5q0 186 -43 293.5t-121.5 153.5t-184.5 46t-184.5 -45.5
t-121.5 -152t-43 -289.5q0 -185 43 -293.5t121.5 -155t184.5 -46.5zM663 1380q-40 0 -77 13.5t-71 27.5q-31 14 -60.5 24.5t-59.5 10.5q-44 0 -80 -17.5t-69 -53.5v67q55 61 149 61q41 0 78 -13t71 -28q31 -13 60.5 -24t58.5 -11q46 0 81.5 17.5t67.5 53.5v-67
q-54 -61 -149 -61zM729 1624q-27 0 -44.5 17t-17.5 45q0 29 17.5 46.5t44.5 17.5t44.5 -17.5t17.5 -46.5q0 -28 -17.5 -45t-44.5 -17zM329 1624q-27 0 -44.5 17t-17.5 45q0 29 17.5 46.5t44.5 17.5t44.5 -17.5t17.5 -46.5q0 -28 -17.5 -45t-44.5 -17z" />
    <glyph glyph-name="uni1E50" unicode="&#x1e50;" horiz-adv-x="1368" 
d="M684 -18q-169 0 -296.5 76t-198.5 243t-71 439q0 273 71.5 440t199 242.5t295.5 75.5q170 0 297 -75.5t198 -242.5t71 -440q0 -272 -71.5 -439t-199 -243t-295.5 -76zM684 49q147 0 258.5 65t173.5 215.5t62 406.5q0 260 -62 412t-173.5 217.5t-258.5 65.5t-258 -65
t-173.5 -215.5t-62.5 -406.5q0 -260 62.5 -412t173.5 -217.5t258 -65.5zM653 1884l-190 232h79l175 -232h-64zM414 1723v59h540v-59h-540z" />
    <glyph glyph-name="uni1E51" unicode="&#x1e51;" horiz-adv-x="1058" 
d="M529 -18q-126 0 -220.5 56t-147.5 179t-53 323q0 199 53 321.5t147.5 178.5t220.5 56t221 -55.5t147.5 -177.5t52.5 -323q0 -198 -52.5 -321t-147.5 -180t-221 -57zM529 48q106 0 184.5 46t121.5 153.5t43 289.5q0 186 -43 293.5t-121.5 153.5t-184.5 46t-184.5 -45.5
t-121.5 -152t-43 -289.5q0 -185 43 -293.5t121.5 -155t184.5 -46.5zM246 1394v59h566v-59h-566zM497 1596l-190 272h79l175 -272h-64z" />
    <glyph glyph-name="uni1E52" unicode="&#x1e52;" horiz-adv-x="1368" 
d="M684 -18q-169 0 -296.5 76t-198.5 243t-71 439q0 273 71.5 440t199 242.5t295.5 75.5q170 0 297 -75.5t198 -242.5t71 -440q0 -272 -71.5 -439t-199 -243t-295.5 -76zM684 49q147 0 258.5 65t173.5 215.5t62 406.5q0 260 -62 412t-173.5 217.5t-258.5 65.5t-258 -65
t-173.5 -215.5t-62.5 -406.5q0 -260 62.5 -412t173.5 -217.5t258 -65.5zM651 1884l174 232h80l-189 -232h-65zM414 1723v59h540v-59h-540z" />
    <glyph glyph-name="uni1E53" unicode="&#x1e53;" horiz-adv-x="1058" 
d="M529 -18q-126 0 -220.5 56t-147.5 179t-53 323q0 199 53 321.5t147.5 178.5t220.5 56t221 -55.5t147.5 -177.5t52.5 -323q0 -198 -52.5 -321t-147.5 -180t-221 -57zM529 48q106 0 184.5 46t121.5 153.5t43 289.5q0 186 -43 293.5t-121.5 153.5t-184.5 46t-184.5 -45.5
t-121.5 -152t-43 -289.5q0 -185 43 -293.5t121.5 -155t184.5 -46.5zM246 1394v59h566v-59h-566zM497 1596l175 272h79l-190 -272h-64z" />
    <glyph glyph-name="uni1E5A" unicode="&#x1e5a;" horiz-adv-x="1266" 
d="M190 0v1461q51 9 104.5 16.5t115 12t135.5 4.5q277 0 409.5 -100.5t132.5 -316.5q0 -141 -65.5 -235.5t-197.5 -142.5t-333 -48q-71 0 -124 3t-109 7v-661h-68zM1110 0l-549 703h85l551 -703h-87zM489 716q283 0 406.5 89.5t123.5 269.5q0 126 -49 204t-154 113.5
t-275 35.5q-89 0 -153 -6t-130 -18v-678q44 -3 78.5 -5.5t70 -3.5t82.5 -1zM660 -310q-27 0 -44.5 17t-17.5 45q0 29 17.5 46.5t44.5 17.5t44.5 -17.5t17.5 -46.5q0 -28 -17.5 -45t-44.5 -17z" />
    <glyph glyph-name="uni1E5B" unicode="&#x1e5b;" horiz-adv-x="673" 
d="M170 0v1080h60l6 -147h8q61 75 151 115t181 40q25 0 44.5 -1.5t39.5 -5.5v-68q-21 4 -40.5 4.5t-44.5 0.5q-57 0 -119.5 -19.5t-119.5 -60t-98 -102.5v-836h-68zM204 -310q-27 0 -44.5 17t-17.5 45q0 29 17.5 46.5t44.5 17.5t44.5 -17.5t17.5 -46.5q0 -28 -17.5 -45
t-44.5 -17z" />
    <glyph glyph-name="uni1E5E" unicode="&#x1e5e;" horiz-adv-x="1266" 
d="M190 0v1461q51 9 104.5 16.5t115 12t135.5 4.5q277 0 409.5 -100.5t132.5 -316.5q0 -141 -65.5 -235.5t-197.5 -142.5t-333 -48q-71 0 -124 3t-109 7v-661h-68zM1110 0l-549 703h85l551 -703h-87zM489 716q283 0 406.5 89.5t123.5 269.5q0 126 -49 204t-154 113.5
t-275 35.5q-89 0 -153 -6t-130 -18v-678q44 -3 78.5 -5.5t70 -3.5t82.5 -1zM390 -278v59h540v-59h-540z" />
    <glyph glyph-name="uni1E5F" unicode="&#x1e5f;" horiz-adv-x="673" 
d="M170 0v1080h60l6 -147h8q61 75 151 115t181 40q25 0 44.5 -1.5t39.5 -5.5v-68q-21 4 -40.5 4.5t-44.5 0.5q-57 0 -119.5 -19.5t-119.5 -60t-98 -102.5v-836h-68zM-46 -278v59h500v-59h-500z" />
    <glyph glyph-name="uni1E60" unicode="&#x1e60;" horiz-adv-x="1010" 
d="M438 -18q-77 0 -165 14t-172 43v68q62 -21 121 -34t114 -19t106 -6q204 0 307.5 83.5t103.5 245.5q0 138 -79 210t-260 119l-62 16q-185 48 -276 142t-91 248q0 179 120.5 282.5t355.5 103.5q77 0 157.5 -11t148.5 -34v-68q-78 25 -155 36t-155 11q-133 0 -222 -36.5
t-133.5 -107t-44.5 -172.5q0 -134 73 -207t247 -119l62 -16q133 -34 218.5 -86.5t126.5 -128t41 -179.5q0 -128 -56.5 -217t-165.5 -135t-265 -46zM512 1690q-27 0 -44.5 17t-17.5 45q0 29 17.5 46.5t44.5 17.5t44.5 -17.5t17.5 -46.5q0 -28 -17.5 -45t-44.5 -17z" />
    <glyph glyph-name="uni1E61" unicode="&#x1e61;" horiz-adv-x="856" 
d="M392 -18q-74 0 -140.5 10t-131.5 31v68q80 -24 144.5 -33.5t130.5 -9.5q160 0 235 59.5t75 166.5q0 94 -47.5 144t-159.5 74l-129 28q-145 34 -205 105t-60 178q0 126 93.5 209.5t287.5 83.5q64 0 121 -7t114 -23v-68q-66 19 -120 25.5t-115 6.5q-111 0 -179 -29.5
t-99.5 -80t-31.5 -114.5q0 -81 44 -135t155 -79l129 -28q153 -34 213 -104t60 -180q0 -137 -96 -217.5t-288 -80.5zM434 1360q-27 0 -44.5 17t-17.5 45q0 29 17.5 46.5t44.5 17.5t44.5 -17.5t17.5 -46.5q0 -28 -17.5 -45t-44.5 -17z" />
    <glyph glyph-name="uni1E62" unicode="&#x1e62;" horiz-adv-x="1010" 
d="M438 -18q-77 0 -165 14t-172 43v68q62 -21 121 -34t114 -19t106 -6q204 0 307.5 83.5t103.5 245.5q0 138 -79 210t-260 119l-62 16q-185 48 -276 142t-91 248q0 179 120.5 282.5t355.5 103.5q77 0 157.5 -11t148.5 -34v-68q-78 25 -155 36t-155 11q-133 0 -222 -36.5
t-133.5 -107t-44.5 -172.5q0 -134 73 -207t247 -119l62 -16q133 -34 218.5 -86.5t126.5 -128t41 -179.5q0 -128 -56.5 -217t-165.5 -135t-265 -46zM512 -310q-27 0 -44.5 17t-17.5 45q0 29 17.5 46.5t44.5 17.5t44.5 -17.5t17.5 -46.5q0 -28 -17.5 -45t-44.5 -17z" />
    <glyph glyph-name="uni1E63" unicode="&#x1e63;" horiz-adv-x="856" 
d="M392 -18q-74 0 -140.5 10t-131.5 31v68q80 -24 144.5 -33.5t130.5 -9.5q160 0 235 59.5t75 166.5q0 94 -47.5 144t-159.5 74l-129 28q-145 34 -205 105t-60 178q0 126 93.5 209.5t287.5 83.5q64 0 121 -7t114 -23v-68q-66 19 -120 25.5t-115 6.5q-111 0 -179 -29.5
t-99.5 -80t-31.5 -114.5q0 -81 44 -135t155 -79l129 -28q153 -34 213 -104t60 -180q0 -137 -96 -217.5t-288 -80.5zM434 -310q-27 0 -44.5 17t-17.5 45q0 29 17.5 46.5t44.5 17.5t44.5 -17.5t17.5 -46.5q0 -28 -17.5 -45t-44.5 -17z" />
    <glyph glyph-name="uni1E64" unicode="&#x1e64;" horiz-adv-x="1010" 
d="M438 -18q-77 0 -165 14t-172 43v68q62 -21 121 -34t114 -19t106 -6q204 0 307.5 83.5t103.5 245.5q0 138 -79 210t-260 119l-62 16q-185 48 -276 142t-91 248q0 179 120.5 282.5t355.5 103.5q77 0 157.5 -11t148.5 -34v-68q-78 25 -155 36t-155 11q-133 0 -222 -36.5
t-133.5 -107t-44.5 -172.5q0 -134 73 -207t247 -119l62 -16q133 -34 218.5 -86.5t126.5 -128t41 -179.5q0 -128 -56.5 -217t-165.5 -135t-265 -46zM439 1848q-27 0 -44.5 17t-17.5 45q0 29 17.5 46.5t44.5 17.5t44.5 -17.5t17.5 -46.5q0 -28 -17.5 -45t-44.5 -17zM480 1616
l175 272h79l-190 -272h-64z" />
    <glyph glyph-name="uni1E65" unicode="&#x1e65;" horiz-adv-x="856" 
d="M392 -18q-74 0 -140.5 10t-131.5 31v68q80 -24 144.5 -33.5t130.5 -9.5q160 0 235 59.5t75 166.5q0 94 -47.5 144t-159.5 74l-129 28q-145 34 -205 105t-60 178q0 126 93.5 209.5t287.5 83.5q64 0 121 -7t114 -23v-68q-66 19 -120 25.5t-115 6.5q-111 0 -179 -29.5
t-99.5 -80t-31.5 -114.5q0 -81 44 -135t155 -79l129 -28q153 -34 213 -104t60 -180q0 -137 -96 -217.5t-288 -80.5zM373 1576q-27 0 -44.5 17t-17.5 45q0 29 17.5 46.5t44.5 17.5t44.5 -17.5t17.5 -46.5q0 -28 -17.5 -45t-44.5 -17zM402 1264l208 352h78l-222 -352h-64z" />
    <glyph glyph-name="uni1E66" unicode="&#x1e66;" horiz-adv-x="1010" 
d="M438 -18q-77 0 -165 14t-172 43v68q62 -21 121 -34t114 -19t106 -6q204 0 307.5 83.5t103.5 245.5q0 138 -79 210t-260 119l-62 16q-185 48 -276 142t-91 248q0 179 120.5 282.5t355.5 103.5q77 0 157.5 -11t148.5 -34v-68q-78 25 -155 36t-155 11q-133 0 -222 -36.5
t-133.5 -107t-44.5 -172.5q0 -134 73 -207t247 -119l62 -16q133 -34 218.5 -86.5t126.5 -128t41 -179.5q0 -128 -56.5 -217t-165.5 -135t-265 -46zM512 1888q-27 0 -44.5 17t-17.5 45q0 29 17.5 46.5t44.5 17.5t44.5 -17.5t17.5 -46.5q0 -28 -17.5 -45t-44.5 -17zM474 1616
l-240 272h81l210 -243h-26l210 243h81l-240 -272h-76z" />
    <glyph glyph-name="uni1E67" unicode="&#x1e67;" horiz-adv-x="856" 
d="M392 -18q-74 0 -140.5 10t-131.5 31v68q80 -24 144.5 -33.5t130.5 -9.5q160 0 235 59.5t75 166.5q0 94 -47.5 144t-159.5 74l-129 28q-145 34 -205 105t-60 178q0 126 93.5 209.5t287.5 83.5q64 0 121 -7t114 -23v-68q-66 19 -120 25.5t-115 6.5q-111 0 -179 -29.5
t-99.5 -80t-31.5 -114.5q0 -81 44 -135t155 -79l129 -28q153 -34 213 -104t60 -180q0 -137 -96 -217.5t-288 -80.5zM434 1614q-27 0 -44.5 17t-17.5 45q0 29 17.5 46.5t44.5 17.5t44.5 -17.5t17.5 -46.5q0 -28 -17.5 -45t-44.5 -17zM396 1264l-222 352h71l202 -328h-26
l202 328h71l-222 -352h-76z" />
    <glyph glyph-name="uni1E68" unicode="&#x1e68;" horiz-adv-x="1010" 
d="M438 -18q-77 0 -165 14t-172 43v68q62 -21 121 -34t114 -19t106 -6q204 0 307.5 83.5t103.5 245.5q0 138 -79 210t-260 119l-62 16q-185 48 -276 142t-91 248q0 179 120.5 282.5t355.5 103.5q77 0 157.5 -11t148.5 -34v-68q-78 25 -155 36t-155 11q-133 0 -222 -36.5
t-133.5 -107t-44.5 -172.5q0 -134 73 -207t247 -119l62 -16q133 -34 218.5 -86.5t126.5 -128t41 -179.5q0 -128 -56.5 -217t-165.5 -135t-265 -46zM512 -310q-27 0 -44.5 17t-17.5 45q0 29 17.5 46.5t44.5 17.5t44.5 -17.5t17.5 -46.5q0 -28 -17.5 -45t-44.5 -17zM512 1690
q-27 0 -44.5 17t-17.5 45q0 29 17.5 46.5t44.5 17.5t44.5 -17.5t17.5 -46.5q0 -28 -17.5 -45t-44.5 -17z" />
    <glyph glyph-name="uni1E69" unicode="&#x1e69;" horiz-adv-x="856" 
d="M392 -18q-74 0 -140.5 10t-131.5 31v68q80 -24 144.5 -33.5t130.5 -9.5q160 0 235 59.5t75 166.5q0 94 -47.5 144t-159.5 74l-129 28q-145 34 -205 105t-60 178q0 126 93.5 209.5t287.5 83.5q64 0 121 -7t114 -23v-68q-66 19 -120 25.5t-115 6.5q-111 0 -179 -29.5
t-99.5 -80t-31.5 -114.5q0 -81 44 -135t155 -79l129 -28q153 -34 213 -104t60 -180q0 -137 -96 -217.5t-288 -80.5zM434 -310q-27 0 -44.5 17t-17.5 45q0 29 17.5 46.5t44.5 17.5t44.5 -17.5t17.5 -46.5q0 -28 -17.5 -45t-44.5 -17zM434 1360q-27 0 -44.5 17t-17.5 45
q0 29 17.5 46.5t44.5 17.5t44.5 -17.5t17.5 -46.5q0 -28 -17.5 -45t-44.5 -17z" />
    <glyph glyph-name="uni1E6C" unicode="&#x1e6c;" horiz-adv-x="1112" 
d="M522 0v1414h-508v66h1084v-66h-508v-1414h-68zM556 -310q-27 0 -44.5 17t-17.5 45q0 29 17.5 46.5t44.5 17.5t44.5 -17.5t17.5 -46.5q0 -28 -17.5 -45t-44.5 -17z" />
    <glyph glyph-name="uni1E6D" unicode="&#x1e6d;" horiz-adv-x="694" 
d="M542 -18q-147 0 -231 77.5t-84 250.5v770l8 400h60v-1158q0 -150 64.5 -212t186.5 -62q33 0 67 5t75 14v-68q-39 -9 -74 -13t-72 -4zM7 1016v64h659v-64h-659zM458 -310q-27 0 -44.5 17t-17.5 45q0 29 17.5 46.5t44.5 17.5t44.5 -17.5t17.5 -46.5q0 -28 -17.5 -45
t-44.5 -17z" />
    <glyph glyph-name="uni1E6E" unicode="&#x1e6e;" horiz-adv-x="1112" 
d="M522 0v1414h-508v66h1084v-66h-508v-1414h-68zM286 -278v59h540v-59h-540z" />
    <glyph glyph-name="uni1E6F" unicode="&#x1e6f;" horiz-adv-x="694" 
d="M542 -18q-147 0 -231 77.5t-84 250.5v770l8 400h60v-1158q0 -150 64.5 -212t186.5 -62q33 0 67 5t75 14v-68q-39 -9 -74 -13t-72 -4zM7 1016v64h659v-64h-659zM208 -278v59h500v-59h-500z" />
    <glyph glyph-name="uni1E78" unicode="&#x1e78;" horiz-adv-x="1372" 
d="M687 -18q-173 0 -285 58t-166 179t-54 310v951h68v-961q0 -243 104.5 -357t332.5 -114q229 0 333 114t104 357v961h66v-951q0 -189 -53.5 -310t-164.5 -179t-285 -58zM653 1884l174 232h80l-189 -232h-65zM831 1697q-44 0 -83 13t-75 28q-33 14 -65 24.5t-65 10.5
q-49 0 -85.5 -17.5t-69.5 -53.5v67q27 30 65.5 45.5t89.5 15.5q44 0 83.5 -12.5t75.5 -28.5q33 -13 64.5 -24t64.5 -11q50 0 86.5 17.5t68.5 53.5v-67q-26 -29 -64.5 -45t-90.5 -16z" />
    <glyph glyph-name="uni1E79" unicode="&#x1e79;" horiz-adv-x="1077" 
d="M486 -18q-96 0 -170.5 34t-117 112.5t-42.5 210.5v741h68v-742q0 -162 74 -226t190 -64q57 0 121 17.5t124 56.5t106 103v855h68v-1080h-60l-6 124h-8q-70 -71 -160.5 -106.5t-186.5 -35.5zM666 1380q-40 0 -77 13.5t-71 27.5q-31 14 -60.5 24.5t-59.5 10.5
q-44 0 -80 -17.5t-69 -53.5v67q55 61 149 61q41 0 78 -13t71 -28q31 -13 60.5 -24t58.5 -11q46 0 81.5 17.5t67.5 53.5v-67q-54 -61 -149 -61zM500 1596l175 272h79l-190 -272h-64z" />
    <glyph glyph-name="uni1E7A" unicode="&#x1e7a;" horiz-adv-x="1372" 
d="M687 -18q-173 0 -285 58t-166 179t-54 310v951h68v-961q0 -243 104.5 -357t332.5 -114q229 0 333 114t104 357v961h66v-951q0 -189 -53.5 -310t-164.5 -179t-285 -58zM417 1723v59h540v-59h-540zM907 1918q-27 0 -44.5 17t-17.5 45q0 29 17.5 46.5t44.5 17.5t44.5 -17.5
t17.5 -46.5q0 -28 -17.5 -45t-44.5 -17zM467 1918q-27 0 -44.5 17t-17.5 45q0 29 17.5 46.5t44.5 17.5t44.5 -17.5t17.5 -46.5q0 -28 -17.5 -45t-44.5 -17z" />
    <glyph glyph-name="uni1E7B" unicode="&#x1e7b;" horiz-adv-x="1077" 
d="M486 -18q-96 0 -170.5 34t-117 112.5t-42.5 210.5v741h68v-742q0 -162 74 -226t190 -64q57 0 121 17.5t124 56.5t106 103v855h68v-1080h-60l-6 124h-8q-70 -71 -160.5 -106.5t-186.5 -35.5zM249 1394v59h566v-59h-566zM732 1624q-27 0 -44.5 17t-17.5 45q0 29 17.5 46.5
t44.5 17.5t44.5 -17.5t17.5 -46.5q0 -28 -17.5 -45t-44.5 -17zM332 1624q-27 0 -44.5 17t-17.5 45q0 29 17.5 46.5t44.5 17.5t44.5 -17.5t17.5 -46.5q0 -28 -17.5 -45t-44.5 -17z" />
    <glyph glyph-name="Wgrave" unicode="&#x1e80;" horiz-adv-x="2021" 
d="M502 0l-433 1480h73l416 -1440h-16l422 1440h94l423 -1440h-16l417 1440h69l-432 -1480h-94l-423 1432h17l-423 -1432h-94zM980 1616l-190 272h79l175 -272h-64z" />
    <glyph glyph-name="wgrave" unicode="&#x1e81;" horiz-adv-x="1624" 
d="M401 0l-331 1080h73l314 -1040h-16l325 1040h94l326 -1040h-16l313 1040h71l-330 -1080h-94l-326 1034h17l-326 -1034h-94zM782 1264l-222 352h78l208 -352h-64z" />
    <glyph glyph-name="Wacute" unicode="&#x1e82;" horiz-adv-x="2021" 
d="M502 0l-433 1480h73l416 -1440h-16l422 1440h94l423 -1440h-16l417 1440h69l-432 -1480h-94l-423 1432h17l-423 -1432h-94zM980 1616l175 272h79l-190 -272h-64z" />
    <glyph glyph-name="wacute" unicode="&#x1e83;" horiz-adv-x="1624" 
d="M401 0l-331 1080h73l314 -1040h-16l325 1040h94l326 -1040h-16l313 1040h71l-330 -1080h-94l-326 1034h17l-326 -1034h-94zM782 1264l208 352h78l-222 -352h-64z" />
    <glyph glyph-name="Wdieresis" unicode="&#x1e84;" horiz-adv-x="2021" 
d="M502 0l-433 1480h73l416 -1440h-16l422 1440h94l423 -1440h-16l417 1440h69l-432 -1480h-94l-423 1432h17l-423 -1432h-94zM1232 1690q-27 0 -44.5 17t-17.5 45q0 29 17.5 46.5t44.5 17.5t44.5 -17.5t17.5 -46.5q0 -28 -17.5 -45t-44.5 -17zM792 1690q-27 0 -44.5 17
t-17.5 45q0 29 17.5 46.5t44.5 17.5t44.5 -17.5t17.5 -46.5q0 -28 -17.5 -45t-44.5 -17z" />
    <glyph glyph-name="wdieresis" unicode="&#x1e85;" horiz-adv-x="1624" 
d="M401 0l-331 1080h73l314 -1040h-16l325 1040h94l326 -1040h-16l313 1040h71l-330 -1080h-94l-326 1034h17l-326 -1034h-94zM1014 1360q-27 0 -44.5 17t-17.5 45q0 29 17.5 46.5t44.5 17.5t44.5 -17.5t17.5 -46.5q0 -28 -17.5 -45t-44.5 -17zM614 1360q-27 0 -44.5 17
t-17.5 45q0 29 17.5 46.5t44.5 17.5t44.5 -17.5t17.5 -46.5q0 -28 -17.5 -45t-44.5 -17z" />
    <glyph glyph-name="uni1E8E" unicode="&#x1e8e;" horiz-adv-x="1112" 
d="M522 0v707l18 -55l-559 828h83l510 -760h-34l503 760h80l-551 -828l18 55v-707h-68zM556 1690q-27 0 -44.5 17t-17.5 45q0 29 17.5 46.5t44.5 17.5t44.5 -17.5t17.5 -46.5q0 -28 -17.5 -45t-44.5 -17z" />
    <glyph glyph-name="uni1E8F" unicode="&#x1e8f;" horiz-adv-x="995" 
d="M299 -440l174 440l17 36l407 1044h73l-599 -1520h-72zM451 0l-426 1080h76l420 -1080h-70zM499 1360q-27 0 -44.5 17t-17.5 45q0 29 17.5 46.5t44.5 17.5t44.5 -17.5t17.5 -46.5q0 -28 -17.5 -45t-44.5 -17z" />
    <glyph glyph-name="uni1E92" unicode="&#x1e92;" horiz-adv-x="1103" 
d="M63 0v40l887 1401l14 -25h-889v64h953v-40l-887 -1401l-14 25h913v-64h-977zM552 -310q-27 0 -44.5 17t-17.5 45q0 29 17.5 46.5t44.5 17.5t44.5 -17.5t17.5 -46.5q0 -28 -17.5 -45t-44.5 -17z" />
    <glyph glyph-name="uni1E93" unicode="&#x1e93;" horiz-adv-x="865" 
d="M61 0v40l658 1001v-25h-646v64h723v-40l-658 -1001v25h670v-64h-747zM435 -310q-27 0 -44.5 17t-17.5 45q0 29 17.5 46.5t44.5 17.5t44.5 -17.5t17.5 -46.5q0 -28 -17.5 -45t-44.5 -17z" />
    <glyph glyph-name="uni1E97" unicode="&#x1e97;" horiz-adv-x="694" 
d="M542 -18q-147 0 -231 77.5t-84 250.5v770l8 400h60v-1158q0 -150 64.5 -212t186.5 -62q33 0 67 5t75 14v-68q-39 -9 -74 -13t-72 -4zM7 1016v64h659v-64h-659zM461 1640q-27 0 -44.5 17t-17.5 45q0 29 17.5 46.5t44.5 17.5t44.5 -17.5t17.5 -46.5q0 -28 -17.5 -45
t-44.5 -17zM61 1640q-27 0 -44.5 17t-17.5 45q0 29 17.5 46.5t44.5 17.5t44.5 -17.5t17.5 -46.5q0 -28 -17.5 -45t-44.5 -17z" />
    <glyph glyph-name="uni1E9E" unicode="&#x1e9e;" horiz-adv-x="1305" 
d="M1098 1369v-37l-441 -564l-3 13q34 6 64.5 7t73.5 1q122 0 218.5 -40.5t153 -126.5t56.5 -220q0 -131 -57 -225t-164 -144.5t-260 -50.5q-74 0 -154 14t-162 43v68q62 -21 116 -34t103.5 -19t96.5 -6q200 0 304.5 92t104.5 260q0 159 -96 241t-274 82q-57 0 -107 -2.5
t-108 -11.5v40l479 614l-2 -35q-72 58 -166 82t-200 24q-235 0 -343 -117t-108 -322v-995h-68v990q0 162 57.5 275.5t173 173t291.5 59.5q127 0 232.5 -32.5t188.5 -96.5z" />
    <glyph glyph-name="uni1EA0" unicode="&#x1ea0;" horiz-adv-x="1286" 
d="M37 0l563 1480h86l563 -1480h-75l-544 1440h24l-544 -1440h-73zM284 528l20 66h678l20 -66h-718zM644 -310q-27 0 -44.5 17t-17.5 45q0 29 17.5 46.5t44.5 17.5t44.5 -17.5t17.5 -46.5q0 -28 -17.5 -45t-44.5 -17z" />
    <glyph glyph-name="uni1EA1" unicode="&#x1ea1;" horiz-adv-x="979" 
d="M422 -16q-144 0 -229 74t-85 209t86 210.5t273 96.5l327 39l3 -66l-332 -39q-150 -17 -216.5 -74.5t-66.5 -160.5q0 -109 61 -166t182 -57q88 0 175 39.5t155 130.5v526q0 113 -35 174.5t-101.5 85.5t-161.5 24q-61 0 -136.5 -11.5t-154.5 -39.5v68q63 24 141.5 36.5
t149.5 12.5q116 0 198 -32t125 -108.5t43 -209.5v-746h-60l-6 128h-8q-55 -67 -141 -105.5t-186 -38.5zM499 -310q-27 0 -44.5 17t-17.5 45q0 29 17.5 46.5t44.5 17.5t44.5 -17.5t17.5 -46.5q0 -28 -17.5 -45t-44.5 -17z" />
    <glyph glyph-name="uni1EA2" unicode="&#x1ea2;" horiz-adv-x="1286" 
d="M37 0l563 1480h86l563 -1480h-75l-544 1440h24l-544 -1440h-73zM284 528l20 66h678l20 -66h-718zM612 1616q2 47 33.5 67.5t65.5 35.5q27 11 48 24.5t21 37.5t-24 38.5t-97 14.5q-52 0 -98.5 -8.5t-98.5 -28.5v55q39 17 89 26.5t108 9.5q94 0 137 -30t43 -76
q0 -43 -28 -63t-61 -35q-27 -12 -49.5 -26t-25.5 -42h-63z" />
    <glyph glyph-name="uni1EA3" unicode="&#x1ea3;" horiz-adv-x="979" 
d="M422 -16q-144 0 -229 74t-85 209t86 210.5t273 96.5l327 39l3 -66l-332 -39q-150 -17 -216.5 -74.5t-66.5 -160.5q0 -109 61 -166t182 -57q88 0 175 39.5t155 130.5v526q0 113 -35 174.5t-101.5 85.5t-161.5 24q-61 0 -136.5 -11.5t-154.5 -39.5v68q63 24 141.5 36.5
t149.5 12.5q116 0 198 -32t125 -108.5t43 -209.5v-746h-60l-6 128h-8q-55 -67 -141 -105.5t-186 -38.5zM454 1264q1 55 26 86t56.5 51t55 41t23.5 53q0 40 -30 58.5t-98 18.5q-35 0 -77.5 -6t-75.5 -18v56q30 11 70 17.5t79 6.5q99 0 145 -35t46 -97q0 -48 -23.5 -74.5
t-54.5 -45.5t-55 -43.5t-25 -68.5h-62z" />
    <glyph glyph-name="uni1EA4" unicode="&#x1ea4;" horiz-adv-x="1286" 
d="M37 0l563 1480h86l563 -1480h-75l-544 1440h24l-544 -1440h-73zM284 528l20 66h678l20 -66h-718zM366 1616l240 272h76l240 -272h-81l-210 243h26l-210 -243h-81zM858 1792l175 272h79l-190 -272h-64z" />
    <glyph glyph-name="uni1EA5" unicode="&#x1ea5;" horiz-adv-x="979" 
d="M422 -16q-144 0 -229 74t-85 209t86 210.5t273 96.5l327 39l3 -66l-332 -39q-150 -17 -216.5 -74.5t-66.5 -160.5q0 -109 61 -166t182 -57q88 0 175 39.5t155 130.5v526q0 113 -35 174.5t-101.5 85.5t-161.5 24q-61 0 -136.5 -11.5t-154.5 -39.5v68q63 24 141.5 36.5
t149.5 12.5q116 0 198 -32t125 -108.5t43 -209.5v-746h-60l-6 128h-8q-55 -67 -141 -105.5t-186 -38.5zM229 1264l218 352h76l218 -352h-71l-198 327h26l-198 -327h-71zM686 1596l175 272h79l-190 -272h-64z" />
    <glyph glyph-name="uni1EA6" unicode="&#x1ea6;" horiz-adv-x="1286" 
d="M37 0l563 1480h86l563 -1480h-75l-544 1440h24l-544 -1440h-73zM284 528l20 66h678l20 -66h-718zM373 1616l240 272h76l240 -272h-81l-210 243h26l-210 -243h-81zM885 1792l-190 272h79l175 -272h-64z" />
    <glyph glyph-name="uni1EA7" unicode="&#x1ea7;" horiz-adv-x="979" 
d="M422 -16q-144 0 -229 74t-85 209t86 210.5t273 96.5l327 39l3 -66l-332 -39q-150 -17 -216.5 -74.5t-66.5 -160.5q0 -109 61 -166t182 -57q88 0 175 39.5t155 130.5v526q0 113 -35 174.5t-101.5 85.5t-161.5 24q-61 0 -136.5 -11.5t-154.5 -39.5v68q63 24 141.5 36.5
t149.5 12.5q116 0 198 -32t125 -108.5t43 -209.5v-746h-60l-6 128h-8q-55 -67 -141 -105.5t-186 -38.5zM230 1264l218 352h76l218 -352h-71l-198 327h26l-198 -327h-71zM705 1596l-190 272h79l175 -272h-64z" />
    <glyph glyph-name="uni1EA8" unicode="&#x1ea8;" horiz-adv-x="1286" 
d="M37 0l563 1480h86l563 -1480h-75l-544 1440h24l-544 -1440h-73zM284 528l20 66h678l20 -66h-718zM366 1616l240 272h76l240 -272h-81l-210 243h26l-210 -243h-81zM858 1792q2 42 28 63.5t58.5 34t57 26.5t24.5 41q0 24 -24 38.5t-97 14.5q-52 0 -98.5 -8.5t-98.5 -28.5
v55q39 17 89 26.5t108 9.5q94 0 137 -30t43 -76q0 -40 -23.5 -60.5t-55 -32.5t-57 -27.5t-28.5 -45.5h-63z" />
    <glyph glyph-name="uni1EA9" unicode="&#x1ea9;" horiz-adv-x="979" 
d="M422 -16q-144 0 -229 74t-85 209t86 210.5t273 96.5l327 39l3 -66l-332 -39q-150 -17 -216.5 -74.5t-66.5 -160.5q0 -109 61 -166t182 -57q88 0 175 39.5t155 130.5v526q0 113 -35 174.5t-101.5 85.5t-161.5 24q-61 0 -136.5 -11.5t-154.5 -39.5v68q63 24 141.5 36.5
t149.5 12.5q116 0 198 -32t125 -108.5t43 -209.5v-746h-60l-6 128h-8q-55 -67 -141 -105.5t-186 -38.5zM229 1264l218 352h76l218 -352h-71l-198 327h26l-198 -327h-71zM692 1596q2 42 28 63.5t58.5 34t57 26.5t24.5 41q0 24 -24 38.5t-97 14.5q-52 0 -98.5 -8.5
t-98.5 -28.5v55q39 17 89 26.5t108 9.5q94 0 137 -30t43 -76q0 -40 -23.5 -60.5t-55 -32.5t-57 -27.5t-28.5 -45.5h-63z" />
    <glyph glyph-name="uni1EAA" unicode="&#x1eaa;" horiz-adv-x="1286" 
d="M37 0l563 1480h86l563 -1480h-75l-544 1440h24l-544 -1440h-73zM284 528l20 66h678l20 -66h-718zM366 1616l240 272h76l240 -272h-81l-210 243h26l-210 -243h-81zM775 1934q-50 0 -94.5 19t-86 38t-81.5 19q-44 0 -79.5 -17.5t-67.5 -53.5v67q26 30 63.5 45.5t83.5 15.5
q50 0 95 -19t86.5 -38t80.5 -19q45 0 80.5 17.5t66.5 53.5v-67q-25 -29 -62.5 -45t-84.5 -16z" />
    <glyph glyph-name="uni1EAB" unicode="&#x1eab;" horiz-adv-x="979" 
d="M422 -16q-144 0 -229 74t-85 209t86 210.5t273 96.5l327 39l3 -66l-332 -39q-150 -17 -216.5 -74.5t-66.5 -160.5q0 -109 61 -166t182 -57q88 0 175 39.5t155 130.5v526q0 113 -35 174.5t-101.5 85.5t-161.5 24q-61 0 -136.5 -11.5t-154.5 -39.5v68q63 24 141.5 36.5
t149.5 12.5q116 0 198 -32t125 -108.5t43 -209.5v-746h-60l-6 128h-8q-55 -67 -141 -105.5t-186 -38.5zM229 1264l218 352h76l218 -352h-71l-198 327h26l-198 -327h-71zM619 1676q-51 0 -96.5 19t-88 38t-83.5 19q-44 0 -80 -17.5t-69 -53.5v67q27 30 64.5 45.5t84.5 15.5
q51 0 97 -19t88 -38t83 -19q46 0 81.5 17.5t67.5 53.5v-67q-26 -29 -63.5 -45t-85.5 -16z" />
    <glyph glyph-name="uni1EAC" unicode="&#x1eac;" horiz-adv-x="1286" 
d="M37 0l563 1480h86l563 -1480h-75l-544 1440h24l-544 -1440h-73zM284 528l20 66h678l20 -66h-718zM644 -310q-27 0 -44.5 17t-17.5 45q0 29 17.5 46.5t44.5 17.5t44.5 -17.5t17.5 -46.5q0 -28 -17.5 -45t-44.5 -17zM366 1616l240 272h76l240 -272h-81l-210 243h26
l-210 -243h-81z" />
    <glyph glyph-name="uni1EAD" unicode="&#x1ead;" horiz-adv-x="979" 
d="M422 -16q-144 0 -229 74t-85 209t86 210.5t273 96.5l327 39l3 -66l-332 -39q-150 -17 -216.5 -74.5t-66.5 -160.5q0 -109 61 -166t182 -57q88 0 175 39.5t155 130.5v526q0 113 -35 174.5t-101.5 85.5t-161.5 24q-61 0 -136.5 -11.5t-154.5 -39.5v68q63 24 141.5 36.5
t149.5 12.5q116 0 198 -32t125 -108.5t43 -209.5v-746h-60l-6 128h-8q-55 -67 -141 -105.5t-186 -38.5zM499 -310q-27 0 -44.5 17t-17.5 45q0 29 17.5 46.5t44.5 17.5t44.5 -17.5t17.5 -46.5q0 -28 -17.5 -45t-44.5 -17zM229 1264l218 352h76l218 -352h-71l-198 327h26
l-198 -327h-71z" />
    <glyph glyph-name="uni1EAE" unicode="&#x1eae;" horiz-adv-x="1286" 
d="M37 0l563 1480h86l563 -1480h-75l-544 1440h24l-544 -1440h-73zM284 528l20 66h678l20 -66h-718zM645 1628q-135 0 -204 63t-79 169h58q10 -84 61 -128.5t164 -44.5q115 0 163.5 44.5t59.5 128.5h58q-8 -106 -77.5 -169t-203.5 -63zM612 1846l175 252h79l-190 -252h-64z
" />
    <glyph glyph-name="uni1EAF" unicode="&#x1eaf;" horiz-adv-x="979" 
d="M422 -16q-144 0 -229 74t-85 209t86 210.5t273 96.5l327 39l3 -66l-332 -39q-150 -17 -216.5 -74.5t-66.5 -160.5q0 -109 61 -166t182 -57q88 0 175 39.5t155 130.5v526q0 113 -35 174.5t-101.5 85.5t-161.5 24q-61 0 -136.5 -11.5t-154.5 -39.5v68q63 24 141.5 36.5
t149.5 12.5q116 0 198 -32t125 -108.5t43 -209.5v-746h-60l-6 128h-8q-55 -67 -141 -105.5t-186 -38.5zM487 1276q-81 0 -139 37.5t-89.5 107t-35.5 167.5h58q8 -124 57.5 -189.5t148.5 -65.5q100 0 148.5 65.5t53.5 189.5h58q-3 -99 -34 -168.5t-88 -106.5t-138 -37z
M453 1596l175 272h79l-190 -272h-64z" />
    <glyph glyph-name="uni1EB0" unicode="&#x1eb0;" horiz-adv-x="1286" 
d="M37 0l563 1480h86l563 -1480h-75l-544 1440h24l-544 -1440h-73zM284 528l20 66h678l20 -66h-718zM643 1628q-135 0 -203 62.5t-78 169.5h58q10 -84 60 -128.5t163 -44.5q115 0 164.5 44.5t60.5 128.5h58q-8 -105 -78.5 -168.5t-204.5 -63.5zM612 1846l-190 252h79
l175 -252h-64z" />
    <glyph glyph-name="uni1EB1" unicode="&#x1eb1;" horiz-adv-x="979" 
d="M422 -16q-144 0 -229 74t-85 209t86 210.5t273 96.5l327 39l3 -66l-332 -39q-150 -17 -216.5 -74.5t-66.5 -160.5q0 -109 61 -166t182 -57q88 0 175 39.5t155 130.5v526q0 113 -35 174.5t-101.5 85.5t-161.5 24q-61 0 -136.5 -11.5t-154.5 -39.5v68q63 24 141.5 36.5
t149.5 12.5q116 0 198 -32t125 -108.5t43 -209.5v-746h-60l-6 128h-8q-55 -67 -141 -105.5t-186 -38.5zM487 1276q-81 0 -139 37.5t-89.5 107t-35.5 167.5h58q8 -124 57.5 -189.5t148.5 -65.5q100 0 148.5 65.5t53.5 189.5h58q-3 -99 -34 -168.5t-88 -106.5t-138 -37z
M453 1596l-190 272h79l175 -272h-64z" />
    <glyph glyph-name="uni1EB2" unicode="&#x1eb2;" horiz-adv-x="1286" 
d="M37 0l563 1480h86l563 -1480h-75l-544 1440h24l-544 -1440h-73zM284 528l20 66h678l20 -66h-718zM642 1628q-134 0 -202 62.5t-78 169.5h58q10 -84 59.5 -128.5t162.5 -44.5q114 0 164.5 44.5t61.5 128.5h58q-8 -105 -78.5 -168.5t-205.5 -63.5zM612 1846q2 42 28 63.5
t58.5 34t57 26.5t24.5 41q0 24 -24 38.5t-97 14.5q-52 0 -98.5 -8.5t-98.5 -28.5v55q39 17 89 26.5t108 9.5q94 0 137 -30t43 -76q0 -40 -23.5 -60.5t-55 -32.5t-57 -27.5t-28.5 -45.5h-63z" />
    <glyph glyph-name="uni1EB3" unicode="&#x1eb3;" horiz-adv-x="979" 
d="M422 -16q-144 0 -229 74t-85 209t86 210.5t273 96.5l327 39l3 -66l-332 -39q-150 -17 -216.5 -74.5t-66.5 -160.5q0 -109 61 -166t182 -57q88 0 175 39.5t155 130.5v526q0 113 -35 174.5t-101.5 85.5t-161.5 24q-61 0 -136.5 -11.5t-154.5 -39.5v68q63 24 141.5 36.5
t149.5 12.5q116 0 198 -32t125 -108.5t43 -209.5v-746h-60l-6 128h-8q-55 -67 -141 -105.5t-186 -38.5zM487 1276q-81 0 -139 37.5t-89.5 107t-35.5 167.5h58q8 -124 57.5 -189.5t148.5 -65.5q100 0 148.5 65.5t53.5 189.5h58q-3 -99 -34 -168.5t-88 -106.5t-138 -37z
M453 1596q2 42 28 63.5t58.5 34t57 26.5t24.5 41q0 24 -24 38.5t-97 14.5q-52 0 -98.5 -8.5t-98.5 -28.5v55q39 17 89 26.5t108 9.5q94 0 137 -30t43 -76q0 -40 -23.5 -60.5t-55 -32.5t-57 -27.5t-28.5 -45.5h-63z" />
    <glyph glyph-name="uni1EB4" unicode="&#x1eb4;" horiz-adv-x="1286" 
d="M37 0l563 1480h86l563 -1480h-75l-544 1440h24l-544 -1440h-73zM284 528l20 66h678l20 -66h-718zM642 1628q-134 0 -202 62.5t-78 169.5h58q10 -84 59.5 -128.5t162.5 -44.5q114 0 164.5 44.5t61.5 128.5h58q-8 -105 -78.5 -168.5t-205.5 -63.5zM777 1934q-50 0 -95.5 19
t-87.5 38t-83 19q-45 0 -81 -17.5t-68 -53.5v67q27 30 64.5 45.5t84.5 15.5q51 0 96.5 -19t87.5 -38t82 -19q45 0 81.5 17.5t67.5 53.5v-67q-26 -29 -63.5 -45t-85.5 -16z" />
    <glyph glyph-name="uni1EB5" unicode="&#x1eb5;" horiz-adv-x="979" 
d="M422 -16q-144 0 -229 74t-85 209t86 210.5t273 96.5l327 39l3 -66l-332 -39q-150 -17 -216.5 -74.5t-66.5 -160.5q0 -109 61 -166t182 -57q88 0 175 39.5t155 130.5v526q0 113 -35 174.5t-101.5 85.5t-161.5 24q-61 0 -136.5 -11.5t-154.5 -39.5v68q63 24 141.5 36.5
t149.5 12.5q116 0 198 -32t125 -108.5t43 -209.5v-746h-60l-6 128h-8q-55 -67 -141 -105.5t-186 -38.5zM487 1276q-81 0 -139 37.5t-89.5 107t-35.5 167.5h58q8 -124 57.5 -189.5t148.5 -65.5q100 0 148.5 65.5t53.5 189.5h58q-3 -99 -34 -168.5t-88 -106.5t-138 -37z
M619 1676q-51 0 -96.5 19t-88 38t-83.5 19q-44 0 -80 -17.5t-69 -53.5v67q27 30 64.5 45.5t84.5 15.5q51 0 97 -19t88 -38t83 -19q46 0 81.5 17.5t67.5 53.5v-67q-26 -29 -63.5 -45t-85.5 -16z" />
    <glyph glyph-name="uni1EB6" unicode="&#x1eb6;" horiz-adv-x="1286" 
d="M37 0l563 1480h86l563 -1480h-75l-544 1440h24l-544 -1440h-73zM284 528l20 66h678l20 -66h-718zM644 -310q-27 0 -44.5 17t-17.5 45q0 29 17.5 46.5t44.5 17.5t44.5 -17.5t17.5 -46.5q0 -28 -17.5 -45t-44.5 -17zM646 1628q-89 0 -150 29t-94.5 81t-39.5 122h58
q12 -84 62.5 -128.5t163.5 -44.5q114 0 163.5 44.5t58.5 128.5h58q-6 -71 -38 -123t-92 -80.5t-150 -28.5z" />
    <glyph glyph-name="uni1EB7" unicode="&#x1eb7;" horiz-adv-x="979" 
d="M422 -16q-144 0 -229 74t-85 209t86 210.5t273 96.5l327 39l3 -66l-332 -39q-150 -17 -216.5 -74.5t-66.5 -160.5q0 -109 61 -166t182 -57q88 0 175 39.5t155 130.5v526q0 113 -35 174.5t-101.5 85.5t-161.5 24q-61 0 -136.5 -11.5t-154.5 -39.5v68q63 24 141.5 36.5
t149.5 12.5q116 0 198 -32t125 -108.5t43 -209.5v-746h-60l-6 128h-8q-55 -67 -141 -105.5t-186 -38.5zM499 -310q-27 0 -44.5 17t-17.5 45q0 29 17.5 46.5t44.5 17.5t44.5 -17.5t17.5 -46.5q0 -28 -17.5 -45t-44.5 -17zM487 1276q-121 0 -189.5 82.5t-74.5 229.5h58
q8 -124 57.5 -189.5t148.5 -65.5q100 0 148.5 65.5t53.5 189.5h58q-5 -148 -72 -230t-188 -82z" />
    <glyph glyph-name="uni1EB8" unicode="&#x1eb8;" horiz-adv-x="1115" 
d="M190 0v1480h844v-66h-776v-1348h786v-66h-854zM240 728v66h699v-66h-699zM636 -310q-27 0 -44.5 17t-17.5 45q0 29 17.5 46.5t44.5 17.5t44.5 -17.5t17.5 -46.5q0 -28 -17.5 -45t-44.5 -17z" />
    <glyph glyph-name="uni1EB9" unicode="&#x1eb9;" horiz-adv-x="984" 
d="M572 -18q-147 0 -251 56.5t-158.5 179.5t-54.5 322q0 197 50.5 319.5t140 179.5t208.5 57q120 0 206.5 -57t133 -179.5t46.5 -319.5v-30h-752v66h708l-27 -26q0 177 -37.5 282.5t-108 151.5t-169.5 46t-172.5 -46t-114 -151t-40.5 -283v-15q0 -178 46.5 -285t135 -154.5
t214.5 -47.5q61 0 125.5 12.5t141.5 36.5v-68q-73 -24 -139 -35.5t-132 -11.5zM508 -310q-27 0 -44.5 17t-17.5 45q0 29 17.5 46.5t44.5 17.5t44.5 -17.5t17.5 -46.5q0 -28 -17.5 -45t-44.5 -17z" />
    <glyph glyph-name="uni1EBA" unicode="&#x1eba;" horiz-adv-x="1115" 
d="M190 0v1480h844v-66h-776v-1348h786v-66h-854zM240 728v66h699v-66h-699zM602 1616q2 47 33.5 67.5t65.5 35.5q27 11 48 24.5t21 37.5t-24 38.5t-97 14.5q-52 0 -98.5 -8.5t-98.5 -28.5v55q39 17 89 26.5t108 9.5q94 0 137 -30t43 -76q0 -43 -28 -63t-61 -35
q-27 -12 -49.5 -26t-25.5 -42h-63z" />
    <glyph glyph-name="uni1EBB" unicode="&#x1ebb;" horiz-adv-x="984" 
d="M572 -18q-147 0 -251 56.5t-158.5 179.5t-54.5 322q0 197 50.5 319.5t140 179.5t208.5 57q120 0 206.5 -57t133 -179.5t46.5 -319.5v-30h-752v66h708l-27 -26q0 177 -37.5 282.5t-108 151.5t-169.5 46t-172.5 -46t-114 -151t-40.5 -283v-15q0 -178 46.5 -285t135 -154.5
t214.5 -47.5q61 0 125.5 12.5t141.5 36.5v-68q-73 -24 -139 -35.5t-132 -11.5zM477 1264q1 55 26 86t56.5 51t55 41t23.5 53q0 40 -30 58.5t-98 18.5q-35 0 -77.5 -6t-75.5 -18v56q30 11 70 17.5t79 6.5q99 0 145 -35t46 -97q0 -48 -23.5 -74.5t-54.5 -45.5t-55 -43.5
t-25 -68.5h-62z" />
    <glyph glyph-name="uni1EBC" unicode="&#x1ebc;" horiz-adv-x="1115" 
d="M190 0v1480h844v-66h-776v-1348h786v-66h-854zM240 728v66h699v-66h-699zM778 1697q-44 0 -83 13t-75 28q-33 14 -65 24.5t-65 10.5q-49 0 -85.5 -17.5t-69.5 -53.5v67q27 30 65.5 45.5t89.5 15.5q44 0 83.5 -12.5t75.5 -28.5q33 -13 64.5 -24t64.5 -11q50 0 86.5 17.5
t68.5 53.5v-67q-26 -29 -64.5 -45t-90.5 -16z" />
    <glyph glyph-name="uni1EBD" unicode="&#x1ebd;" horiz-adv-x="984" 
d="M572 -18q-147 0 -251 56.5t-158.5 179.5t-54.5 322q0 197 50.5 319.5t140 179.5t208.5 57q120 0 206.5 -57t133 -179.5t46.5 -319.5v-30h-752v66h708l-27 -26q0 177 -37.5 282.5t-108 151.5t-169.5 46t-172.5 -46t-114 -151t-40.5 -283v-15q0 -178 46.5 -285t135 -154.5
t214.5 -47.5q61 0 125.5 12.5t141.5 36.5v-68q-73 -24 -139 -35.5t-132 -11.5zM642 1380q-40 0 -77 13.5t-71 27.5q-31 14 -60.5 24.5t-59.5 10.5q-44 0 -80 -17.5t-69 -53.5v67q55 61 149 61q41 0 78 -13t71 -28q31 -13 60.5 -24t58.5 -11q46 0 81.5 17.5t67.5 53.5v-67
q-54 -61 -149 -61z" />
    <glyph glyph-name="uni1EBE" unicode="&#x1ebe;" horiz-adv-x="1115" 
d="M190 0v1480h844v-66h-776v-1348h786v-66h-854zM240 728v66h699v-66h-699zM356 1616l240 272h76l240 -272h-81l-210 243h26l-210 -243h-81zM848 1792l175 272h79l-190 -272h-64z" />
    <glyph glyph-name="uni1EBF" unicode="&#x1ebf;" horiz-adv-x="984" 
d="M572 -18q-147 0 -251 56.5t-158.5 179.5t-54.5 322q0 197 50.5 319.5t140 179.5t208.5 57q120 0 206.5 -57t133 -179.5t46.5 -319.5v-30h-752v66h708l-27 -26q0 177 -37.5 282.5t-108 151.5t-169.5 46t-172.5 -46t-114 -151t-40.5 -283v-15q0 -178 46.5 -285t135 -154.5
t214.5 -47.5q61 0 125.5 12.5t141.5 36.5v-68q-73 -24 -139 -35.5t-132 -11.5zM252 1264l218 352h76l218 -352h-71l-198 327h26l-198 -327h-71zM709 1596l175 272h79l-190 -272h-64z" />
    <glyph glyph-name="uni1EC0" unicode="&#x1ec0;" horiz-adv-x="1115" 
d="M190 0v1480h844v-66h-776v-1348h786v-66h-854zM240 728v66h699v-66h-699zM363 1616l240 272h76l240 -272h-81l-210 243h26l-210 -243h-81zM875 1792l-190 272h79l175 -272h-64z" />
    <glyph glyph-name="uni1EC1" unicode="&#x1ec1;" horiz-adv-x="984" 
d="M572 -18q-147 0 -251 56.5t-158.5 179.5t-54.5 322q0 197 50.5 319.5t140 179.5t208.5 57q120 0 206.5 -57t133 -179.5t46.5 -319.5v-30h-752v66h708l-27 -26q0 177 -37.5 282.5t-108 151.5t-169.5 46t-172.5 -46t-114 -151t-40.5 -283v-15q0 -178 46.5 -285t135 -154.5
t214.5 -47.5q61 0 125.5 12.5t141.5 36.5v-68q-73 -24 -139 -35.5t-132 -11.5zM253 1264l218 352h76l218 -352h-71l-198 327h26l-198 -327h-71zM728 1596l-190 272h79l175 -272h-64z" />
    <glyph glyph-name="uni1EC2" unicode="&#x1ec2;" horiz-adv-x="1115" 
d="M190 0v1480h844v-66h-776v-1348h786v-66h-854zM240 728v66h699v-66h-699zM356 1616l240 272h76l240 -272h-81l-210 243h26l-210 -243h-81zM848 1792q2 42 28 63.5t58.5 34t57 26.5t24.5 41q0 24 -24 38.5t-97 14.5q-52 0 -98.5 -8.5t-98.5 -28.5v55q39 17 89 26.5
t108 9.5q94 0 137 -30t43 -76q0 -40 -23.5 -60.5t-55 -32.5t-57 -27.5t-28.5 -45.5h-63z" />
    <glyph glyph-name="uni1EC3" unicode="&#x1ec3;" horiz-adv-x="984" 
d="M572 -18q-147 0 -251 56.5t-158.5 179.5t-54.5 322q0 197 50.5 319.5t140 179.5t208.5 57q120 0 206.5 -57t133 -179.5t46.5 -319.5v-30h-752v66h708l-27 -26q0 177 -37.5 282.5t-108 151.5t-169.5 46t-172.5 -46t-114 -151t-40.5 -283v-15q0 -178 46.5 -285t135 -154.5
t214.5 -47.5q61 0 125.5 12.5t141.5 36.5v-68q-73 -24 -139 -35.5t-132 -11.5zM252 1264l218 352h76l218 -352h-71l-198 327h26l-198 -327h-71zM715 1596q2 42 28 63.5t58.5 34t57 26.5t24.5 41q0 24 -24 38.5t-97 14.5q-52 0 -98.5 -8.5t-98.5 -28.5v55q39 17 89 26.5
t108 9.5q94 0 137 -30t43 -76q0 -40 -23.5 -60.5t-55 -32.5t-57 -27.5t-28.5 -45.5h-63z" />
    <glyph glyph-name="uni1EC4" unicode="&#x1ec4;" horiz-adv-x="1115" 
d="M190 0v1480h844v-66h-776v-1348h786v-66h-854zM240 728v66h699v-66h-699zM356 1616l240 272h76l240 -272h-81l-210 243h26l-210 -243h-81zM765 1934q-50 0 -94.5 19t-86 38t-81.5 19q-44 0 -79.5 -17.5t-67.5 -53.5v67q26 30 63.5 45.5t83.5 15.5q50 0 95 -19t86.5 -38
t80.5 -19q45 0 80.5 17.5t66.5 53.5v-67q-25 -29 -62.5 -45t-84.5 -16z" />
    <glyph glyph-name="uni1EC5" unicode="&#x1ec5;" horiz-adv-x="984" 
d="M572 -18q-147 0 -251 56.5t-158.5 179.5t-54.5 322q0 197 50.5 319.5t140 179.5t208.5 57q120 0 206.5 -57t133 -179.5t46.5 -319.5v-30h-752v66h708l-27 -26q0 177 -37.5 282.5t-108 151.5t-169.5 46t-172.5 -46t-114 -151t-40.5 -283v-15q0 -178 46.5 -285t135 -154.5
t214.5 -47.5q61 0 125.5 12.5t141.5 36.5v-68q-73 -24 -139 -35.5t-132 -11.5zM252 1264l218 352h76l218 -352h-71l-198 327h26l-198 -327h-71zM642 1676q-51 0 -96.5 19t-88 38t-83.5 19q-44 0 -80 -17.5t-69 -53.5v67q27 30 64.5 45.5t84.5 15.5q51 0 97 -19t88 -38
t83 -19q46 0 81.5 17.5t67.5 53.5v-67q-26 -29 -63.5 -45t-85.5 -16z" />
    <glyph glyph-name="uni1EC6" unicode="&#x1ec6;" horiz-adv-x="1115" 
d="M190 0v1480h844v-66h-776v-1348h786v-66h-854zM240 728v66h699v-66h-699zM636 -310q-27 0 -44.5 17t-17.5 45q0 29 17.5 46.5t44.5 17.5t44.5 -17.5t17.5 -46.5q0 -28 -17.5 -45t-44.5 -17zM356 1616l240 272h76l240 -272h-81l-210 243h26l-210 -243h-81z" />
    <glyph glyph-name="uni1EC7" unicode="&#x1ec7;" horiz-adv-x="984" 
d="M572 -18q-147 0 -251 56.5t-158.5 179.5t-54.5 322q0 197 50.5 319.5t140 179.5t208.5 57q120 0 206.5 -57t133 -179.5t46.5 -319.5v-30h-752v66h708l-27 -26q0 177 -37.5 282.5t-108 151.5t-169.5 46t-172.5 -46t-114 -151t-40.5 -283v-15q0 -178 46.5 -285t135 -154.5
t214.5 -47.5q61 0 125.5 12.5t141.5 36.5v-68q-73 -24 -139 -35.5t-132 -11.5zM508 -310q-27 0 -44.5 17t-17.5 45q0 29 17.5 46.5t44.5 17.5t44.5 -17.5t17.5 -46.5q0 -28 -17.5 -45t-44.5 -17zM252 1264l218 352h76l218 -352h-71l-198 327h26l-198 -327h-71z" />
    <glyph glyph-name="uni1EC8" unicode="&#x1ec8;" horiz-adv-x="448" 
d="M190 0v1480h68v-1480h-68zM192 1616q2 47 33.5 67.5t65.5 35.5q27 11 48 24.5t21 37.5t-24 38.5t-97 14.5q-52 0 -98.5 -8.5t-98.5 -28.5v55q39 17 89 26.5t108 9.5q94 0 137 -30t43 -76q0 -43 -28 -63t-61 -35q-27 -12 -49.5 -26t-25.5 -42h-63z" />
    <glyph glyph-name="uni1EC9" unicode="&#x1ec9;" horiz-adv-x="408" 
d="M170 0v1080h68v-1080h-68zM173 1264q1 55 26 86t56.5 51t55 41t23.5 53q0 40 -30 58.5t-98 18.5q-35 0 -77.5 -6t-75.5 -18v56q30 11 70 17.5t79 6.5q99 0 145 -35t46 -97q0 -48 -23.5 -74.5t-54.5 -45.5t-55 -43.5t-25 -68.5h-62z" />
    <glyph glyph-name="uni1ECA" unicode="&#x1eca;" horiz-adv-x="448" 
d="M190 0v1480h68v-1480h-68zM224 -310q-27 0 -44.5 17t-17.5 45q0 29 17.5 46.5t44.5 17.5t44.5 -17.5t17.5 -46.5q0 -28 -17.5 -45t-44.5 -17z" />
    <glyph glyph-name="uni1ECB" unicode="&#x1ecb;" horiz-adv-x="408" 
d="M170 0v1080h68v-1080h-68zM204 1360q-27 0 -44.5 17t-17.5 45q0 29 17.5 46.5t44.5 17.5t44.5 -17.5t17.5 -46.5q0 -28 -17.5 -45t-44.5 -17zM204 -310q-27 0 -44.5 17t-17.5 45q0 29 17.5 46.5t44.5 17.5t44.5 -17.5t17.5 -46.5q0 -28 -17.5 -45t-44.5 -17z" />
    <glyph glyph-name="uni1ECC" unicode="&#x1ecc;" horiz-adv-x="1368" 
d="M684 -18q-169 0 -296.5 76t-198.5 243t-71 439q0 273 71.5 440t199 242.5t295.5 75.5q170 0 297 -75.5t198 -242.5t71 -440q0 -272 -71.5 -439t-199 -243t-295.5 -76zM684 49q147 0 258.5 65t173.5 215.5t62 406.5q0 260 -62 412t-173.5 217.5t-258.5 65.5t-258 -65
t-173.5 -215.5t-62.5 -406.5q0 -260 62.5 -412t173.5 -217.5t258 -65.5zM684 -310q-27 0 -44.5 17t-17.5 45q0 29 17.5 46.5t44.5 17.5t44.5 -17.5t17.5 -46.5q0 -28 -17.5 -45t-44.5 -17z" />
    <glyph glyph-name="uni1ECD" unicode="&#x1ecd;" horiz-adv-x="1058" 
d="M529 -18q-126 0 -220.5 56t-147.5 179t-53 323q0 199 53 321.5t147.5 178.5t220.5 56t221 -55.5t147.5 -177.5t52.5 -323q0 -198 -52.5 -321t-147.5 -180t-221 -57zM529 48q106 0 184.5 46t121.5 153.5t43 289.5q0 186 -43 293.5t-121.5 153.5t-184.5 46t-184.5 -45.5
t-121.5 -152t-43 -289.5q0 -185 43 -293.5t121.5 -155t184.5 -46.5zM529 -310q-27 0 -44.5 17t-17.5 45q0 29 17.5 46.5t44.5 17.5t44.5 -17.5t17.5 -46.5q0 -28 -17.5 -45t-44.5 -17z" />
    <glyph glyph-name="uni1ECE" unicode="&#x1ece;" horiz-adv-x="1368" 
d="M684 -18q-169 0 -296.5 76t-198.5 243t-71 439q0 273 71.5 440t199 242.5t295.5 75.5q170 0 297 -75.5t198 -242.5t71 -440q0 -272 -71.5 -439t-199 -243t-295.5 -76zM684 49q147 0 258.5 65t173.5 215.5t62 406.5q0 260 -62 412t-173.5 217.5t-258.5 65.5t-258 -65
t-173.5 -215.5t-62.5 -406.5q0 -260 62.5 -412t173.5 -217.5t258 -65.5zM652 1616q2 47 33.5 67.5t65.5 35.5q27 11 48 24.5t21 37.5t-24 38.5t-97 14.5q-52 0 -98.5 -8.5t-98.5 -28.5v55q39 17 89 26.5t108 9.5q94 0 137 -30t43 -76q0 -43 -28 -63t-61 -35
q-27 -12 -49.5 -26t-25.5 -42h-63z" />
    <glyph glyph-name="uni1ECF" unicode="&#x1ecf;" horiz-adv-x="1058" 
d="M529 -18q-126 0 -220.5 56t-147.5 179t-53 323q0 199 53 321.5t147.5 178.5t220.5 56t221 -55.5t147.5 -177.5t52.5 -323q0 -198 -52.5 -321t-147.5 -180t-221 -57zM529 48q106 0 184.5 46t121.5 153.5t43 289.5q0 186 -43 293.5t-121.5 153.5t-184.5 46t-184.5 -45.5
t-121.5 -152t-43 -289.5q0 -185 43 -293.5t121.5 -155t184.5 -46.5zM498 1264q1 55 26 86t56.5 51t55 41t23.5 53q0 40 -30 58.5t-98 18.5q-35 0 -77.5 -6t-75.5 -18v56q30 11 70 17.5t79 6.5q99 0 145 -35t46 -97q0 -48 -23.5 -74.5t-54.5 -45.5t-55 -43.5t-25 -68.5h-62z
" />
    <glyph glyph-name="uni1ED0" unicode="&#x1ed0;" horiz-adv-x="1368" 
d="M684 -18q-169 0 -296.5 76t-198.5 243t-71 439q0 273 71.5 440t199 242.5t295.5 75.5q170 0 297 -75.5t198 -242.5t71 -440q0 -272 -71.5 -439t-199 -243t-295.5 -76zM684 49q147 0 258.5 65t173.5 215.5t62 406.5q0 260 -62 412t-173.5 217.5t-258.5 65.5t-258 -65
t-173.5 -215.5t-62.5 -406.5q0 -260 62.5 -412t173.5 -217.5t258 -65.5zM406 1616l240 272h76l240 -272h-81l-210 243h26l-210 -243h-81zM898 1792l175 272h79l-190 -272h-64z" />
    <glyph glyph-name="uni1ED1" unicode="&#x1ed1;" horiz-adv-x="1058" 
d="M529 -18q-126 0 -220.5 56t-147.5 179t-53 323q0 199 53 321.5t147.5 178.5t220.5 56t221 -55.5t147.5 -177.5t52.5 -323q0 -198 -52.5 -321t-147.5 -180t-221 -57zM529 48q106 0 184.5 46t121.5 153.5t43 289.5q0 186 -43 293.5t-121.5 153.5t-184.5 46t-184.5 -45.5
t-121.5 -152t-43 -289.5q0 -185 43 -293.5t121.5 -155t184.5 -46.5zM273 1264l218 352h76l218 -352h-71l-198 327h26l-198 -327h-71zM730 1596l175 272h79l-190 -272h-64z" />
    <glyph glyph-name="uni1ED2" unicode="&#x1ed2;" horiz-adv-x="1368" 
d="M684 -18q-169 0 -296.5 76t-198.5 243t-71 439q0 273 71.5 440t199 242.5t295.5 75.5q170 0 297 -75.5t198 -242.5t71 -440q0 -272 -71.5 -439t-199 -243t-295.5 -76zM684 49q147 0 258.5 65t173.5 215.5t62 406.5q0 260 -62 412t-173.5 217.5t-258.5 65.5t-258 -65
t-173.5 -215.5t-62.5 -406.5q0 -260 62.5 -412t173.5 -217.5t258 -65.5zM413 1616l240 272h76l240 -272h-81l-210 243h26l-210 -243h-81zM925 1792l-190 272h79l175 -272h-64z" />
    <glyph glyph-name="uni1ED3" unicode="&#x1ed3;" horiz-adv-x="1058" 
d="M529 -18q-126 0 -220.5 56t-147.5 179t-53 323q0 199 53 321.5t147.5 178.5t220.5 56t221 -55.5t147.5 -177.5t52.5 -323q0 -198 -52.5 -321t-147.5 -180t-221 -57zM529 48q106 0 184.5 46t121.5 153.5t43 289.5q0 186 -43 293.5t-121.5 153.5t-184.5 46t-184.5 -45.5
t-121.5 -152t-43 -289.5q0 -185 43 -293.5t121.5 -155t184.5 -46.5zM274 1264l218 352h76l218 -352h-71l-198 327h26l-198 -327h-71zM749 1596l-190 272h79l175 -272h-64z" />
    <glyph glyph-name="uni1ED4" unicode="&#x1ed4;" horiz-adv-x="1368" 
d="M684 -18q-169 0 -296.5 76t-198.5 243t-71 439q0 273 71.5 440t199 242.5t295.5 75.5q170 0 297 -75.5t198 -242.5t71 -440q0 -272 -71.5 -439t-199 -243t-295.5 -76zM684 49q147 0 258.5 65t173.5 215.5t62 406.5q0 260 -62 412t-173.5 217.5t-258.5 65.5t-258 -65
t-173.5 -215.5t-62.5 -406.5q0 -260 62.5 -412t173.5 -217.5t258 -65.5zM406 1616l240 272h76l240 -272h-81l-210 243h26l-210 -243h-81zM898 1792q2 42 28 63.5t58.5 34t57 26.5t24.5 41q0 24 -24 38.5t-97 14.5q-52 0 -98.5 -8.5t-98.5 -28.5v55q39 17 89 26.5t108 9.5
q94 0 137 -30t43 -76q0 -40 -23.5 -60.5t-55 -32.5t-57 -27.5t-28.5 -45.5h-63z" />
    <glyph glyph-name="uni1ED5" unicode="&#x1ed5;" horiz-adv-x="1058" 
d="M529 -18q-126 0 -220.5 56t-147.5 179t-53 323q0 199 53 321.5t147.5 178.5t220.5 56t221 -55.5t147.5 -177.5t52.5 -323q0 -198 -52.5 -321t-147.5 -180t-221 -57zM529 48q106 0 184.5 46t121.5 153.5t43 289.5q0 186 -43 293.5t-121.5 153.5t-184.5 46t-184.5 -45.5
t-121.5 -152t-43 -289.5q0 -185 43 -293.5t121.5 -155t184.5 -46.5zM273 1264l218 352h76l218 -352h-71l-198 327h26l-198 -327h-71zM736 1596q2 42 28 63.5t58.5 34t57 26.5t24.5 41q0 24 -24 38.5t-97 14.5q-52 0 -98.5 -8.5t-98.5 -28.5v55q39 17 89 26.5t108 9.5
q94 0 137 -30t43 -76q0 -40 -23.5 -60.5t-55 -32.5t-57 -27.5t-28.5 -45.5h-63z" />
    <glyph glyph-name="uni1ED6" unicode="&#x1ed6;" horiz-adv-x="1368" 
d="M684 -18q-169 0 -296.5 76t-198.5 243t-71 439q0 273 71.5 440t199 242.5t295.5 75.5q170 0 297 -75.5t198 -242.5t71 -440q0 -272 -71.5 -439t-199 -243t-295.5 -76zM684 49q147 0 258.5 65t173.5 215.5t62 406.5q0 260 -62 412t-173.5 217.5t-258.5 65.5t-258 -65
t-173.5 -215.5t-62.5 -406.5q0 -260 62.5 -412t173.5 -217.5t258 -65.5zM406 1616l240 272h76l240 -272h-81l-210 243h26l-210 -243h-81zM815 1934q-50 0 -94.5 19t-86 38t-81.5 19q-44 0 -79.5 -17.5t-67.5 -53.5v67q26 30 63.5 45.5t83.5 15.5q50 0 95 -19t86.5 -38
t80.5 -19q45 0 80.5 17.5t66.5 53.5v-67q-25 -29 -62.5 -45t-84.5 -16z" />
    <glyph glyph-name="uni1ED7" unicode="&#x1ed7;" horiz-adv-x="1058" 
d="M529 -18q-126 0 -220.5 56t-147.5 179t-53 323q0 199 53 321.5t147.5 178.5t220.5 56t221 -55.5t147.5 -177.5t52.5 -323q0 -198 -52.5 -321t-147.5 -180t-221 -57zM529 48q106 0 184.5 46t121.5 153.5t43 289.5q0 186 -43 293.5t-121.5 153.5t-184.5 46t-184.5 -45.5
t-121.5 -152t-43 -289.5q0 -185 43 -293.5t121.5 -155t184.5 -46.5zM273 1264l218 352h76l218 -352h-71l-198 327h26l-198 -327h-71zM663 1676q-51 0 -96.5 19t-88 38t-83.5 19q-44 0 -80 -17.5t-69 -53.5v67q27 30 64.5 45.5t84.5 15.5q51 0 97 -19t88 -38t83 -19
q46 0 81.5 17.5t67.5 53.5v-67q-26 -29 -63.5 -45t-85.5 -16z" />
    <glyph glyph-name="uni1ED8" unicode="&#x1ed8;" horiz-adv-x="1368" 
d="M684 -18q-169 0 -296.5 76t-198.5 243t-71 439q0 273 71.5 440t199 242.5t295.5 75.5q170 0 297 -75.5t198 -242.5t71 -440q0 -272 -71.5 -439t-199 -243t-295.5 -76zM684 49q147 0 258.5 65t173.5 215.5t62 406.5q0 260 -62 412t-173.5 217.5t-258.5 65.5t-258 -65
t-173.5 -215.5t-62.5 -406.5q0 -260 62.5 -412t173.5 -217.5t258 -65.5zM684 -310q-27 0 -44.5 17t-17.5 45q0 29 17.5 46.5t44.5 17.5t44.5 -17.5t17.5 -46.5q0 -28 -17.5 -45t-44.5 -17zM406 1616l240 272h76l240 -272h-81l-210 243h26l-210 -243h-81z" />
    <glyph glyph-name="uni1ED9" unicode="&#x1ed9;" horiz-adv-x="1058" 
d="M529 -18q-126 0 -220.5 56t-147.5 179t-53 323q0 199 53 321.5t147.5 178.5t220.5 56t221 -55.5t147.5 -177.5t52.5 -323q0 -198 -52.5 -321t-147.5 -180t-221 -57zM529 48q106 0 184.5 46t121.5 153.5t43 289.5q0 186 -43 293.5t-121.5 153.5t-184.5 46t-184.5 -45.5
t-121.5 -152t-43 -289.5q0 -185 43 -293.5t121.5 -155t184.5 -46.5zM529 -310q-27 0 -44.5 17t-17.5 45q0 29 17.5 46.5t44.5 17.5t44.5 -17.5t17.5 -46.5q0 -28 -17.5 -45t-44.5 -17zM273 1264l218 352h76l218 -352h-71l-198 327h26l-198 -327h-71z" />
    </font>
</defs>
</svg>
