<?xml version="1.0" standalone="no"?>
<!DOCTYPE svg PUBLIC "-//W3C//DTD SVG 1.1//EN" "http://www.w3.org/Graphics/SVG/1.1/DTD/svg11.dtd" >
<svg xmlns="http://www.w3.org/2000/svg" xmlns:xlink="http://www.w3.org/1999/xlink" version="1.1">
<metadata>
Created by FontForge 20170731 at Wed Jun 24 20:56:00 2020
 By Aleksey,,,
Copyright 2020 The Encode Project Authors (https://github.com/thundernixon/Encode-Sans), with Reserved Font Name 'Encode Sans'.
</metadata>
<defs>
<font id="EncodeSans-SemiBold" horiz-adv-x="0" >
  <font-face 
    font-family="Encode Sans SemiBold"
    font-weight="600"
    font-stretch="normal"
    units-per-em="2000"
    panose-1="0 0 0 0 0 0 0 0 0 0"
    ascent="1600"
    descent="-400"
    x-height="1091"
    cap-height="1480"
    bbox="-342 -486 2791 2200"
    underline-thickness="50"
    underline-position="-175"
    unicode-range="U+000D-FB02"
  />
<missing-glyph horiz-adv-x="1214" 
d="M607 -10q-114 0 -214.5 5.5t-216.5 20.5v1438q99 21 216.5 30.5t214.5 9.5t214.5 -9.5t216.5 -30.5v-1438q-116 -15 -216.5 -20.5t-214.5 -5.5zM607 1428q-85 0 -174 -7t-189 -21v-1322q65 -10 153.5 -16t209.5 -6t210 6t153 16v1322q-184 28 -363 28zM941 49l-335 635
l-35 64l-349 659l54 26l330 -623l35 -62l357 -674zM271 49l-57 25l357 674l35 62l330 623l54 -26l-349 -659l-35 -64z" />
    <glyph glyph-name=".notdef" horiz-adv-x="1214" 
d="M607 -10q-114 0 -214.5 5.5t-216.5 20.5v1438q99 21 216.5 30.5t214.5 9.5t214.5 -9.5t216.5 -30.5v-1438q-116 -15 -216.5 -20.5t-214.5 -5.5zM607 1428q-85 0 -174 -7t-189 -21v-1322q65 -10 153.5 -16t209.5 -6t210 6t153 16v1322q-184 28 -363 28zM941 49l-335 635
l-35 64l-349 659l54 26l330 -623l35 -62l357 -674zM271 49l-57 25l357 674l35 62l330 623l54 -26l-349 -659l-35 -64z" />
    <glyph glyph-name=".null" 
 />
    <glyph glyph-name="nonmarkingreturn" horiz-adv-x="666" 
 />
    <glyph glyph-name="NULL" 
 />
    <glyph glyph-name="NULL" 
 />
    <glyph glyph-name="CR" unicode="&#xd;" horiz-adv-x="498" 
 />
    <glyph glyph-name="space" unicode=" " horiz-adv-x="498" 
 />
    <glyph glyph-name="exclam" unicode="!" horiz-adv-x="563" 
d="M202 434l-60 514v532h279v-532l-57 -514h-162zM281 -15q-78 0 -126 42.5t-48 113.5q0 73 47 115.5t127 42.5q81 0 128 -43.5t47 -114.5q0 -70 -48 -113t-127 -43z" />
    <glyph glyph-name="quotedbl" unicode="&#x22;" horiz-adv-x="856" 
d="M148 870l-51 746h262l-51 -746h-160zM548 870l-51 746h262l-51 -746h-160z" />
    <glyph glyph-name="numbersign" unicode="#" horiz-adv-x="1220" 
d="M633 0l154 1480h205l-154 -1480h-205zM100 415v203h1020v-203h-1020zM228 0l154 1480h205l-154 -1480h-205zM100 862v203h1020v-203h-1020z" />
    <glyph glyph-name="dollar" unicode="$" horiz-adv-x="1121" 
d="M483 -19q-96 0 -198.5 15.5t-191.5 43.5v220q62 -20 130.5 -33.5t134.5 -20.5t122 -7q112 0 180.5 24t100 70.5t31.5 112.5q0 85 -52.5 131.5t-190.5 81.5l-100 26q-192 49 -289.5 150.5t-97.5 267.5q0 204 147 320t445 116q90 0 177 -11t157 -30v-220q-73 21 -156.5 32
t-162.5 11q-125 0 -199.5 -25t-107.5 -70.5t-33 -108.5q0 -80 47.5 -125.5t171.5 -78.5l100 -26q141 -35 232.5 -91.5t135.5 -138t44 -193.5q0 -139 -68 -238t-197 -152t-312 -53zM437 -240v284l248 4v-288h-248zM437 1447v273h248v-273h-248z" />
    <glyph glyph-name="percent" unicode="%" horiz-adv-x="2007" 
d="M565 0l659 1480h218l-659 -1480h-218zM471 571q-113 0 -198.5 49.5t-133.5 152t-48 262.5t48 262.5t133.5 152t198.5 49.5t198.5 -49.5t133 -152t47.5 -262.5t-48 -262.5t-133.5 -152t-197.5 -49.5zM471 741q49 0 87.5 27t60 91t21.5 175q0 112 -21.5 176.5t-60 92
t-87.5 27.5q-51 0 -89 -27.5t-59.5 -91.5t-21.5 -175t21.5 -175.5t59.5 -92t89 -27.5zM1536 -18q-112 0 -197.5 49.5t-134 152t-48.5 262.5t48.5 262.5t134 152t197.5 49.5q113 0 198.5 -49.5t133.5 -152t48 -262.5t-48 -262.5t-133.5 -152t-198.5 -49.5zM1536 151
q50 0 88.5 27t60 91.5t21.5 175.5t-21.5 176t-60 92t-88.5 27t-88 -27t-60 -91.5t-22 -174.5q0 -111 22 -176t60 -92.5t88 -27.5z" />
    <glyph glyph-name="ampersand" unicode="&#x26;" horiz-adv-x="1565" 
d="M1441 -20l-847 594q-132 92 -204.5 170.5t-101 154t-28.5 157.5q0 208 145 325.5t442 117.5q73 0 136.5 -6.5t119.5 -18.5v-220q-54 13 -115.5 20t-122.5 7q-124 0 -198 -27.5t-107 -79t-33 -123.5q0 -50 17 -93t58.5 -87.5t115.5 -101.5l847 -594zM689 -18
q-190 0 -317 53t-191 147.5t-64 221.5q0 96 35.5 174.5t99.5 135t147 87.5l138 -109q-75 -44 -114.5 -108t-39.5 -151q0 -79 37 -137t111.5 -89.5t185.5 -31.5q119 0 208 40t138.5 129t49.5 236q0 61 -10 128.5t-28 131.5h215q18 -64 26.5 -130.5t8.5 -127.5
q0 -198 -76 -331.5t-218.5 -201t-341.5 -67.5z" />
    <glyph glyph-name="quotesingle" unicode="'" horiz-adv-x="456" 
d="M148 870l-51 746h262l-51 -746h-160z" />
    <glyph glyph-name="parenleft" unicode="(" horiz-adv-x="696" 
d="M453 -440q-180 213 -261 473t-81 555t81 555.5t261 472.5h277q-123 -153 -200 -316.5t-113 -340.5t-36 -371t36 -371t113 -340.5t200 -316.5h-277z" />
    <glyph glyph-name="parenright" unicode=")" horiz-adv-x="696" 
d="M-34 -440q123 153 200 316.5t113 340.5t36 371t-36 371t-113 340.5t-200 316.5h276q182 -212 262.5 -472.5t80.5 -555.5t-80.5 -555t-262.5 -473h-276z" />
    <glyph glyph-name="asterisk" unicode="*" horiz-adv-x="975" 
d="M585 1154l138 -137l95 -132l-144 -105l-96 131l-91 182l-90 -182l-96 -131l-145 105l96 132l137 137l-189 31l-170 54l55 170l169 -55l175 -90l-31 194v158h179v-158l-32 -194l176 90l168 55l56 -170l-170 -54z" />
    <glyph glyph-name="plus" unicode="+" horiz-adv-x="1091" 
d="M439 332v326h-311v204h311v326h213v-326h311v-204h-311v-326h-213z" />
    <glyph glyph-name="comma" unicode="," horiz-adv-x="523" 
d="M147 -333q44 103 68.5 190.5t24.5 176.5l55 -49h-34q-78 0 -126 44.5t-48 119.5q0 77 46 120.5t124 43.5q86 0 132 -53t46 -161q0 -115 -38 -228t-99 -204h-151z" />
    <glyph glyph-name="hyphen" unicode="-" horiz-adv-x="884" 
d="M128 458v215h628v-215h-628z" />
    <glyph glyph-name="period" unicode="." horiz-adv-x="523" 
d="M262 -15q-79 0 -127 44t-48 120t47 120t128 44q80 0 127 -45t47 -119t-48 -119t-126 -45z" />
    <glyph glyph-name="slash" unicode="/" horiz-adv-x="728" 
d="M0 -240l468 1856h260l-469 -1856h-259z" />
    <glyph glyph-name="zero" unicode="0" horiz-adv-x="1307" 
d="M653 -19q-171 0 -294.5 78t-190.5 245.5t-67 435.5t66.5 435.5t190 245.5t295.5 78t295.5 -78t190 -245.5t66.5 -435.5t-67 -435.5t-190.5 -245.5t-294.5 -78zM654 202q89 0 153.5 48.5t99 165.5t34.5 322q0 208 -34.5 325.5t-99 166t-153.5 48.5q-90 0 -154.5 -48.5
t-99.5 -165.5t-35 -322q0 -208 34.5 -325.5t99.5 -166t155 -48.5z" />
    <glyph glyph-name="one" unicode="1" horiz-adv-x="796" 
d="M372 0v1316l96 -85l-442 -309v253l442 310h172v-1485h-268z" />
    <glyph glyph-name="two" unicode="2" horiz-adv-x="1043" 
d="M52 0v144l414 529q67 85 106.5 152t57 123t17.5 110q0 116 -68.5 169.5t-218.5 53.5q-87 0 -171.5 -15.5t-154.5 -42.5v220q44 17 103 29.5t124 19.5t126 7q257 0 391 -99.5t134 -316.5q0 -77 -20.5 -152t-67.5 -158.5t-128 -183.5l-347 -436l-10 70h647v-223h-934z" />
    <glyph glyph-name="three" unicode="3" horiz-adv-x="1061" 
d="M421 -19q-99 0 -194 13.5t-181 39.5v204q86 -25 182 -39.5t184 -14.5q170 0 250.5 61t80.5 177q0 112 -76.5 172.5t-250.5 60.5h-203v206h143q174 0 254.5 59.5t80.5 167.5q0 102 -70 155t-215 53q-83 0 -168.5 -14t-162.5 -41v204q48 16 107.5 28.5t124.5 19t126 6.5
q255 0 385 -102t130 -287q0 -137 -80.5 -230.5t-220.5 -123.5l1 18q168 -23 258 -116.5t90 -250.5q0 -133 -63.5 -228.5t-191 -146.5t-320.5 -51z" />
    <glyph glyph-name="four" unicode="4" horiz-adv-x="1240" 
d="M41 322v147l536 1011h260l-533 -1012l-31 63h932v-209h-1164zM766 0v531l28 449h213v-980h-241z" />
    <glyph glyph-name="five" unicode="5" horiz-adv-x="1072" 
d="M448 -19q-100 0 -195.5 15t-179.5 41v204q84 -25 180.5 -40t185.5 -15q170 0 249.5 61t79.5 180q0 79 -40 131.5t-140 82.5t-279 40l-187 11l51 788h788v-209h-659l117 114l-40 -592l-160 99l188 -10q219 -13 354.5 -66t198 -148t62.5 -235q0 -220 -145.5 -336
t-428.5 -116z" />
    <glyph glyph-name="six" unicode="6" horiz-adv-x="1215" 
d="M667 -19q-124 0 -226 39.5t-176 124.5t-114 220.5t-40 326.5q0 275 80 454t232.5 266t371.5 87q80 0 154 -10t137 -35v-208q-64 24 -135.5 35t-143.5 11q-145 0 -242 -56t-145 -173.5t-48 -301.5v-107q0 -138 21 -230.5t60 -146t93.5 -76.5t122.5 -23q71 0 126.5 26
t87.5 81.5t32 142.5t-33.5 143t-95 82.5t-144.5 26.5q-55 0 -112.5 -13t-110 -42t-92.5 -74v194q60 62 159.5 96.5t205.5 34.5q135 0 240.5 -47t166 -144.5t60.5 -248.5q0 -145 -61 -247t-171.5 -155t-259.5 -53z" />
    <glyph glyph-name="seven" unicode="7" horiz-adv-x="993" 
d="M160 0l519 1337l86 -80h-754v223h925v-144l-501 -1336h-275z" />
    <glyph glyph-name="eight" unicode="8" horiz-adv-x="1307" 
d="M659 -19q-194 0 -321 48.5t-189 136t-62 204.5q0 135 83.5 235.5t236.5 150.5l180 -70q-125 -39 -186.5 -116.5t-61.5 -170.5q0 -110 79.5 -169.5t241.5 -59.5q154 0 230 55.5t76 156.5q0 66 -31 112.5t-107.5 82t-212.5 69.5q-180 44 -286.5 108.5t-152.5 150t-46 192.5
q0 120 61 210.5t180.5 141t294.5 50.5q240 0 373.5 -100t133.5 -274q0 -82 -30 -153t-94.5 -128.5t-166.5 -97.5l-166 71q120 55 172.5 122.5t52.5 160.5q0 102 -71.5 156t-206.5 54q-142 0 -210 -56t-68 -147q0 -65 29 -111.5t105 -84.5t219 -74q180 -48 285 -109
t149.5 -142.5t44.5 -188.5q0 -121 -63 -215t-187 -147.5t-308 -53.5z" />
    <glyph glyph-name="nine" unicode="9" horiz-adv-x="1215" 
d="M548 1499q124 0 226 -39.5t176 -124.5t114 -220.5t40 -326.5q0 -275 -80 -454t-232.5 -266t-371.5 -87q-80 0 -154 10t-137 35v208q64 -24 135.5 -35t143.5 -11q145 0 242 56t145 173.5t48 301.5v107q0 138 -21 230.5t-60 146t-93.5 76.5t-122.5 23q-71 0 -126.5 -26
t-87.5 -81.5t-32 -142.5t33.5 -143t95 -82.5t144.5 -26.5q55 0 112.5 13t110 42t92.5 74v-194q-60 -62 -159.5 -96.5t-205.5 -34.5q-135 0 -240.5 47t-166 144.5t-60.5 248.5q0 145 61 247t171.5 155t259.5 53z" />
    <glyph glyph-name="colon" unicode=":" horiz-adv-x="523" 
d="M262 -15q-79 0 -127 44t-48 120t47 120t128 44q80 0 127 -45t47 -119t-48 -119t-126 -45zM262 778q-79 0 -127 44t-48 120t47 120t128 44q80 0 127 -45t47 -119t-48 -119t-126 -45z" />
    <glyph glyph-name="semicolon" unicode=";" horiz-adv-x="523" 
d="M147 -333q44 103 68.5 190.5t24.5 176.5l55 -49h-34q-78 0 -126 44.5t-48 119.5q0 77 46 120.5t124 43.5q86 0 132 -53t46 -161q0 -115 -38 -228t-99 -204h-151zM262 778q-79 0 -127 44t-48 120t47 120t128 44q80 0 127 -45t47 -119t-48 -119t-126 -45z" />
    <glyph glyph-name="less" unicode="&#x3c;" horiz-adv-x="1091" 
d="M963 308l-835 329v246l835 329v-207l-682 -260v33l682 -263v-207z" />
    <glyph glyph-name="equal" unicode="=" horiz-adv-x="1091" 
d="M128 872v203h835v-203h-835zM128 445v203h835v-203h-835z" />
    <glyph glyph-name="greater" unicode="&#x3e;" horiz-adv-x="1091" 
d="M128 308v207l682 263v-33l-682 260v207l835 -329v-246z" />
    <glyph glyph-name="question" unicode="?" horiz-adv-x="960" 
d="M349 427l-45 381q134 33 209 72.5t106 90.5t31 115q0 100 -70 152.5t-217 52.5q-82 0 -167 -14t-162 -42v210q48 16 107.5 28.5t124.5 19t126 6.5q255 0 385 -102t130 -290q0 -106 -41.5 -186.5t-124.5 -139.5t-210 -101l-20 -253h-162zM430 -15q-78 0 -126 42.5
t-48 113.5q0 73 47 115.5t127 42.5q81 0 128 -43.5t47 -114.5q0 -69 -47.5 -112.5t-127.5 -43.5z" />
    <glyph glyph-name="at" unicode="@" horiz-adv-x="2029" 
d="M1061 -460q-313 0 -529 103.5t-328.5 320t-112.5 556.5q0 339 110.5 555t318.5 319.5t502 103.5q296 0 500.5 -100.5t310 -304t105.5 -511.5q0 -219 -54 -351.5t-149 -191t-217 -58.5q-105 0 -176.5 38t-107.5 110h-16q-42 -78 -123 -113t-175 -35q-162 0 -253.5 83.5
t-91.5 225.5q0 150 102 233.5t326 101.5l257 24l26 -147l-259 -25q-99 -10 -145.5 -48.5t-46.5 -111.5q0 -74 45 -110.5t122 -36.5q51 0 108.5 21.5t100.5 69.5v420q0 81 -26.5 127.5t-82.5 66t-144 19.5q-64 0 -141.5 -12.5t-151.5 -38.5l1 201q75 26 165 39.5t170 13.5
q158 0 261.5 -40t154.5 -133.5t51 -253.5v-380q0 -71 27 -102.5t79 -31.5q49 0 89 36t63.5 127t23.5 254q0 201 -45 343t-135.5 232t-227 132.5t-320.5 42.5q-182 0 -318.5 -44t-227.5 -139.5t-136.5 -248t-45.5 -369.5q0 -219 46.5 -373t141 -250t239 -140t340.5 -44
q112 0 218 14t216 42v-176q-102 -26 -211 -40.5t-223 -14.5z" />
    <glyph glyph-name="A" unicode="A" horiz-adv-x="1419" 
d="M19 0l497 1480h387l497 -1480h-265l-443 1361h31l-442 -1361h-262zM333 425l58 215h636l58 -215h-752z" />
    <glyph glyph-name="B" unicode="B" horiz-adv-x="1307" 
d="M545 -15q-61 0 -129 3t-137.5 9t-132.5 15v1438q66 14 140 25t152.5 16.5t157.5 5.5q213 0 348 -44.5t198 -135t63 -226.5q0 -83 -31 -153t-93.5 -117.5t-156.5 -64.5l2 13q153 -20 237 -111.5t84 -246.5q0 -103 -38 -182.5t-121.5 -133.5t-217 -82t-325.5 -28zM612 184
q146 0 230.5 26t120 78.5t35.5 132.5q0 121 -76 177.5t-245 56.5h-300v204h270q112 0 179 24.5t97 73t30 121.5q0 117 -73.5 168.5t-250.5 51.5q-66 0 -119 -4.5t-103 -13.5v-1086q54 -6 103 -8t102 -2z" />
    <glyph glyph-name="C" unicode="C" horiz-adv-x="1207" 
d="M827 -19q-173 0 -309.5 42.5t-231.5 133t-145 234.5t-50 346q0 259 88.5 428t256.5 251.5t407 82.5q85 0 164 -9.5t155 -28.5v-223q-73 19 -147.5 28t-152.5 9q-163 0 -272 -53t-163.5 -170.5t-54.5 -310.5q0 -199 55 -316.5t161.5 -168.5t262.5 -51q78 0 154 12t157 37
v-223q-72 -23 -158 -36.5t-177 -13.5z" />
    <glyph glyph-name="D" unicode="D" horiz-adv-x="1465" 
d="M532 -14q-60 0 -123.5 2.5t-129.5 7.5t-133 13v1441q65 14 139.5 24.5t151 16t149.5 5.5q390 0 588.5 -184.5t198.5 -571.5q0 -264 -93 -430.5t-280 -245t-468 -78.5zM598 206q167 0 278.5 53.5t166.5 171.5t55 310q0 191 -55 309t-165.5 172.5t-274.5 54.5
q-44 0 -93.5 -4.5t-96.5 -12.5v-1045q45 -5 89.5 -7t95.5 -2z" />
    <glyph glyph-name="E" unicode="E" horiz-adv-x="1223" 
d="M146 0v1480h995v-217h-731v-1046h741v-217h-1005zM307 649v217h734v-217h-734z" />
    <glyph glyph-name="F" unicode="F" horiz-adv-x="1182" 
d="M146 0v1480h991v-220h-724v-1260h-267zM320 621v220h716v-220h-716z" />
    <glyph glyph-name="G" unicode="G" horiz-adv-x="1398" 
d="M907 -15q-271 0 -452 80.5t-272.5 247t-91.5 424.5q0 260 94 428.5t273 251t432 82.5q86 0 169 -10t164 -30v-223q-82 21 -158 30t-153 9q-179 0 -299 -53t-181 -172t-61 -316q0 -186 57 -302.5t172 -170.5t287 -54q64 0 125 5t113 14l-113 -102v596h251v-704
q-95 -16 -182 -23.5t-174 -7.5z" />
    <glyph glyph-name="H" unicode="H" horiz-adv-x="1497" 
d="M146 0v1480h267v-604h671v604h267v-1480h-267v639h-671v-639h-267z" />
    <glyph glyph-name="I" unicode="I" horiz-adv-x="559" 
d="M146 0v1480h267v-1480h-267z" />
    <glyph glyph-name="J" unicode="J" horiz-adv-x="559" 
d="M154 -348l-171 116q59 81 95.5 158.5t52.5 166t16 203.5v1184h266v-1190q0 -124 -25.5 -229t-82.5 -204.5t-151 -204.5z" />
    <glyph glyph-name="K" unicode="K" horiz-adv-x="1297" 
d="M1041 0l-539 755l506 725h284l-527 -755l4 71l566 -796h-294zM146 0v1480h267v-1480h-267zM375 639v237h236v-237h-236z" />
    <glyph glyph-name="L" unicode="L" horiz-adv-x="1121" 
d="M146 0v1480h267v-1255h698v-225h-965z" />
    <glyph glyph-name="M" unicode="M" horiz-adv-x="1836" 
d="M150 0v1480h324l467 -1039h-37l458 1039h324v-1480h-250v1246h58l-464 -1035h-224l-475 1035h69v-1246h-250z" />
    <glyph glyph-name="N" unicode="N" horiz-adv-x="1517" 
d="M146 0v1480h270l753 -1154h-50v1154h252v-1480h-270l-753 1154h50v-1154h-252z" />
    <glyph glyph-name="O" unicode="O" horiz-adv-x="1519" 
d="M759 -19q-201 0 -351 81t-233.5 249t-83.5 429t83.5 429t233.5 249t351 81q202 0 352 -81t233 -249.5t83 -428.5t-83 -428.5t-233.5 -249.5t-351.5 -81zM759 200q122 0 210 53t135.5 170.5t47.5 310.5q0 199 -48 319t-136 173.5t-209 53.5q-120 0 -208.5 -52.5
t-136.5 -170t-48 -311.5q0 -200 48 -320t136 -173t209 -53z" />
    <glyph glyph-name="P" unicode="P" horiz-adv-x="1287" 
d="M146 0v1455q100 20 204 31t220 11q317 0 477.5 -126t160.5 -398q0 -257 -157 -390.5t-476 -133.5q-43 0 -81.5 1.5t-80.5 5.5v-456h-267zM578 653q193 0 281 76t88 242q0 169 -87 245.5t-267 76.5q-52 0 -95 -3.5t-85 -11.5v-615q41 -5 80 -7.5t85 -2.5z" />
    <glyph glyph-name="Q" unicode="Q" horiz-adv-x="1519" 
d="M1362 -286q-295 42 -511 105.5t-362.5 151t-233.5 200.5t-125.5 253.5t-38.5 310.5q0 263 83.5 432.5t233.5 250.5t351 81q202 0 352 -80.5t233 -248.5t83 -430q0 -233 -70.5 -397.5t-211 -251.5t-350.5 -87q-34 0 -69.5 2.5t-73.5 6.5l77 68q108 -43 220.5 -73
t227.5 -49.5t229 -32.5zM759 200q122 0 210 53t135.5 170.5t47.5 310.5q0 199 -48 319t-136 173.5t-209 53.5q-120 0 -208.5 -52.5t-136.5 -170t-48 -311.5q0 -201 47.5 -320.5t135.5 -172.5t210 -53z" />
    <glyph glyph-name="R" unicode="R" horiz-adv-x="1353" 
d="M146 0v1450q63 13 134 24t147.5 17t156.5 6q310 0 464.5 -112.5t154.5 -350.5q0 -154 -73.5 -258t-212 -156.5t-334.5 -52.5q-51 0 -91 2t-83 4v-573h-263zM1027 0l-492 688h289l499 -688h-296zM587 769q188 0 276 63.5t88 201.5q0 92 -36.5 150t-112 85.5t-192.5 27.5
q-60 0 -107.5 -5t-93.5 -13v-501q32 -3 59.5 -5t56 -3t62.5 -1z" />
    <glyph glyph-name="S" unicode="S" horiz-adv-x="1121" 
d="M489 -19q-101 0 -204 16t-192 46v220q62 -21 130.5 -35t136.5 -21.5t129 -7.5q161 0 232 54t71 153q0 85 -52.5 131.5t-190.5 81.5l-100 26q-192 49 -289.5 150.5t-97.5 267.5q0 204 146 320t438 116q95 0 183.5 -11.5t158.5 -32.5v-220q-73 23 -158 34.5t-170 11.5
q-121 0 -193.5 -25t-105 -70.5t-32.5 -108.5q0 -80 47.5 -125.5t171.5 -78.5l100 -26q141 -35 232.5 -91.5t135.5 -138t44 -193.5q0 -139 -68 -238t-195.5 -152t-307.5 -53z" />
    <glyph glyph-name="T" unicode="T" horiz-adv-x="1247" 
d="M489 0v1255h-476v225h1220v-225h-476v-1255h-268z" />
    <glyph glyph-name="U" unicode="U" horiz-adv-x="1467" 
d="M737 -19q-207 0 -339 66.5t-195.5 202.5t-63.5 344v886h268v-912q0 -192 81 -278.5t249 -86.5t248.5 86.5t80.5 278.5v912h263v-886q0 -208 -63 -344t-194 -202.5t-335 -66.5z" />
    <glyph glyph-name="V" unicode="V" horiz-adv-x="1390" 
d="M498 0l-494 1480h281l446 -1367h-58l451 1367h262l-494 -1480h-394z" />
    <glyph glyph-name="W" unicode="W" horiz-adv-x="2221" 
d="M439 0l-400 1480h272l352 -1360h-67l372 1360h300l362 -1360h-61l358 1360h255l-400 -1480h-345l-356 1315h70l-367 -1315h-345z" />
    <glyph glyph-name="X" unicode="X" horiz-adv-x="1341" 
d="M1057 0l-389 567l-156 195l-499 718h299l359 -519l156 -196l529 -765h-299zM-17 0l529 762l159 199l359 519h291l-494 -715l-159 -198l-390 -567h-295z" />
    <glyph glyph-name="Y" unicode="Y" horiz-adv-x="1247" 
d="M491 0v746l55 -197l-591 931h287l428 -678h-79l423 678h267l-578 -931l56 194v-743h-268z" />
    <glyph glyph-name="Z" unicode="Z" horiz-adv-x="1209" 
d="M60 0v147l766 1163l6 -54h-761v224h1067v-147l-766 -1163l-6 54h783v-224h-1089z" />
    <glyph glyph-name="bracketleft" unicode="[" horiz-adv-x="696" 
d="M166 -440v2056h562v-209h-299v-1638h294v-209h-557z" />
    <glyph glyph-name="backslash" unicode="\" horiz-adv-x="729" 
d="M469 -240l-469 1856h260l469 -1856h-260z" />
    <glyph glyph-name="bracketright" unicode="]" horiz-adv-x="696" 
d="M-27 -440v209h294v1638h-299v209h562v-2056h-557z" />
    <glyph glyph-name="asciicircum" unicode="^" horiz-adv-x="1220" 
d="M76 740l406 740h255l407 -740h-258l-327 609h102l-327 -609h-258z" />
    <glyph glyph-name="underscore" unicode="_" horiz-adv-x="1179" 
d="M90 -210v209h999v-209h-999z" />
    <glyph glyph-name="grave" unicode="`" horiz-adv-x="1109" 
d="M480 1240l-261 376h280l221 -376h-240z" />
    <glyph glyph-name="a" unicode="a" horiz-adv-x="1086" 
d="M419 -19q-163 0 -254.5 84.5t-91.5 224.5q0 150 102.5 234.5t330.5 101.5l252 24l28 -152l-255 -23q-105 -10 -151 -50t-46 -110q0 -71 42 -109t124 -38q54 0 109 21t100 70v429q0 83 -26.5 130.5t-84 67t-149.5 19.5q-62 0 -141 -11t-154 -34v201q77 23 168.5 35
t171.5 12q161 0 265.5 -40.5t155.5 -136t51 -259.5v-672h-217l-19 113h-13q-50 -67 -128.5 -99.5t-169.5 -32.5z" />
    <glyph glyph-name="b" unicode="b" horiz-adv-x="1194" 
d="M521 -20q-98 0 -200 14t-191 43v1579h263v-634h13q49 58 122 92t167 34q114 0 210 -55t153.5 -174t57.5 -312q0 -291 -148.5 -439t-446.5 -148zM543 183q152 0 230 84t78 278q0 135 -32 210t-88.5 105t-130.5 30q-57 0 -112 -21t-95 -65v-602q30 -8 69 -13.5t81 -5.5z
" />
    <glyph glyph-name="c" unicode="c" horiz-adv-x="931" 
d="M615 -20q-173 0 -293 60.5t-182 185.5t-62 318q0 194 67 319t195 185t311 60q63 0 122.5 -6.5t113.5 -19.5v-211q-52 11 -102 17t-100 6q-115 0 -189.5 -34.5t-110.5 -111t-36 -201.5q0 -128 34.5 -206t102.5 -112.5t169 -34.5q52 0 107 9.5t125 29.5v-211
q-61 -20 -130.5 -31t-141.5 -11z" />
    <glyph glyph-name="d" unicode="d" horiz-adv-x="1194" 
d="M519 -19q-120 0 -220.5 54.5t-160.5 174t-60 313.5q0 192 66 322.5t195 197t318 66.5q38 0 75.5 -3t68.5 -8v518h263v-1616h-221l-17 116h-13q-48 -60 -122 -97.5t-172 -37.5zM593 198q57 0 113 23t95 72v598q-29 6 -68 10.5t-77 4.5q-155 0 -234 -84t-79 -278
q0 -134 31.5 -209t88 -106t130.5 -31z" />
    <glyph glyph-name="e" unicode="e" horiz-adv-x="1081" 
d="M648 -20q-193 0 -319.5 58.5t-188.5 183.5t-62 324q0 185 57.5 310t165.5 188.5t261 63.5q147 0 248.5 -63.5t153.5 -190.5t52 -316v-71h-790v158h590l-46 -22q0 124 -24 197t-71 104.5t-116 31.5t-118 -31t-74.5 -104t-25.5 -197v-102q0 -118 33.5 -188.5t108.5 -101
t201 -30.5q63 0 132 10t142 28v-201q-84 -21 -159.5 -30t-150.5 -9z" />
    <glyph glyph-name="f" unicode="f" horiz-adv-x="772" 
d="M210 0v1199q0 139 52 236.5t154 149t251 51.5q41 0 79.5 -3t75.5 -9v-209q-31 5 -59.5 7.5t-58.5 2.5q-120 0 -176.5 -50.5t-56.5 -163.5v-1211h-261zM23 882v209h755v-209h-755z" />
    <glyph glyph-name="g" unicode="g" horiz-adv-x="1194" 
d="M501 -460q-82 0 -173.5 11t-175.5 35v209q89 -26 173 -38t157 -12q166 0 242.5 65.5t76.5 221.5v84h-13q-48 -57 -121 -91t-168 -34q-112 0 -208 55t-154.5 172t-58.5 305q0 287 149 436t447 149q65 0 134 -6.5t134.5 -19.5t121.5 -31v-972q0 -286 -139.5 -412.5
t-423.5 -126.5zM594 207q57 0 112.5 21t94.5 66v594q-29 8 -68 13t-82 5q-149 0 -228.5 -83.5t-79.5 -276.5q0 -132 32 -206t88.5 -103.5t130.5 -29.5z" />
    <glyph glyph-name="h" unicode="h" horiz-adv-x="1192" 
d="M130 0v1616h263v-639h13q60 64 139.5 97.5t174.5 33.5q99 0 179 -40.5t126.5 -131.5t46.5 -241v-695h-263v678q0 114 -49 157.5t-131 43.5q-41 0 -84 -11t-82.5 -35.5t-69.5 -61.5v-771h-263z" />
    <glyph glyph-name="i" unicode="i" horiz-adv-x="524" 
d="M130 0v1091h263v-1091h-263zM262 1277q-84 0 -125.5 38t-41.5 105q0 68 41.5 105.5t125.5 37.5q85 0 126 -37.5t41 -105.5q0 -67 -41 -105t-126 -38z" />
    <glyph glyph-name="j" unicode="j" horiz-adv-x="524" 
d="M137 -469l-171 114q60 81 96 160.5t52 168.5t16 200v917h263v-905q0 -128 -25 -237t-81.5 -211t-149.5 -207zM259 1280q-84 0 -125.5 38t-41.5 105q0 68 41.5 105.5t125.5 37.5q85 0 126 -37.5t41 -105.5q0 -67 -41 -105t-126 -38z" />
    <glyph glyph-name="k" unicode="k" horiz-adv-x="1129" 
d="M870 0l-404 560l375 531h283l-390 -561v70l425 -600h-289zM368 453v213h195v-213h-195zM130 0v1616h263v-1616h-263z" />
    <glyph glyph-name="l" unicode="l" horiz-adv-x="523" 
d="M130 0v1616h263v-1616h-263z" />
    <glyph glyph-name="m" unicode="m" horiz-adv-x="1766" 
d="M130 0v1091h218l18 -116h13q60 66 138.5 99.5t171.5 33.5q95 0 170 -40t118 -129.5t43 -236.5v-702h-257v680q0 113 -43.5 156.5t-115.5 43.5q-37 0 -76 -11.5t-74 -36.5t-61 -64v-768h-263zM1383 0v680q0 113 -46 156.5t-119 43.5q-38 0 -79 -12t-78 -39.5t-64 -73.5
l-56 179q76 95 169.5 134.5t184.5 39.5q101 0 180 -40.5t124.5 -131.5t45.5 -242v-694h-262z" />
    <glyph glyph-name="n" unicode="n" horiz-adv-x="1192" 
d="M130 0v1091h218l18 -115h13q63 64 147 98t181 34q106 0 188.5 -41t129.5 -131.5t47 -241.5v-694h-263v679q0 113 -48 157t-132 44q-40 0 -83 -11t-83 -35t-70 -63v-771h-263z" />
    <glyph glyph-name="o" unicode="o" horiz-adv-x="1171" 
d="M586 -20q-155 0 -269 61t-176.5 185.5t-62.5 316.5q0 193 61 318t175 186t272 61t272 -61t174.5 -186t60.5 -317q0 -191 -62 -316.5t-176 -186.5t-269 -61zM586 182q76 0 130 33t83 111.5t29 215.5q0 139 -29 218.5t-83.5 112.5t-129.5 33q-76 0 -130.5 -33t-83.5 -111.5
t-29 -215.5q0 -139 29 -218.5t83.5 -112.5t130.5 -33z" />
    <glyph glyph-name="p" unicode="p" horiz-adv-x="1194" 
d="M130 -440v1531h222l16 -118h13q48 61 122.5 98t171.5 37q120 0 220.5 -54t160.5 -173t60 -315q0 -192 -65.5 -322.5t-194.5 -197t-319 -66.5q-37 0 -74.5 3t-69.5 7v-430h-263zM538 183q156 0 234.5 84t78.5 278q0 135 -32 210t-88 105.5t-129 30.5q-58 0 -114 -22.5
t-95 -72.5v-598q30 -6 69 -10.5t76 -4.5z" />
    <glyph glyph-name="q" unicode="q" horiz-adv-x="1194" 
d="M801 -440v546h-13q-48 -58 -121 -92t-168 -34q-114 0 -210 55t-153.5 174.5t-57.5 311.5q0 292 149 439.5t446 147.5q66 0 135 -6.5t134.5 -19.5t121.5 -31v-1491h-263zM594 198q57 0 112.5 21.5t94.5 65.5v603q-29 8 -68 13t-82 5q-149 0 -228.5 -84t-79.5 -279
q0 -134 32 -209t88.5 -105.5t130.5 -30.5z" />
    <glyph glyph-name="r" unicode="r" horiz-adv-x="779" 
d="M130 0v1091h216l21 -143h13q50 80 129 118t171 38q24 0 46.5 -2t40.5 -5v-239q-24 4 -50.5 5.5t-52.5 1.5q-49 0 -100 -13.5t-96 -40.5t-75 -68v-743h-263z" />
    <glyph glyph-name="s" unicode="s" horiz-adv-x="951" 
d="M430 -20q-90 0 -174 11.5t-159 34.5v197q80 -24 162.5 -36t167.5 -12q120 0 171 35.5t51 98.5q0 53 -28 81t-95 41l-167 32q-152 30 -220 106.5t-68 201.5q0 150 119.5 243.5t365.5 93.5q77 0 148.5 -8.5t131.5 -25.5v-197q-64 18 -132.5 27t-139.5 9q-96 0 -149.5 -18.5
t-75.5 -49.5t-22 -68q0 -45 27 -74.5t94 -43.5l166 -31q148 -29 219.5 -100.5t71.5 -207.5q0 -158 -120.5 -249t-344.5 -91z" />
    <glyph glyph-name="t" unicode="t" horiz-adv-x="810" 
d="M592 -20q-187 0 -288.5 94t-101.5 299v718l47 389h216v-1066q0 -121 47 -168t148 -47q28 0 57 3.5t64 10.5v-211q-42 -9 -91.5 -15.5t-97.5 -6.5zM15 882v209h756v-209h-756z" />
    <glyph glyph-name="u" unicode="u" horiz-adv-x="1183" 
d="M487 -19q-107 0 -189.5 41t-129.5 131.5t-47 240.5v697h262v-681q0 -113 48.5 -157t126.5 -44q39 0 81.5 11.5t81.5 36t69 61.5v773h263v-1091h-218l-18 113h-12q-64 -65 -146 -98.5t-172 -33.5z" />
    <glyph glyph-name="v" unicode="v" horiz-adv-x="1128" 
d="M398 0l-393 1091h275l303 -887h-23l303 887h260l-394 -1091h-331z" />
    <glyph glyph-name="w" unicode="w" horiz-adv-x="1769" 
d="M352 0l-303 1091h251l222 -841h-16l237 841h295l234 -841h-20l227 841h241l-301 -1091h-295l-246 871h18l-249 -871h-295z" />
    <glyph glyph-name="x" unicode="x" horiz-adv-x="1084" 
d="M794 0l-254 367l-153 182l-379 542h291l247 -354l150 -184l390 -553h-292zM1 0l386 549l159 188l245 354h283l-378 -538l-156 -186l-255 -367h-284z" />
    <glyph glyph-name="y" unicode="y" horiz-adv-x="1128" 
d="M311 -440l160 440l89 204l303 887h260l-553 -1531h-259zM398 0l-393 1091h275l364 -1091h-246z" />
    <glyph glyph-name="z" unicode="z" horiz-adv-x="980" 
d="M64 0v165l566 767v-50h-555v209h842v-166l-565 -767v51h576v-209h-864z" />
    <glyph glyph-name="braceleft" unicode="{" horiz-adv-x="736" 
d="M606 -460q-198 0 -299 95t-101 279v465q0 72 -37.5 108t-105.5 36h-44v209h44q68 0 105.5 36.5t37.5 107.5v386q0 185 101 279.5t299 94.5q47 0 88 -3.5t74 -8.5v-201h-121q-89 0 -133.5 -39t-44.5 -128v-372q0 -127 -65 -195t-216 -77v31q151 -8 216 -76.5t65 -195.5
v-451q0 -88 44.5 -127.5t133.5 -39.5h121v-201q-33 -5 -74 -8.5t-88 -3.5z" />
    <glyph glyph-name="bar" unicode="|" horiz-adv-x="530" 
d="M146 -440v2056h238v-2056h-238z" />
    <glyph glyph-name="braceright" unicode="}" horiz-adv-x="736" 
d="M130 -460q-47 0 -87.5 3.5t-74.5 8.5v201h121q89 0 133.5 39.5t44.5 127.5v451q0 127 66 195.5t215 76.5v-31q-149 9 -215 77t-66 195v372q0 89 -44.5 128t-133.5 39h-121v201q34 5 74.5 8.5t87.5 3.5q199 0 299.5 -94.5t100.5 -279.5v-386q0 -71 37.5 -107.5
t105.5 -36.5h44v-209h-44q-68 0 -105.5 -36t-37.5 -108v-465q0 -184 -100.5 -279t-299.5 -95z" />
    <glyph glyph-name="asciitilde" unicode="~" horiz-adv-x="1091" 
d="M736 599q-57 0 -109.5 20t-102.5 43q-45 20 -87.5 37t-85.5 17q-65 0 -117.5 -26.5t-105.5 -82.5v212q85 97 227 97q58 0 110.5 -20t101.5 -43q46 -21 88.5 -37.5t84.5 -16.5q66 0 119 26.5t104 82.5v-213q-84 -96 -227 -96z" />
    <glyph glyph-name="uni00A0" unicode="&#xa0;" horiz-adv-x="498" 
 />
    <glyph glyph-name="exclamdown" unicode="&#xa1;" horiz-adv-x="563" 
d="M202 643h162l57 -507v-516h-279v516zM282 1106q78 0 126 -44.5t48 -119.5q0 -74 -47 -119.5t-127 -45.5q-81 0 -128 45t-47 120q0 77 48 120.5t127 43.5z" />
    <glyph glyph-name="cent" unicode="&#xa2;" horiz-adv-x="936" 
d="M615 -20q-173 0 -293 60.5t-182 185.5t-62 318q0 194 67 319t195 185t311 60q64 0 122.5 -6.5t113.5 -19.5v-211q-53 11 -103 17t-100 6q-116 0 -190 -34.5t-109.5 -111t-35.5 -201.5q0 -128 34.5 -206t102.5 -112.5t169 -34.5q52 0 107 9.5t125 29.5v-211
q-61 -20 -130.5 -31t-141.5 -11zM478 -240v273h226v-273h-226zM478 1058v273h226v-273h-226z" />
    <glyph glyph-name="sterling" unicode="&#xa3;" horiz-adv-x="1316" 
d="M279 82v935q0 239 149 360.5t447 121.5q90 0 177 -11t157 -30v-220q-73 21 -156.5 32t-161.5 11q-126 0 -203.5 -25.5t-113 -81.5t-35.5 -147v-945h-260zM75 0v216h1177v-216h-1177zM75 651v198h947v-198h-947z" />
    <glyph glyph-name="currency" unicode="&#xa4;" horiz-adv-x="1220" 
d="M386 864l-181 151l-112 108l133 133l108 -111l152 -182zM834 864l-100 99l152 182l108 111l133 -133l-112 -108zM993 224l-108 111l-147 176l101 101l176 -147l111 -108zM227 224l-133 133l111 108l176 147l101 -101l-147 -176zM610 381q-103 0 -183 45t-125.5 125.5
t-45.5 188.5q0 107 45.5 187.5t125.5 125t183 44.5q102 0 182 -44.5t126 -125t46 -187.5q0 -108 -46 -188.5t-126 -125.5t-182 -45zM610 531q85 0 139.5 55t54.5 154q0 91 -51 150t-141 59q-86 0 -141 -55.5t-55 -153.5t55 -153.5t139 -55.5z" />
    <glyph glyph-name="yen" unicode="&#xa5;" horiz-adv-x="1269" 
d="M502 0v746l55 -197l-589 931h287l426 -678h-78l424 678h267l-579 -931l55 194v-743h-268zM188 275v161h896v-161h-896zM188 612v161h896v-161h-896z" />
    <glyph glyph-name="brokenbar" unicode="&#xa6;" horiz-adv-x="530" 
d="M146 836v780h238v-780h-238zM146 -440v780h238v-780h-238z" />
    <glyph glyph-name="section" unicode="&#xa7;" horiz-adv-x="1076" 
d="M460 -20q-79 0 -161 10.5t-157 30.5v187q81 -22 159 -32t157 -10q88 0 139.5 16t74 46.5t22.5 71.5q0 54 -28.5 82t-94.5 42l-196 39q-133 29 -203.5 102t-70.5 199q0 83 41.5 146.5t112.5 106.5l141 -96q-40 -33 -58.5 -68t-18.5 -75q0 -53 31 -88.5t107 -52.5l197 -39
q141 -30 210.5 -97.5t69.5 -185.5q0 -154 -119.5 -244.5t-354.5 -90.5zM813 457l-147 99q49 34 69.5 68t20.5 76q0 58 -31.5 92t-108.5 51l-196 39q-141 29 -212.5 98.5t-71.5 181.5q0 99 51.5 174.5t160.5 118t281 42.5q70 0 138 -7t128 -21v-187q-65 16 -125 22.5
t-123 6.5q-106 0 -165 -18.5t-82.5 -49.5t-23.5 -68q0 -46 28 -75.5t94 -44.5l201 -38q137 -28 206 -99t69 -200q0 -88 -43.5 -152.5t-117.5 -108.5z" />
    <glyph glyph-name="dieresis" unicode="&#xa8;" horiz-adv-x="1109" 
d="M835 1281q-71 0 -109.5 37t-38.5 102t38.5 102.5t109.5 37.5t109.5 -37.5t38.5 -102.5t-38.5 -102t-109.5 -37zM365 1281q-71 0 -109.5 37t-38.5 102t38.5 102.5t109.5 37.5t109.5 -37.5t38.5 -102.5t-38.5 -102t-109.5 -37z" />
    <glyph glyph-name="copyright" unicode="&#xa9;" horiz-adv-x="1677" 
d="M839 -22q-225 0 -393 95t-261.5 266.5t-93.5 400.5t93.5 400.5t261.5 266.5t393 95q224 0 392 -95t261.5 -266.5t93.5 -400.5t-93.5 -400.5t-261.5 -266.5t-392 -95zM892 324q-189 0 -303.5 105.5t-114.5 303.5q0 196 116 303.5t321 107.5q53 0 100 -6t92 -19v-166
q-46 11 -87.5 16t-88.5 5q-127 0 -191.5 -59.5t-64.5 -179.5q0 -121 63.5 -181t175.5 -60q43 0 88 7t105 25v-167q-44 -17 -97 -26t-114 -9zM839 125q184 0 317.5 75.5t205.5 213.5t72 326t-72 326t-205.5 213.5t-317.5 75.5q-185 0 -318.5 -75.5t-205.5 -213.5t-72 -326
t72 -326t205.5 -213.5t318.5 -75.5z" />
    <glyph glyph-name="ordfeminine" unicode="&#xaa;" horiz-adv-x="912" 
d="M339 594q-139 0 -214.5 69.5t-75.5 180.5q0 125 85 191.5t276 78.5l212 17l28 -125l-207 -16q-81 -6 -117 -35t-36 -82q0 -55 34 -84t100 -29q40 0 80.5 15t73.5 48v342q0 55 -20.5 88t-67.5 47t-125 14q-56 0 -120.5 -9t-126.5 -28v182q68 19 145 28.5t146 9.5
q141 0 232 -34t135 -113.5t44 -214.5v-525h-203l-18 91h-12q-41 -54 -106.5 -80.5t-141.5 -26.5z" />
    <glyph glyph-name="guillemotleft" unicode="&#xab;" horiz-adv-x="1148" 
d="M346 135l-252 430l252 431h268l-252 -431l252 -430h-268zM826 135l-252 430l252 431h268l-252 -431l252 -430h-268z" />
    <glyph glyph-name="logicalnot" unicode="&#xac;" horiz-adv-x="1333" 
d="M999 196v462h-871v204h1084v-666h-213z" />
    <glyph glyph-name="uni00AD" unicode="&#xad;" horiz-adv-x="884" 
d="M128 458v215h628v-215h-628z" />
    <glyph glyph-name="registered" unicode="&#xae;" horiz-adv-x="1460" 
d="M730 268q-181 0 -318.5 77.5t-214.5 216t-77 320.5t77 321t214.5 217t318.5 78t318.5 -78t214.5 -217t77 -321t-77 -320.5t-214.5 -216t-318.5 -77.5zM869 600l-146 212l117 26l163 -238h-134zM730 383q148 0 257.5 62t170 174t60.5 263q0 152 -60.5 264.5t-170 174.5
t-257.5 62q-147 0 -257 -62t-170 -174.5t-60 -264.5q0 -151 60 -263t170 -174t257 -62zM515 600v592h204q128 0 191.5 -49.5t63.5 -145.5t-62.5 -144.5t-192.5 -48.5h-81l-3 -204h-120zM638 904h101q117 0 117 93q0 95 -117 95h-101v-188z" />
    <glyph glyph-name="macron" unicode="&#xaf;" horiz-adv-x="1109" 
d="M261 1340v162h678v-162h-678z" />
    <glyph glyph-name="degree" unicode="&#xb0;" horiz-adv-x="974" 
d="M487 772q-106 0 -189 47t-130.5 129t-47.5 187q0 106 47.5 188t130.5 128.5t189 46.5t189 -46.5t130.5 -128.5t47.5 -188q0 -105 -47.5 -187t-130.5 -129t-189 -47zM487 930q86 0 142.5 55.5t56.5 149.5q0 96 -57 150.5t-142 54.5t-141.5 -54.5t-56.5 -149.5t56.5 -150.5
t141.5 -55.5z" />
    <glyph glyph-name="plusminus" unicode="&#xb1;" horiz-adv-x="1091" 
d="M439 361v309h-311v204h311v310h213v-310h311v-204h-311v-309h-213zM128 1v203h835v-203h-835z" />
    <glyph glyph-name="uni00B2" unicode="&#xb2;" horiz-adv-x="831" 
d="M84 616v112l287 349q66 82 95.5 138.5t29.5 106.5q0 72 -46.5 105.5t-150.5 33.5q-60 0 -119.5 -10.5t-107.5 -28.5v170q50 18 118.5 27.5t138.5 9.5q184 0 280.5 -68.5t96.5 -218.5q0 -78 -35.5 -154t-117.5 -175l-231 -277l-3 53h432v-173h-667z" />
    <glyph glyph-name="uni00B3" unicode="&#xb3;" horiz-adv-x="831" 
d="M336 603q-68 0 -136.5 9t-130.5 26v158q63 -18 131 -27.5t127 -9.5q115 0 168 38t53 109q0 69 -48.5 105.5t-160.5 36.5h-160v159h124q108 0 158.5 36.5t50.5 100.5q0 63 -47 96t-146 33q-56 0 -117.5 -9.5t-113.5 -29.5v159q49 16 119 26t135 10q185 0 278.5 -69.5
t93.5 -196.5q0 -92 -53 -153.5t-146 -82.5v12q112 -16 172.5 -78.5t60.5 -167.5q0 -136 -102.5 -213t-309.5 -77z" />
    <glyph glyph-name="acute" unicode="&#xb4;" horiz-adv-x="1109" 
d="M480 1240l221 376h280l-261 -376h-240z" />
    <glyph glyph-name="uni00B5" unicode="&#xb5;" horiz-adv-x="1183" 
d="M538 -19q-86 0 -151 41t-101 131.5t-36 240.5v201h133v-185q0 -113 48.5 -157t127.5 -44q38 0 80.5 11.5t81.5 36t69 61.5v773h263v-1091h-218l-18 113h-12q-54 -65 -122.5 -98.5t-144.5 -33.5zM121 -440v1530h262v-1530h-262z" />
    <glyph glyph-name="paragraph" unicode="&#xb6;" horiz-adv-x="1287" 
d="M630 0v454q-27 -3 -52.5 -4t-55.5 -1q-224 0 -333.5 133.5t-109.5 390.5q0 272 114 398t350 126q73 0 144 -4.5t134 -12.5v-1480h-191zM951 0v1480h190v-1480h-190z" />
    <glyph glyph-name="periodcentered" unicode="&#xb7;" horiz-adv-x="523" 
d="M262 395q-79 0 -127 44.5t-48 119.5q0 77 47 121t128 44q80 0 127 -45t47 -120q0 -74 -48 -119t-126 -45z" />
    <glyph glyph-name="cedilla" unicode="&#xb8;" horiz-adv-x="1109" 
d="M599 -433q-48 0 -94 9t-83 24v108q41 -18 85.5 -26t80.5 -8q53 0 79 18t26 58q0 77 -106 77h-43v193h131v-151l-61 42q109 0 165 -45.5t56 -126.5q0 -79 -59 -125.5t-177 -46.5z" />
    <glyph glyph-name="uni00B9" unicode="&#xb9;" horiz-adv-x="831" 
d="M352 641v855l75 -64l-291 -193v188l291 193h137v-979h-212zM134 616v173h636v-173h-636z" />
    <glyph glyph-name="ordmasculine" unicode="&#xba;" horiz-adv-x="986" 
d="M493 594q-205 0 -321 114.5t-116 338.5t116 337t321 113t321 -114t116 -336q0 -149 -52.5 -249.5t-150.5 -152t-234 -51.5zM493 777q59 0 102 25t66.5 84t23.5 161t-23.5 160.5t-66.5 82.5t-102 24q-58 0 -101.5 -24t-67 -82.5t-23.5 -160.5t23.5 -161t67 -84t101.5 -25z
" />
    <glyph glyph-name="guillemotright" unicode="&#xbb;" horiz-adv-x="1148" 
d="M54 135l252 430l-252 431h268l252 -431l-252 -430h-268zM534 135l252 430l-252 431h268l252 -431l-252 -430h-268z" />
    <glyph glyph-name="onequarter" unicode="&#xbc;" horiz-adv-x="1999" 
d="M352 641v855l75 -64l-291 -193v188l291 193h137v-979h-212zM134 616v173h636v-173h-636zM489 -136l800 1752h221l-801 -1752h-220zM1195 73v114l329 677h198l-327 -677l-21 47h602v-161h-781zM1661 -136v370l38 292h149v-662h-187z" />
    <glyph glyph-name="onehalf" unicode="&#xbd;" horiz-adv-x="1999" 
d="M352 641v855l75 -64l-291 -193v188l291 193h137v-979h-212zM134 616v173h636v-173h-636zM489 -136l800 1752h221l-801 -1752h-220zM1252 -136v112l287 349q66 82 95.5 138.5t29.5 106.5q0 72 -46.5 105.5t-150.5 33.5q-60 0 -119.5 -10.5t-107.5 -28.5v170
q50 18 118.5 27.5t138.5 9.5q184 0 280.5 -68.5t96.5 -218.5q-1 -78 -36 -154t-117 -175l-231 -277l-3 53h432v-173h-667z" />
    <glyph glyph-name="threequarters" unicode="&#xbe;" horiz-adv-x="1999" 
d="M336 603q-68 0 -136.5 9t-130.5 26v158q63 -18 131 -27.5t127 -9.5q115 0 168 38t53 109q0 69 -48.5 105.5t-160.5 36.5h-160v159h124q108 0 158.5 36.5t50.5 100.5q0 63 -47 96t-146 33q-56 0 -117.5 -9.5t-113.5 -29.5v159q49 16 119 26t135 10q185 0 278.5 -69.5
t93.5 -196.5q0 -92 -53 -153.5t-146 -82.5v12q112 -16 172.5 -78.5t60.5 -167.5q0 -136 -102.5 -213t-309.5 -77zM489 -136l800 1752h221l-801 -1752h-220zM1195 73v114l329 677h198l-327 -677l-21 47h602v-161h-781zM1661 -136v370l38 292h149v-662h-187z" />
    <glyph glyph-name="questiondown" unicode="&#xbf;" horiz-adv-x="960" 
d="M611 664l46 -381q-134 -33 -209.5 -72.5t-106 -89.5t-30.5 -113q0 -96 70 -148t216 -52q83 0 168.5 14.5t160.5 41.5v-209q-47 -17 -107 -29t-124.5 -19t-125.5 -7q-255 0 -385 102t-130 285q0 105 41 185t124.5 138.5t209.5 100.5l20 253h162zM530 1106
q79 0 126.5 -42.5t47.5 -114.5q0 -71 -46.5 -114t-127.5 -43q-80 0 -127 43.5t-47 113.5q0 71 47.5 114t126.5 43z" />
    <glyph glyph-name="Agrave" unicode="&#xc0;" horiz-adv-x="1419" 
d="M19 0l497 1480h387l497 -1480h-265l-443 1361h31l-442 -1361h-262zM333 425l58 215h636l58 -215h-752zM590 1600l-220 296h278l180 -296h-238z" />
    <glyph glyph-name="Aacute" unicode="&#xc1;" horiz-adv-x="1419" 
d="M19 0l497 1480h387l497 -1480h-265l-443 1361h31l-442 -1361h-262zM333 425l58 215h636l58 -215h-752zM589 1600l180 296h278l-220 -296h-238z" />
    <glyph glyph-name="Acircumflex" unicode="&#xc2;" horiz-adv-x="1419" 
d="M19 0l497 1480h387l497 -1480h-265l-443 1361h31l-442 -1361h-262zM333 425l58 215h636l58 -215h-752zM343 1600l252 296h228l252 -296h-206l-182 222h44l-182 -222h-206z" />
    <glyph glyph-name="Atilde" unicode="&#xc3;" horiz-adv-x="1419" 
d="M19 0l497 1480h387l497 -1480h-265l-443 1361h31l-442 -1361h-262zM333 425l58 215h636l58 -215h-752zM875 1636q-52 0 -96 13t-86 28q-38 14 -76 24.5t-78 10.5q-59 0 -102.5 -17t-87.5 -53v158q37 35 83.5 52t110.5 17q52 0 96.5 -12.5t85.5 -28.5q39 -13 76.5 -24.5
t77.5 -11.5q59 0 103 17.5t87 53.5v-158q-37 -35 -83.5 -52t-110.5 -17z" />
    <glyph glyph-name="Adieresis" unicode="&#xc4;" horiz-adv-x="1419" 
d="M19 0l497 1480h387l497 -1480h-265l-443 1361h31l-442 -1361h-262zM333 425l58 215h636l58 -215h-752zM958 1625q-72 0 -109.5 33.5t-37.5 92.5q0 60 37.5 93.5t109.5 33.5t109.5 -33.5t37.5 -93.5q0 -59 -37.5 -92.5t-109.5 -33.5zM460 1625q-72 0 -109.5 33.5
t-37.5 92.5q0 60 37.5 93.5t109.5 33.5t109.5 -33.5t37.5 -93.5q0 -59 -37.5 -92.5t-109.5 -33.5z" />
    <glyph glyph-name="Aring" unicode="&#xc5;" horiz-adv-x="1419" 
d="M19 0l497 1480h387l497 -1480h-265l-443 1361h31l-442 -1361h-262zM333 425l58 215h636l58 -215h-752zM709 1589q-90 0 -149 57.5t-59 145.5q0 89 59 146.5t149 57.5t149 -57.5t59 -146.5q0 -88 -59 -145.5t-149 -57.5zM709 1688q45 0 73.5 28t28.5 76q0 49 -28.5 77
t-73.5 28q-44 0 -73 -28t-29 -77q0 -48 28.5 -76t73.5 -28z" />
    <glyph glyph-name="AE" unicode="&#xc6;" horiz-adv-x="1950" 
d="M19 0l502 1480h461l-1 -217h-279l-419 -1263h-264zM335 424l59 217h611v-217h-670zM964 0l-107 1480h1011v-217h-736l80 -1046h666v-217h-914zM1051 649v217h717v-217h-717z" />
    <glyph glyph-name="Ccedilla" unicode="&#xc7;" horiz-adv-x="1207" 
d="M827 -19q-173 0 -309.5 42.5t-231.5 133t-145 234.5t-50 346q0 259 88.5 428t256.5 251.5t407 82.5q85 0 164 -9.5t155 -28.5v-223q-73 19 -147.5 28t-152.5 9q-163 0 -272 -53t-163.5 -170.5t-54.5 -310.5q0 -199 55 -316.5t161.5 -168.5t262.5 -51q78 0 154 12t157 37
v-223q-72 -23 -158 -36.5t-177 -13.5zM722 -433q-54 0 -104.5 9t-94.5 25v108q50 -18 97.5 -26.5t89.5 -8.5q60 0 92 17.5t32 57.5q0 41 -32.5 59.5t-92.5 18.5h-46v193h132v-151l-56 42q115 0 176.5 -43.5t61.5 -126.5q0 -82 -64 -128t-191 -46z" />
    <glyph glyph-name="Egrave" unicode="&#xc8;" horiz-adv-x="1223" 
d="M146 0v1480h995v-217h-731v-1046h741v-217h-1005zM307 649v217h734v-217h-734zM547 1600l-220 296h278l180 -296h-238z" />
    <glyph glyph-name="Eacute" unicode="&#xc9;" horiz-adv-x="1223" 
d="M146 0v1480h995v-217h-731v-1046h741v-217h-1005zM307 649v217h734v-217h-734zM546 1600l180 296h278l-220 -296h-238z" />
    <glyph glyph-name="Ecircumflex" unicode="&#xca;" horiz-adv-x="1223" 
d="M146 0v1480h995v-217h-731v-1046h741v-217h-1005zM307 649v217h734v-217h-734zM300 1600l252 296h228l252 -296h-206l-182 222h44l-182 -222h-206z" />
    <glyph glyph-name="Edieresis" unicode="&#xcb;" horiz-adv-x="1223" 
d="M146 0v1480h995v-217h-731v-1046h741v-217h-1005zM307 649v217h734v-217h-734zM915 1625q-72 0 -109.5 33.5t-37.5 92.5q0 60 37.5 93.5t109.5 33.5t109.5 -33.5t37.5 -93.5q0 -59 -37.5 -92.5t-109.5 -33.5zM417 1625q-72 0 -109.5 33.5t-37.5 92.5q0 60 37.5 93.5
t109.5 33.5t109.5 -33.5t37.5 -93.5q0 -59 -37.5 -92.5t-109.5 -33.5z" />
    <glyph glyph-name="Igrave" unicode="&#xcc;" horiz-adv-x="559" 
d="M146 0v1480h267v-1480h-267zM161 1600l-220 296h278l180 -296h-238z" />
    <glyph glyph-name="Iacute" unicode="&#xcd;" horiz-adv-x="559" 
d="M146 0v1480h267v-1480h-267zM160 1600l180 296h278l-220 -296h-238z" />
    <glyph glyph-name="Icircumflex" unicode="&#xce;" horiz-adv-x="559" 
d="M146 0v1480h267v-1480h-267zM-86 1600l252 296h228l252 -296h-206l-182 222h44l-182 -222h-206z" />
    <glyph glyph-name="Idieresis" unicode="&#xcf;" horiz-adv-x="559" 
d="M146 0v1480h267v-1480h-267zM529 1625q-72 0 -109.5 33.5t-37.5 92.5q0 60 37.5 93.5t109.5 33.5t109.5 -33.5t37.5 -93.5q0 -59 -37.5 -92.5t-109.5 -33.5zM31 1625q-72 0 -109.5 33.5t-37.5 92.5q0 60 37.5 93.5t109.5 33.5t109.5 -33.5t37.5 -93.5q0 -59 -37.5 -92.5
t-109.5 -33.5z" />
    <glyph glyph-name="Eth" unicode="&#xd0;" horiz-adv-x="1465" 
d="M3 675v174h704v-174h-704zM532 -14q-60 0 -123.5 2.5t-129.5 7.5t-133 13v1441q65 14 139.5 24.5t151 16t149.5 5.5q390 0 588.5 -184.5t198.5 -571.5q0 -264 -93 -430.5t-280 -245t-468 -78.5zM598 206q167 0 278.5 53.5t166.5 171.5t55 310q0 191 -55 309t-165.5 172.5
t-274.5 54.5q-44 0 -93.5 -4.5t-96.5 -12.5v-1045q45 -5 89.5 -7t95.5 -2z" />
    <glyph glyph-name="Ntilde" unicode="&#xd1;" horiz-adv-x="1517" 
d="M146 0v1480h270l753 -1154h-50v1154h252v-1480h-270l-753 1154h50v-1154h-252zM925 1636q-52 0 -96 13t-86 28q-38 14 -76 24.5t-78 10.5q-59 0 -102.5 -17t-87.5 -53v158q37 35 83.5 52t110.5 17q52 0 96.5 -12.5t85.5 -28.5q39 -13 76.5 -24.5t77.5 -11.5
q59 0 103 17.5t87 53.5v-158q-37 -35 -83.5 -52t-110.5 -17z" />
    <glyph glyph-name="Ograve" unicode="&#xd2;" horiz-adv-x="1519" 
d="M759 -19q-201 0 -351 81t-233.5 249t-83.5 429t83.5 429t233.5 249t351 81q202 0 352 -81t233 -249.5t83 -428.5t-83 -428.5t-233.5 -249.5t-351.5 -81zM759 200q122 0 210 53t135.5 170.5t47.5 310.5q0 199 -48 319t-136 173.5t-209 53.5q-120 0 -208.5 -52.5
t-136.5 -170t-48 -311.5q0 -200 48 -320t136 -173t209 -53zM640 1600l-220 296h278l180 -296h-238z" />
    <glyph glyph-name="Oacute" unicode="&#xd3;" horiz-adv-x="1519" 
d="M759 -19q-201 0 -351 81t-233.5 249t-83.5 429t83.5 429t233.5 249t351 81q202 0 352 -81t233 -249.5t83 -428.5t-83 -428.5t-233.5 -249.5t-351.5 -81zM759 200q122 0 210 53t135.5 170.5t47.5 310.5q0 199 -48 319t-136 173.5t-209 53.5q-120 0 -208.5 -52.5
t-136.5 -170t-48 -311.5q0 -200 48 -320t136 -173t209 -53zM639 1600l180 296h278l-220 -296h-238z" />
    <glyph glyph-name="Ocircumflex" unicode="&#xd4;" horiz-adv-x="1519" 
d="M759 -19q-201 0 -351 81t-233.5 249t-83.5 429t83.5 429t233.5 249t351 81q202 0 352 -81t233 -249.5t83 -428.5t-83 -428.5t-233.5 -249.5t-351.5 -81zM759 200q122 0 210 53t135.5 170.5t47.5 310.5q0 199 -48 319t-136 173.5t-209 53.5q-120 0 -208.5 -52.5
t-136.5 -170t-48 -311.5q0 -200 48 -320t136 -173t209 -53zM393 1600l252 296h228l252 -296h-206l-182 222h44l-182 -222h-206z" />
    <glyph glyph-name="Otilde" unicode="&#xd5;" horiz-adv-x="1519" 
d="M759 -19q-201 0 -351 81t-233.5 249t-83.5 429t83.5 429t233.5 249t351 81q202 0 352 -81t233 -249.5t83 -428.5t-83 -428.5t-233.5 -249.5t-351.5 -81zM759 200q122 0 210 53t135.5 170.5t47.5 310.5q0 199 -48 319t-136 173.5t-209 53.5q-120 0 -208.5 -52.5
t-136.5 -170t-48 -311.5q0 -200 48 -320t136 -173t209 -53zM925 1636q-52 0 -96 13t-86 28q-38 14 -76 24.5t-78 10.5q-59 0 -102.5 -17t-87.5 -53v158q37 35 83.5 52t110.5 17q52 0 96.5 -12.5t85.5 -28.5q39 -13 76.5 -24.5t77.5 -11.5q59 0 103 17.5t87 53.5v-158
q-37 -35 -83.5 -52t-110.5 -17z" />
    <glyph glyph-name="Odieresis" unicode="&#xd6;" horiz-adv-x="1519" 
d="M759 -19q-201 0 -351 81t-233.5 249t-83.5 429t83.5 429t233.5 249t351 81q202 0 352 -81t233 -249.5t83 -428.5t-83 -428.5t-233.5 -249.5t-351.5 -81zM759 200q122 0 210 53t135.5 170.5t47.5 310.5q0 199 -48 319t-136 173.5t-209 53.5q-120 0 -208.5 -52.5
t-136.5 -170t-48 -311.5q0 -200 48 -320t136 -173t209 -53zM1008 1625q-72 0 -109.5 33.5t-37.5 92.5q0 60 37.5 93.5t109.5 33.5t109.5 -33.5t37.5 -93.5q0 -59 -37.5 -92.5t-109.5 -33.5zM510 1625q-72 0 -109.5 33.5t-37.5 92.5q0 60 37.5 93.5t109.5 33.5t109.5 -33.5
t37.5 -93.5q0 -59 -37.5 -92.5t-109.5 -33.5z" />
    <glyph glyph-name="multiply" unicode="&#xd7;" horiz-adv-x="1026" 
d="M241 345l-143 143l272 272l-272 272l143 143l272 -272l272 272l143 -143l-272 -272l272 -272l-143 -143l-272 272z" />
    <glyph glyph-name="Oslash" unicode="&#xd8;" horiz-adv-x="1519" 
d="M285 -2h-188l1134 1483h187zM759 -19q-201 0 -351 81t-233.5 249t-83.5 429t83.5 429t233.5 249t351 81q202 0 352 -81t233 -249.5t83 -428.5t-83 -428.5t-233.5 -249.5t-351.5 -81zM759 200q122 0 210 53t135.5 170.5t47.5 310.5q0 199 -48 319t-136 173.5t-209 53.5
q-120 0 -208.5 -52.5t-136.5 -170t-48 -311.5q0 -200 48 -320t136 -173t209 -53z" />
    <glyph glyph-name="Ugrave" unicode="&#xd9;" horiz-adv-x="1467" 
d="M737 -19q-207 0 -339 66.5t-195.5 202.5t-63.5 344v886h268v-912q0 -192 81 -278.5t249 -86.5t248.5 86.5t80.5 278.5v912h263v-886q0 -208 -63 -344t-194 -202.5t-335 -66.5zM618 1600l-220 296h278l180 -296h-238z" />
    <glyph glyph-name="Uacute" unicode="&#xda;" horiz-adv-x="1467" 
d="M737 -19q-207 0 -339 66.5t-195.5 202.5t-63.5 344v886h268v-912q0 -192 81 -278.5t249 -86.5t248.5 86.5t80.5 278.5v912h263v-886q0 -208 -63 -344t-194 -202.5t-335 -66.5zM617 1600l180 296h278l-220 -296h-238z" />
    <glyph glyph-name="Ucircumflex" unicode="&#xdb;" horiz-adv-x="1467" 
d="M737 -19q-207 0 -339 66.5t-195.5 202.5t-63.5 344v886h268v-912q0 -192 81 -278.5t249 -86.5t248.5 86.5t80.5 278.5v912h263v-886q0 -208 -63 -344t-194 -202.5t-335 -66.5zM371 1600l252 296h228l252 -296h-206l-182 222h44l-182 -222h-206z" />
    <glyph glyph-name="Udieresis" unicode="&#xdc;" horiz-adv-x="1467" 
d="M737 -19q-207 0 -339 66.5t-195.5 202.5t-63.5 344v886h268v-912q0 -192 81 -278.5t249 -86.5t248.5 86.5t80.5 278.5v912h263v-886q0 -208 -63 -344t-194 -202.5t-335 -66.5zM986 1625q-72 0 -109.5 33.5t-37.5 92.5q0 60 37.5 93.5t109.5 33.5t109.5 -33.5t37.5 -93.5
q0 -59 -37.5 -92.5t-109.5 -33.5zM488 1625q-72 0 -109.5 33.5t-37.5 92.5q0 60 37.5 93.5t109.5 33.5t109.5 -33.5t37.5 -93.5q0 -59 -37.5 -92.5t-109.5 -33.5z" />
    <glyph glyph-name="Yacute" unicode="&#xdd;" horiz-adv-x="1247" 
d="M491 0v746l55 -197l-591 931h287l428 -678h-79l423 678h267l-578 -931l56 194v-743h-268zM504 1600l180 296h278l-220 -296h-238z" />
    <glyph glyph-name="Thorn" unicode="&#xde;" horiz-adv-x="1297" 
d="M146 0v1480h267v-207q34 5 76 8.5t89 3.5q312 0 471 -126t159 -399q0 -257 -157 -390.5t-474 -133.5q-44 0 -82.5 2t-81.5 5v-243h-267zM578 441q193 0 281 75.5t88 241.5q0 169 -87 245.5t-267 76.5q-52 0 -95 -3.5t-85 -10.5v-616q41 -5 80 -7t85 -2z" />
    <glyph glyph-name="germandbls" unicode="&#xdf;" horiz-adv-x="1505" 
d="M970 -20q-78 0 -161 10t-158 31v197q51 -14 104.5 -23.5t107 -14.5t104.5 -5q131 0 183.5 35.5t52.5 98.5q0 53 -27.5 81t-95.5 41l-167 32q-152 29 -220 105.5t-68 201.5q0 151 117.5 241t353.5 90q20 0 47.5 -1t55 -3t49.5 -4l-147 -116q11 42 17 86t6 87
q0 110 -39.5 175.5t-109 95t-159.5 29.5q-113 0 -189.5 -40t-115 -125t-38.5 -219v-1066h-263v1065q0 184 70 311.5t201 193.5t316 66q151 0 268 -52.5t183.5 -163.5t66.5 -288q0 -60 -9 -119.5t-23 -110.5q-32 5 -69 8t-84 3q-101 0 -157.5 -18.5t-78.5 -49.5t-22 -68
q0 -45 27 -74.5t93 -43.5l167 -31q148 -29 219 -100.5t71 -207.5q0 -158 -122 -249t-357 -91zM23 878v213h292v-213h-292z" />
    <glyph glyph-name="agrave" unicode="&#xe0;" horiz-adv-x="1086" 
d="M419 -19q-163 0 -254.5 84.5t-91.5 224.5q0 150 102.5 234.5t330.5 101.5l252 24l28 -152l-255 -23q-105 -10 -151 -50t-46 -110q0 -71 42 -109t124 -38q54 0 109 21t100 70v429q0 83 -26.5 130.5t-84 67t-149.5 19.5q-62 0 -141 -11t-154 -34v201q77 23 168.5 35
t171.5 12q161 0 265.5 -40.5t155.5 -136t51 -259.5v-672h-217l-19 113h-13q-50 -67 -128.5 -99.5t-169.5 -32.5zM420 1240l-261 376h280l221 -376h-240z" />
    <glyph glyph-name="aacute" unicode="&#xe1;" horiz-adv-x="1086" 
d="M419 -19q-163 0 -254.5 84.5t-91.5 224.5q0 150 102.5 234.5t330.5 101.5l252 24l28 -152l-255 -23q-105 -10 -151 -50t-46 -110q0 -71 42 -109t124 -38q54 0 109 21t100 70v429q0 83 -26.5 130.5t-84 67t-149.5 19.5q-62 0 -141 -11t-154 -34v201q77 23 168.5 35
t171.5 12q161 0 265.5 -40.5t155.5 -136t51 -259.5v-672h-217l-19 113h-13q-50 -67 -128.5 -99.5t-169.5 -32.5zM420 1240l221 376h280l-261 -376h-240z" />
    <glyph glyph-name="acircumflex" unicode="&#xe2;" horiz-adv-x="1086" 
d="M419 -19q-163 0 -254.5 84.5t-91.5 224.5q0 150 102.5 234.5t330.5 101.5l252 24l28 -152l-255 -23q-105 -10 -151 -50t-46 -110q0 -71 42 -109t124 -38q54 0 109 21t100 70v429q0 83 -26.5 130.5t-84 67t-149.5 19.5q-62 0 -141 -11t-154 -34v201q77 23 168.5 35
t171.5 12q161 0 265.5 -40.5t155.5 -136t51 -259.5v-672h-217l-19 113h-13q-50 -67 -128.5 -99.5t-169.5 -32.5zM201 1240l229 376h220l229 -376h-193l-167 287h42l-167 -287h-193z" />
    <glyph glyph-name="atilde" unicode="&#xe3;" horiz-adv-x="1086" 
d="M419 -19q-163 0 -254.5 84.5t-91.5 224.5q0 150 102.5 234.5t330.5 101.5l252 24l28 -152l-255 -23q-105 -10 -151 -50t-46 -110q0 -71 42 -109t124 -38q54 0 109 21t100 70v429q0 83 -26.5 130.5t-84 67t-149.5 19.5q-62 0 -141 -11t-154 -34v201q77 23 168.5 35
t171.5 12q161 0 265.5 -40.5t155.5 -136t51 -259.5v-672h-217l-19 113h-13q-50 -67 -128.5 -99.5t-169.5 -32.5zM693 1306q-47 0 -88.5 15.5t-80.5 32.5q-36 16 -70.5 28.5t-70.5 12.5q-53 0 -96 -19.5t-86 -62.5v170q71 74 186 74q47 0 89 -15t80 -33q37 -15 71.5 -28
t69.5 -13q54 0 97 20t85 62v-170q-71 -74 -186 -74z" />
    <glyph glyph-name="adieresis" unicode="&#xe4;" horiz-adv-x="1086" 
d="M419 -19q-163 0 -254.5 84.5t-91.5 224.5q0 150 102.5 234.5t330.5 101.5l252 24l28 -152l-255 -23q-105 -10 -151 -50t-46 -110q0 -71 42 -109t124 -38q54 0 109 21t100 70v429q0 83 -26.5 130.5t-84 67t-149.5 19.5q-62 0 -141 -11t-154 -34v201q77 23 168.5 35
t171.5 12q161 0 265.5 -40.5t155.5 -136t51 -259.5v-672h-217l-19 113h-13q-50 -67 -128.5 -99.5t-169.5 -32.5zM775 1281q-71 0 -109.5 37t-38.5 102t38.5 102.5t109.5 37.5t109.5 -37.5t38.5 -102.5t-38.5 -102t-109.5 -37zM305 1281q-71 0 -109.5 37t-38.5 102
t38.5 102.5t109.5 37.5t109.5 -37.5t38.5 -102.5t-38.5 -102t-109.5 -37z" />
    <glyph glyph-name="aring" unicode="&#xe5;" horiz-adv-x="1086" 
d="M419 -19q-163 0 -254.5 84.5t-91.5 224.5q0 150 102.5 234.5t330.5 101.5l252 24l28 -152l-255 -23q-105 -10 -151 -50t-46 -110q0 -71 42 -109t124 -38q54 0 109 21t100 70v429q0 83 -26.5 130.5t-84 67t-149.5 19.5q-62 0 -141 -11t-154 -34v201q77 23 168.5 35
t171.5 12q161 0 265.5 -40.5t155.5 -136t51 -259.5v-672h-217l-19 113h-13q-50 -67 -128.5 -99.5t-169.5 -32.5zM540 1235q-90 0 -149 57.5t-59 146.5q0 88 59 145.5t149 57.5t149 -57.5t59 -145.5q0 -89 -59 -146.5t-149 -57.5zM540 1334q45 0 73.5 28.5t28.5 76.5
t-28.5 76t-73.5 28q-44 0 -73 -28t-29 -76t28.5 -76.5t73.5 -28.5z" />
    <glyph glyph-name="ae" unicode="&#xe6;" horiz-adv-x="1698" 
d="M1268 -20q-189 0 -312.5 58.5t-184 183.5t-60.5 325l40 20q0 174 52.5 295t151.5 183.5t238 62.5q138 0 236.5 -62.5t151 -189t52.5 -317.5v-72h-716v158h516l-46 -24q0 126 -24 199.5t-70.5 105t-113.5 31.5q-68 0 -115.5 -31.5t-72.5 -104.5t-25 -197v-102
q0 -118 33 -188.5t107 -101t197 -30.5q62 0 131 10t141 28v-201q-83 -21 -158.5 -30t-148.5 -9zM441 -19q-118 0 -200.5 38t-125 107.5t-42.5 165.5q0 98 45.5 173t144.5 117.5t259 42.5h242v-153h-219q-78 0 -124.5 -20.5t-66.5 -56.5t-20 -82q0 -70 43 -107.5t126 -37.5
q69 0 134.5 30.5t122.5 110.5l79 -129q-86 -113 -188 -156t-210 -43zM711 547v140q0 84 -28 131.5t-86 67t-149 19.5q-61 0 -140 -11t-153 -34v201q80 24 165.5 35.5t162.5 11.5q152 0 250.5 -42.5t146 -136.5t47.5 -249v-142z" />
    <glyph glyph-name="ccedilla" unicode="&#xe7;" horiz-adv-x="931" 
d="M615 -20q-173 0 -293 60.5t-182 185.5t-62 318q0 194 67 319t195 185t311 60q63 0 122.5 -6.5t113.5 -19.5v-211q-52 11 -102 17t-100 6q-115 0 -189.5 -34.5t-110.5 -111t-36 -201.5q0 -128 34.5 -206t102.5 -112.5t169 -34.5q52 0 107 9.5t125 29.5v-211
q-61 -20 -130.5 -31t-141.5 -11zM540 -433q-48 0 -94 9t-83 24v108q41 -18 85.5 -26t80.5 -8q53 0 79 18t26 58q0 77 -106 77h-43v193h131v-151l-61 42q109 0 165 -45.5t56 -126.5q0 -79 -59 -125.5t-177 -46.5z" />
    <glyph glyph-name="egrave" unicode="&#xe8;" horiz-adv-x="1081" 
d="M648 -20q-193 0 -319.5 58.5t-188.5 183.5t-62 324q0 185 57.5 310t165.5 188.5t261 63.5q147 0 248.5 -63.5t153.5 -190.5t52 -316v-71h-790v158h590l-46 -22q0 124 -24 197t-71 104.5t-116 31.5t-118 -31t-74.5 -104t-25.5 -197v-102q0 -118 33.5 -188.5t108.5 -101
t201 -30.5q63 0 132 10t142 28v-201q-84 -21 -159.5 -30t-150.5 -9zM437 1240l-261 376h280l221 -376h-240z" />
    <glyph glyph-name="eacute" unicode="&#xe9;" horiz-adv-x="1081" 
d="M648 -20q-193 0 -319.5 58.5t-188.5 183.5t-62 324q0 185 57.5 310t165.5 188.5t261 63.5q147 0 248.5 -63.5t153.5 -190.5t52 -316v-71h-790v158h590l-46 -22q0 124 -24 197t-71 104.5t-116 31.5t-118 -31t-74.5 -104t-25.5 -197v-102q0 -118 33.5 -188.5t108.5 -101
t201 -30.5q63 0 132 10t142 28v-201q-84 -21 -159.5 -30t-150.5 -9zM437 1240l221 376h280l-261 -376h-240z" />
    <glyph glyph-name="ecircumflex" unicode="&#xea;" horiz-adv-x="1081" 
d="M648 -20q-193 0 -319.5 58.5t-188.5 183.5t-62 324q0 185 57.5 310t165.5 188.5t261 63.5q147 0 248.5 -63.5t153.5 -190.5t52 -316v-71h-790v158h590l-46 -22q0 124 -24 197t-71 104.5t-116 31.5t-118 -31t-74.5 -104t-25.5 -197v-102q0 -118 33.5 -188.5t108.5 -101
t201 -30.5q63 0 132 10t142 28v-201q-84 -21 -159.5 -30t-150.5 -9zM218 1240l229 376h220l229 -376h-193l-167 287h42l-167 -287h-193z" />
    <glyph glyph-name="edieresis" unicode="&#xeb;" horiz-adv-x="1081" 
d="M648 -20q-193 0 -319.5 58.5t-188.5 183.5t-62 324q0 185 57.5 310t165.5 188.5t261 63.5q147 0 248.5 -63.5t153.5 -190.5t52 -316v-71h-790v158h590l-46 -22q0 124 -24 197t-71 104.5t-116 31.5t-118 -31t-74.5 -104t-25.5 -197v-102q0 -118 33.5 -188.5t108.5 -101
t201 -30.5q63 0 132 10t142 28v-201q-84 -21 -159.5 -30t-150.5 -9zM792 1281q-71 0 -109.5 37t-38.5 102t38.5 102.5t109.5 37.5t109.5 -37.5t38.5 -102.5t-38.5 -102t-109.5 -37zM322 1281q-71 0 -109.5 37t-38.5 102t38.5 102.5t109.5 37.5t109.5 -37.5t38.5 -102.5
t-38.5 -102t-109.5 -37z" />
    <glyph glyph-name="igrave" unicode="&#xec;" horiz-adv-x="524" 
d="M130 0v1091h263v-1091h-263zM142 1240l-261 376h280l221 -376h-240z" />
    <glyph glyph-name="iacute" unicode="&#xed;" horiz-adv-x="524" 
d="M130 0v1091h263v-1091h-263zM142 1240l221 376h280l-261 -376h-240z" />
    <glyph glyph-name="icircumflex" unicode="&#xee;" horiz-adv-x="524" 
d="M130 0v1091h263v-1091h-263zM-77 1240l229 376h220l229 -376h-193l-167 287h42l-167 -287h-193z" />
    <glyph glyph-name="idieresis" unicode="&#xef;" horiz-adv-x="524" 
d="M130 0v1091h263v-1091h-263zM497 1281q-71 0 -109.5 37t-38.5 102t38.5 102.5t109.5 37.5t109.5 -37.5t38.5 -102.5t-38.5 -102t-109.5 -37zM27 1281q-71 0 -109.5 37t-38.5 102t38.5 102.5t109.5 37.5t109.5 -37.5t38.5 -102.5t-38.5 -102t-109.5 -37z" />
    <glyph glyph-name="eth" unicode="&#xf0;" horiz-adv-x="1171" 
d="M587 -21q-157 0 -271 61t-176 186.5t-62 316.5q0 193 61 317t170.5 183.5t253.5 59.5q92 0 174.5 -38.5t137.5 -133.5l-90 4q-37 123 -109 243t-175.5 231t-234.5 207h314q108 -81 201.5 -195.5t164 -250t109.5 -281.5t39 -291q0 -216 -61 -352.5t-175 -201.5t-271 -65z
M587 181q75 0 129 35t83 113.5t29 210.5q0 139 -29 218.5t-83 113t-130 33.5t-130.5 -33t-83.5 -112t-29 -216q0 -138 29 -217t83.5 -112.5t131.5 -33.5zM193 1197l-29 148l873 154l29 -148z" />
    <glyph glyph-name="ntilde" unicode="&#xf1;" horiz-adv-x="1192" 
d="M130 0v1091h218l18 -115h13q63 64 147 98t181 34q106 0 188.5 -41t129.5 -131.5t47 -241.5v-694h-263v679q0 113 -48 157t-132 44q-40 0 -83 -11t-83 -35t-70 -63v-771h-263zM755 1306q-47 0 -88.5 15.5t-80.5 32.5q-36 16 -70.5 28.5t-70.5 12.5q-53 0 -96 -19.5
t-86 -62.5v170q71 74 186 74q47 0 89 -15t80 -33q37 -15 71.5 -28t69.5 -13q54 0 97 20t85 62v-170q-71 -74 -186 -74z" />
    <glyph glyph-name="ograve" unicode="&#xf2;" horiz-adv-x="1171" 
d="M586 -20q-155 0 -269 61t-176.5 185.5t-62.5 316.5q0 193 61 318t175 186t272 61t272 -61t174.5 -186t60.5 -317q0 -191 -62 -316.5t-176 -186.5t-269 -61zM586 182q76 0 130 33t83 111.5t29 215.5q0 139 -29 218.5t-83.5 112.5t-129.5 33q-76 0 -130.5 -33t-83.5 -111.5
t-29 -215.5q0 -139 29 -218.5t83.5 -112.5t130.5 -33zM466 1240l-261 376h280l221 -376h-240z" />
    <glyph glyph-name="oacute" unicode="&#xf3;" horiz-adv-x="1171" 
d="M586 -20q-155 0 -269 61t-176.5 185.5t-62.5 316.5q0 193 61 318t175 186t272 61t272 -61t174.5 -186t60.5 -317q0 -191 -62 -316.5t-176 -186.5t-269 -61zM586 182q76 0 130 33t83 111.5t29 215.5q0 139 -29 218.5t-83.5 112.5t-129.5 33q-76 0 -130.5 -33t-83.5 -111.5
t-29 -215.5q0 -139 29 -218.5t83.5 -112.5t130.5 -33zM466 1240l221 376h280l-261 -376h-240z" />
    <glyph glyph-name="ocircumflex" unicode="&#xf4;" horiz-adv-x="1171" 
d="M586 -20q-155 0 -269 61t-176.5 185.5t-62.5 316.5q0 193 61 318t175 186t272 61t272 -61t174.5 -186t60.5 -317q0 -191 -62 -316.5t-176 -186.5t-269 -61zM586 182q76 0 130 33t83 111.5t29 215.5q0 139 -29 218.5t-83.5 112.5t-129.5 33q-76 0 -130.5 -33t-83.5 -111.5
t-29 -215.5q0 -139 29 -218.5t83.5 -112.5t130.5 -33zM247 1240l229 376h220l229 -376h-193l-167 287h42l-167 -287h-193z" />
    <glyph glyph-name="otilde" unicode="&#xf5;" horiz-adv-x="1171" 
d="M586 -20q-155 0 -269 61t-176.5 185.5t-62.5 316.5q0 193 61 318t175 186t272 61t272 -61t174.5 -186t60.5 -317q0 -191 -62 -316.5t-176 -186.5t-269 -61zM586 182q76 0 130 33t83 111.5t29 215.5q0 139 -29 218.5t-83.5 112.5t-129.5 33q-76 0 -130.5 -33t-83.5 -111.5
t-29 -215.5q0 -139 29 -218.5t83.5 -112.5t130.5 -33zM739 1306q-47 0 -88.5 15.5t-80.5 32.5q-36 16 -70.5 28.5t-70.5 12.5q-53 0 -96 -19.5t-86 -62.5v170q71 74 186 74q47 0 89 -15t80 -33q37 -15 71.5 -28t69.5 -13q54 0 97 20t85 62v-170q-71 -74 -186 -74z" />
    <glyph glyph-name="odieresis" unicode="&#xf6;" horiz-adv-x="1171" 
d="M586 -20q-155 0 -269 61t-176.5 185.5t-62.5 316.5q0 193 61 318t175 186t272 61t272 -61t174.5 -186t60.5 -317q0 -191 -62 -316.5t-176 -186.5t-269 -61zM586 182q76 0 130 33t83 111.5t29 215.5q0 139 -29 218.5t-83.5 112.5t-129.5 33q-76 0 -130.5 -33t-83.5 -111.5
t-29 -215.5q0 -139 29 -218.5t83.5 -112.5t130.5 -33zM821 1281q-71 0 -109.5 37t-38.5 102t38.5 102.5t109.5 37.5t109.5 -37.5t38.5 -102.5t-38.5 -102t-109.5 -37zM351 1281q-71 0 -109.5 37t-38.5 102t38.5 102.5t109.5 37.5t109.5 -37.5t38.5 -102.5t-38.5 -102
t-109.5 -37z" />
    <glyph glyph-name="divide" unicode="&#xf7;" horiz-adv-x="1091" 
d="M128 658v204h835v-204h-835zM546 222q-73 0 -116.5 40.5t-43.5 109.5q0 70 43 110.5t117 40.5t117 -41t43 -110q0 -67 -44 -108.5t-116 -41.5zM546 997q-73 0 -116.5 40t-43.5 110t43 110.5t117 40.5t117 -41t43 -110q0 -68 -44 -109t-116 -41z" />
    <glyph glyph-name="oslash" unicode="&#xf8;" horiz-adv-x="1171" 
d="M967 956q61 -69 93.5 -172t32.5 -240q0 -191 -62 -316.5t-176 -186.5t-269 -61q-79 0 -147 17t-123 54l-46 -63h-172l106 148q-61 69 -93.5 170.5t-32.5 236.5q0 193 61 318t175 186t272 61q78 0 145 -17t122 -52l46 64h173zM586 909q-78 0 -134 -33t-86 -112.5
t-30 -217.5q0 -63 9 -112t26 -83l362 505q-28 29 -65.5 41t-81.5 12zM586 179q78 0 134 33t85.5 112.5t29.5 217.5q0 66 -9 116t-26 86l-364 -510q29 -29 66.5 -42t83.5 -13z" />
    <glyph glyph-name="ugrave" unicode="&#xf9;" horiz-adv-x="1183" 
d="M487 -19q-107 0 -189.5 41t-129.5 131.5t-47 240.5v697h262v-681q0 -113 48.5 -157t126.5 -44q39 0 81.5 11.5t81.5 36t69 61.5v773h263v-1091h-218l-18 113h-12q-64 -65 -146 -98.5t-172 -33.5zM467 1240l-261 376h280l221 -376h-240z" />
    <glyph glyph-name="uacute" unicode="&#xfa;" horiz-adv-x="1183" 
d="M487 -19q-107 0 -189.5 41t-129.5 131.5t-47 240.5v697h262v-681q0 -113 48.5 -157t126.5 -44q39 0 81.5 11.5t81.5 36t69 61.5v773h263v-1091h-218l-18 113h-12q-64 -65 -146 -98.5t-172 -33.5zM467 1240l221 376h280l-261 -376h-240z" />
    <glyph glyph-name="ucircumflex" unicode="&#xfb;" horiz-adv-x="1183" 
d="M487 -19q-107 0 -189.5 41t-129.5 131.5t-47 240.5v697h262v-681q0 -113 48.5 -157t126.5 -44q39 0 81.5 11.5t81.5 36t69 61.5v773h263v-1091h-218l-18 113h-12q-64 -65 -146 -98.5t-172 -33.5zM248 1240l229 376h220l229 -376h-193l-167 287h42l-167 -287h-193z" />
    <glyph glyph-name="udieresis" unicode="&#xfc;" horiz-adv-x="1183" 
d="M487 -19q-107 0 -189.5 41t-129.5 131.5t-47 240.5v697h262v-681q0 -113 48.5 -157t126.5 -44q39 0 81.5 11.5t81.5 36t69 61.5v773h263v-1091h-218l-18 113h-12q-64 -65 -146 -98.5t-172 -33.5zM822 1281q-71 0 -109.5 37t-38.5 102t38.5 102.5t109.5 37.5t109.5 -37.5
t38.5 -102.5t-38.5 -102t-109.5 -37zM352 1281q-71 0 -109.5 37t-38.5 102t38.5 102.5t109.5 37.5t109.5 -37.5t38.5 -102.5t-38.5 -102t-109.5 -37z" />
    <glyph glyph-name="yacute" unicode="&#xfd;" horiz-adv-x="1128" 
d="M311 -440l160 440l89 204l303 887h260l-553 -1531h-259zM398 0l-393 1091h275l364 -1091h-246zM444 1240l221 376h280l-261 -376h-240z" />
    <glyph glyph-name="thorn" unicode="&#xfe;" horiz-adv-x="1194" 
d="M130 -440v2056h263v-634h13q49 58 122 92t168 34q114 0 209.5 -55t153 -174.5t57.5 -312.5q0 -192 -65.5 -322.5t-194.5 -197t-319 -66.5q-37 0 -74.5 3t-69.5 7v-430h-263zM538 183q156 0 234.5 84t78.5 278q0 135 -32 210t-88.5 105t-129.5 30q-57 0 -113 -21.5
t-95 -69.5v-601q30 -6 69 -10.5t76 -4.5z" />
    <glyph glyph-name="ydieresis" unicode="&#xff;" horiz-adv-x="1128" 
d="M311 -440l160 440l89 204l303 887h260l-553 -1531h-259zM398 0l-393 1091h275l364 -1091h-246zM799 1281q-71 0 -109.5 37t-38.5 102t38.5 102.5t109.5 37.5t109.5 -37.5t38.5 -102.5t-38.5 -102t-109.5 -37zM329 1281q-71 0 -109.5 37t-38.5 102t38.5 102.5t109.5 37.5
t109.5 -37.5t38.5 -102.5t-38.5 -102t-109.5 -37z" />
    <glyph glyph-name="Amacron" unicode="&#x100;" horiz-adv-x="1419" 
d="M19 0l497 1480h387l497 -1480h-265l-443 1361h31l-442 -1361h-262zM333 425l58 215h636l58 -215h-752zM363 1662v162h692v-162h-692z" />
    <glyph glyph-name="amacron" unicode="&#x101;" horiz-adv-x="1086" 
d="M419 -19q-163 0 -254.5 84.5t-91.5 224.5q0 150 102.5 234.5t330.5 101.5l252 24l28 -152l-255 -23q-105 -10 -151 -50t-46 -110q0 -71 42 -109t124 -38q54 0 109 21t100 70v429q0 83 -26.5 130.5t-84 67t-149.5 19.5q-62 0 -141 -11t-154 -34v201q77 23 168.5 35
t171.5 12q161 0 265.5 -40.5t155.5 -136t51 -259.5v-672h-217l-19 113h-13q-50 -67 -128.5 -99.5t-169.5 -32.5zM201 1340v162h678v-162h-678z" />
    <glyph glyph-name="Abreve" unicode="&#x102;" horiz-adv-x="1419" 
d="M19 0l497 1480h387l497 -1480h-265l-443 1361h31l-442 -1361h-262zM333 425l58 215h636l58 -215h-752zM710 1605q-113 0 -189.5 34.5t-119 97t-52.5 146.5h164q12 -70 58 -107t139 -37q94 0 139 37t56 107h164q-10 -84 -52 -146.5t-118.5 -97t-188.5 -34.5z" />
    <glyph glyph-name="abreve" unicode="&#x103;" horiz-adv-x="1086" 
d="M419 -19q-163 0 -254.5 84.5t-91.5 224.5q0 150 102.5 234.5t330.5 101.5l252 24l28 -152l-255 -23q-105 -10 -151 -50t-46 -110q0 -71 42 -109t124 -38q54 0 109 21t100 70v429q0 83 -26.5 130.5t-84 67t-149.5 19.5q-62 0 -141 -11t-154 -34v201q77 23 168.5 35
t171.5 12q161 0 265.5 -40.5t155.5 -136t51 -259.5v-672h-217l-19 113h-13q-50 -67 -128.5 -99.5t-169.5 -32.5zM541 1250q-155 0 -244.5 88t-97.5 254h163q8 -101 51.5 -152t127.5 -51q85 0 128 51t49 152h163q-8 -166 -96.5 -254t-243.5 -88z" />
    <glyph glyph-name="Aogonek" unicode="&#x104;" horiz-adv-x="1419" 
d="M19 0l497 1480h387l497 -1480h-265l-443 1361h31l-442 -1361h-262zM333 425l58 215h636l58 -215h-752zM1288 -433q-132 0 -198.5 53.5t-66.5 145.5q0 60 28.5 112.5t95 99.5t180.5 88l73 -66q-88 -36 -136.5 -71t-67.5 -71t-19 -74q0 -51 35 -78.5t109 -27.5q32 0 67.5 8
t80.5 24v-109q-41 -15 -85.5 -24.5t-95.5 -9.5z" />
    <glyph glyph-name="aogonek" unicode="&#x105;" horiz-adv-x="1086" 
d="M419 -19q-163 0 -254.5 84.5t-91.5 224.5q0 150 102.5 234.5t330.5 101.5l252 24l28 -152l-255 -23q-105 -10 -151 -50t-46 -110q0 -71 42 -109t124 -38q54 0 109 21t100 70v429q0 83 -26.5 130.5t-84 67t-149.5 19.5q-62 0 -141 -11t-154 -34v201q77 23 168.5 35
t171.5 12q161 0 265.5 -40.5t155.5 -136t51 -259.5v-672l-204 -11l-32 124h-13q-50 -67 -128.5 -99.5t-169.5 -32.5zM854 -433q-120 0 -182.5 54t-62.5 145q0 60 27 113t89 99.5t168 87.5l73 -66q-78 -35 -122 -70t-62.5 -71.5t-18.5 -75.5q0 -49 32 -77t92 -28q30 0 64 8.5
t69 25.5v-110q-34 -15 -75.5 -25t-90.5 -10z" />
    <glyph glyph-name="Cacute" unicode="&#x106;" horiz-adv-x="1207" 
d="M827 -19q-173 0 -309.5 42.5t-231.5 133t-145 234.5t-50 346q0 259 88.5 428t256.5 251.5t407 82.5q85 0 164 -9.5t155 -28.5v-223q-73 19 -147.5 28t-152.5 9q-163 0 -272 -53t-163.5 -170.5t-54.5 -310.5q0 -199 55 -316.5t161.5 -168.5t262.5 -51q78 0 154 12t157 37
v-223q-72 -23 -158 -36.5t-177 -13.5zM614 1600l180 296h278l-220 -296h-238z" />
    <glyph glyph-name="cacute" unicode="&#x107;" horiz-adv-x="931" 
d="M615 -20q-173 0 -293 60.5t-182 185.5t-62 318q0 194 67 319t195 185t311 60q63 0 122.5 -6.5t113.5 -19.5v-211q-52 11 -102 17t-100 6q-115 0 -189.5 -34.5t-110.5 -111t-36 -201.5q0 -128 34.5 -206t102.5 -112.5t169 -34.5q52 0 107 9.5t125 29.5v-211
q-61 -20 -130.5 -31t-141.5 -11zM409 1240l221 376h280l-261 -376h-240z" />
    <glyph glyph-name="Ccircumflex" unicode="&#x108;" horiz-adv-x="1207" 
d="M827 -19q-173 0 -309.5 42.5t-231.5 133t-145 234.5t-50 346q0 259 88.5 428t256.5 251.5t407 82.5q85 0 164 -9.5t155 -28.5v-223q-73 19 -147.5 28t-152.5 9q-163 0 -272 -53t-163.5 -170.5t-54.5 -310.5q0 -199 55 -316.5t161.5 -168.5t262.5 -51q78 0 154 12t157 37
v-223q-72 -23 -158 -36.5t-177 -13.5zM368 1600l252 296h228l252 -296h-206l-182 222h44l-182 -222h-206z" />
    <glyph glyph-name="ccircumflex" unicode="&#x109;" horiz-adv-x="931" 
d="M615 -20q-173 0 -293 60.5t-182 185.5t-62 318q0 194 67 319t195 185t311 60q63 0 122.5 -6.5t113.5 -19.5v-211q-52 11 -102 17t-100 6q-115 0 -189.5 -34.5t-110.5 -111t-36 -201.5q0 -128 34.5 -206t102.5 -112.5t169 -34.5q52 0 107 9.5t125 29.5v-211
q-61 -20 -130.5 -31t-141.5 -11zM190 1240l229 376h220l229 -376h-193l-167 287h42l-167 -287h-193z" />
    <glyph glyph-name="Cdotaccent" unicode="&#x10a;" horiz-adv-x="1207" 
d="M827 -19q-173 0 -309.5 42.5t-231.5 133t-145 234.5t-50 346q0 259 88.5 428t256.5 251.5t407 82.5q85 0 164 -9.5t155 -28.5v-223q-73 19 -147.5 28t-152.5 9q-163 0 -272 -53t-163.5 -170.5t-54.5 -310.5q0 -199 55 -316.5t161.5 -168.5t262.5 -51q78 0 154 12t157 37
v-223q-72 -23 -158 -36.5t-177 -13.5zM734 1625q-81 0 -123.5 33.5t-42.5 92.5q0 60 42.5 93.5t123.5 33.5q82 0 124 -33.5t42 -93.5q0 -59 -42 -92.5t-124 -33.5z" />
    <glyph glyph-name="cdotaccent" unicode="&#x10b;" horiz-adv-x="931" 
d="M615 -20q-173 0 -293 60.5t-182 185.5t-62 318q0 194 67 319t195 185t311 60q63 0 122.5 -6.5t113.5 -19.5v-211q-52 11 -102 17t-100 6q-115 0 -189.5 -34.5t-110.5 -111t-36 -201.5q0 -128 34.5 -206t102.5 -112.5t169 -34.5q52 0 107 9.5t125 29.5v-211
q-61 -20 -130.5 -31t-141.5 -11zM529 1277q-84 0 -125.5 38t-41.5 105q0 68 41.5 105.5t125.5 37.5q85 0 126 -37.5t41 -105.5q0 -67 -41 -105t-126 -38z" />
    <glyph glyph-name="Ccaron" unicode="&#x10c;" horiz-adv-x="1207" 
d="M827 -19q-173 0 -309.5 42.5t-231.5 133t-145 234.5t-50 346q0 259 88.5 428t256.5 251.5t407 82.5q85 0 164 -9.5t155 -28.5v-223q-73 19 -147.5 28t-152.5 9q-163 0 -272 -53t-163.5 -170.5t-54.5 -310.5q0 -199 55 -316.5t161.5 -168.5t262.5 -51q78 0 154 12t157 37
v-223q-72 -23 -158 -36.5t-177 -13.5zM620 1600l-252 296h206l182 -223h-44l182 223h206l-252 -296h-228z" />
    <glyph glyph-name="ccaron" unicode="&#x10d;" horiz-adv-x="931" 
d="M615 -20q-173 0 -293 60.5t-182 185.5t-62 318q0 194 67 319t195 185t311 60q63 0 122.5 -6.5t113.5 -19.5v-211q-52 11 -102 17t-100 6q-115 0 -189.5 -34.5t-110.5 -111t-36 -201.5q0 -128 34.5 -206t102.5 -112.5t169 -34.5q52 0 107 9.5t125 29.5v-211
q-61 -20 -130.5 -31t-141.5 -11zM419 1240l-231 376h193l169 -288h-42l169 288h193l-231 -376h-220z" />
    <glyph glyph-name="Dcaron" unicode="&#x10e;" horiz-adv-x="1465" 
d="M532 -14q-60 0 -123.5 2.5t-129.5 7.5t-133 13v1441q65 14 139.5 24.5t151 16t149.5 5.5q390 0 588.5 -184.5t198.5 -571.5q0 -264 -93 -430.5t-280 -245t-468 -78.5zM598 206q167 0 278.5 53.5t166.5 171.5t55 310q0 191 -55 309t-165.5 172.5t-274.5 54.5
q-44 0 -93.5 -4.5t-96.5 -12.5v-1045q45 -5 89.5 -7t95.5 -2zM543 1600l-252 296h206l182 -223h-44l182 223h206l-252 -296h-228z" />
    <glyph glyph-name="dcaron" unicode="&#x10f;" horiz-adv-x="1194" 
d="M519 -19q-120 0 -220.5 54.5t-160.5 174t-60 313.5q0 192 66 322.5t195 197t318 66.5q38 0 75.5 -3t68.5 -8v518h263v-1616h-221l-17 116h-13q-48 -60 -122 -97.5t-172 -37.5zM593 198q57 0 113 23t95 72v598q-29 6 -68 10.5t-77 4.5q-155 0 -234 -84t-79 -278
q0 -134 31.5 -209t88 -106t130.5 -31zM1141 1180q16 111 21.5 219t5.5 217h180q0 -113 -16 -227.5t-47 -208.5h-144z" />
    <glyph glyph-name="Dcroat" unicode="&#x110;" horiz-adv-x="1465" 
d="M3 675v174h704v-174h-704zM532 -14q-60 0 -123.5 2.5t-129.5 7.5t-133 13v1441q65 14 139.5 24.5t151 16t149.5 5.5q390 0 588.5 -184.5t198.5 -571.5q0 -264 -93 -430.5t-280 -245t-468 -78.5zM598 206q167 0 278.5 53.5t166.5 171.5t55 310q0 191 -55 309t-165.5 172.5
t-274.5 54.5q-44 0 -93.5 -4.5t-96.5 -12.5v-1045q45 -5 89.5 -7t95.5 -2z" />
    <glyph glyph-name="dcroat" unicode="&#x111;" horiz-adv-x="1194" 
d="M458 1270v169h731v-169h-731zM519 -19q-120 0 -220.5 54.5t-160.5 174t-60 313.5q0 192 66 322.5t195 197t318 66.5q38 0 75.5 -3t68.5 -8v518h263v-1616h-221l-17 116h-13q-48 -60 -122 -97.5t-172 -37.5zM593 198q57 0 113 23t95 72v598q-29 6 -68 10.5t-77 4.5
q-155 0 -234 -84t-79 -278q0 -134 31.5 -209t88 -106t130.5 -31z" />
    <glyph glyph-name="Emacron" unicode="&#x112;" horiz-adv-x="1223" 
d="M146 0v1480h995v-217h-731v-1046h741v-217h-1005zM307 649v217h734v-217h-734zM320 1662v162h692v-162h-692z" />
    <glyph glyph-name="emacron" unicode="&#x113;" horiz-adv-x="1081" 
d="M648 -20q-193 0 -319.5 58.5t-188.5 183.5t-62 324q0 185 57.5 310t165.5 188.5t261 63.5q147 0 248.5 -63.5t153.5 -190.5t52 -316v-71h-790v158h590l-46 -22q0 124 -24 197t-71 104.5t-116 31.5t-118 -31t-74.5 -104t-25.5 -197v-102q0 -118 33.5 -188.5t108.5 -101
t201 -30.5q63 0 132 10t142 28v-201q-84 -21 -159.5 -30t-150.5 -9zM218 1340v162h678v-162h-678z" />
    <glyph glyph-name="Ebreve" unicode="&#x114;" horiz-adv-x="1223" 
d="M146 0v1480h995v-217h-731v-1046h741v-217h-1005zM307 649v217h734v-217h-734zM667 1605q-113 0 -189.5 34.5t-119 97t-52.5 146.5h164q12 -70 58 -107t139 -37q94 0 139 37t56 107h164q-10 -84 -52 -146.5t-118.5 -97t-188.5 -34.5z" />
    <glyph glyph-name="ebreve" unicode="&#x115;" horiz-adv-x="1081" 
d="M648 -20q-193 0 -319.5 58.5t-188.5 183.5t-62 324q0 185 57.5 310t165.5 188.5t261 63.5q147 0 248.5 -63.5t153.5 -190.5t52 -316v-71h-790v158h590l-46 -22q0 124 -24 197t-71 104.5t-116 31.5t-118 -31t-74.5 -104t-25.5 -197v-102q0 -118 33.5 -188.5t108.5 -101
t201 -30.5q63 0 132 10t142 28v-201q-84 -21 -159.5 -30t-150.5 -9zM558 1250q-155 0 -244.5 88t-97.5 254h163q8 -101 51.5 -152t127.5 -51q85 0 128 51t49 152h163q-8 -166 -96.5 -254t-243.5 -88z" />
    <glyph glyph-name="Edotaccent" unicode="&#x116;" horiz-adv-x="1223" 
d="M146 0v1480h995v-217h-731v-1046h741v-217h-1005zM307 649v217h734v-217h-734zM666 1625q-81 0 -123.5 33.5t-42.5 92.5q0 60 42.5 93.5t123.5 33.5q82 0 124 -33.5t42 -93.5q0 -59 -42 -92.5t-124 -33.5z" />
    <glyph glyph-name="edotaccent" unicode="&#x117;" horiz-adv-x="1081" 
d="M648 -20q-193 0 -319.5 58.5t-188.5 183.5t-62 324q0 185 57.5 310t165.5 188.5t261 63.5q147 0 248.5 -63.5t153.5 -190.5t52 -316v-71h-790v158h590l-46 -22q0 124 -24 197t-71 104.5t-116 31.5t-118 -31t-74.5 -104t-25.5 -197v-102q0 -118 33.5 -188.5t108.5 -101
t201 -30.5q63 0 132 10t142 28v-201q-84 -21 -159.5 -30t-150.5 -9zM557 1277q-84 0 -125.5 38t-41.5 105q0 68 41.5 105.5t125.5 37.5q85 0 126 -37.5t41 -105.5q0 -67 -41 -105t-126 -38z" />
    <glyph glyph-name="Eogonek" unicode="&#x118;" horiz-adv-x="1223" 
d="M146 0v1480h995v-217h-731v-1046h741v-217h-1005zM307 649v217h734v-217h-734zM1039 -433q-132 0 -198.5 53.5t-66.5 145.5q0 60 28.5 112.5t95 99.5t180.5 88l73 -66q-88 -36 -136.5 -71t-67.5 -71t-19 -74q0 -51 35 -78.5t109 -27.5q32 0 67.5 8t80.5 24v-109
q-41 -15 -85.5 -24.5t-95.5 -9.5z" />
    <glyph glyph-name="eogonek" unicode="&#x119;" horiz-adv-x="1081" 
d="M792 -433q-120 0 -182.5 54t-62.5 145q0 82 50.5 150t173.5 116l9 -46q-33 -3 -67 -4.5t-65 -1.5q-193 0 -319.5 58.5t-188.5 183.5t-62 324q0 185 57.5 310t165.5 188.5t261 63.5q147 0 248.5 -63.5t153.5 -190.5t52 -316v-71h-790v152h590l-46 -21q0 124 -24 197
t-71 104.5t-116 31.5t-118 -31.5t-74.5 -104t-25.5 -196.5v-97q0 -118 33.5 -188.5t108.5 -101t201 -30.5q63 0 132 10t142 28v-201q-104 -35 -159.5 -75t-76.5 -80.5t-21 -80.5q0 -49 32 -77t91 -28q31 0 64.5 8.5t69.5 25.5v-110q-35 -15 -76 -25t-90 -10z" />
    <glyph glyph-name="Ecaron" unicode="&#x11a;" horiz-adv-x="1223" 
d="M146 0v1480h995v-217h-731v-1046h741v-217h-1005zM307 649v217h734v-217h-734zM552 1600l-252 296h206l182 -223h-44l182 223h206l-252 -296h-228z" />
    <glyph glyph-name="ecaron" unicode="&#x11b;" horiz-adv-x="1081" 
d="M648 -20q-193 0 -319.5 58.5t-188.5 183.5t-62 324q0 185 57.5 310t165.5 188.5t261 63.5q147 0 248.5 -63.5t153.5 -190.5t52 -316v-71h-790v158h590l-46 -22q0 124 -24 197t-71 104.5t-116 31.5t-118 -31t-74.5 -104t-25.5 -197v-102q0 -118 33.5 -188.5t108.5 -101
t201 -30.5q63 0 132 10t142 28v-201q-84 -21 -159.5 -30t-150.5 -9zM447 1240l-231 376h193l169 -288h-42l169 288h193l-231 -376h-220z" />
    <glyph glyph-name="Gcircumflex" unicode="&#x11c;" horiz-adv-x="1398" 
d="M907 -15q-271 0 -452 80.5t-272.5 247t-91.5 424.5q0 260 94 428.5t273 251t432 82.5q86 0 169 -10t164 -30v-223q-82 21 -158 30t-153 9q-179 0 -299 -53t-181 -172t-61 -316q0 -186 57 -302.5t172 -170.5t287 -54q64 0 125 5t113 14l-113 -102v596h251v-704
q-95 -16 -182 -23.5t-174 -7.5zM417 1600l252 296h228l252 -296h-206l-182 222h44l-182 -222h-206z" />
    <glyph glyph-name="gcircumflex" unicode="&#x11d;" horiz-adv-x="1194" 
d="M501 -460q-82 0 -173.5 11t-175.5 35v209q89 -26 173 -38t157 -12q166 0 242.5 65.5t76.5 221.5v84h-13q-48 -57 -121 -91t-168 -34q-112 0 -208 55t-154.5 172t-58.5 305q0 287 149 436t447 149q65 0 134 -6.5t134.5 -19.5t121.5 -31v-972q0 -286 -139.5 -412.5
t-423.5 -126.5zM594 207q57 0 112.5 21t94.5 66v594q-29 8 -68 13t-82 5q-149 0 -228.5 -83.5t-79.5 -276.5q0 -132 32 -206t88.5 -103.5t130.5 -29.5zM281 1240l229 376h220l229 -376h-193l-167 287h42l-167 -287h-193z" />
    <glyph glyph-name="Gbreve" unicode="&#x11e;" horiz-adv-x="1398" 
d="M907 -15q-271 0 -452 80.5t-272.5 247t-91.5 424.5q0 260 94 428.5t273 251t432 82.5q86 0 169 -10t164 -30v-223q-82 21 -158 30t-153 9q-179 0 -299 -53t-181 -172t-61 -316q0 -186 57 -302.5t172 -170.5t287 -54q64 0 125 5t113 14l-113 -102v596h251v-704
q-95 -16 -182 -23.5t-174 -7.5zM784 1605q-113 0 -189.5 34.5t-119 97t-52.5 146.5h164q12 -70 58 -107t139 -37q94 0 139 37t56 107h164q-10 -84 -52 -146.5t-118.5 -97t-188.5 -34.5z" />
    <glyph glyph-name="gbreve" unicode="&#x11f;" horiz-adv-x="1194" 
d="M501 -460q-82 0 -173.5 11t-175.5 35v209q89 -26 173 -38t157 -12q166 0 242.5 65.5t76.5 221.5v84h-13q-48 -57 -121 -91t-168 -34q-112 0 -208 55t-154.5 172t-58.5 305q0 287 149 436t447 149q65 0 134 -6.5t134.5 -19.5t121.5 -31v-972q0 -286 -139.5 -412.5
t-423.5 -126.5zM594 207q57 0 112.5 21t94.5 66v594q-29 8 -68 13t-82 5q-149 0 -228.5 -83.5t-79.5 -276.5q0 -132 32 -206t88.5 -103.5t130.5 -29.5zM621 1250q-155 0 -244.5 88t-97.5 254h163q8 -101 51.5 -152t127.5 -51q85 0 128 51t49 152h163q-8 -166 -96.5 -254
t-243.5 -88z" />
    <glyph glyph-name="Gdotaccent" unicode="&#x120;" horiz-adv-x="1398" 
d="M907 -15q-271 0 -452 80.5t-272.5 247t-91.5 424.5q0 260 94 428.5t273 251t432 82.5q86 0 169 -10t164 -30v-223q-82 21 -158 30t-153 9q-179 0 -299 -53t-181 -172t-61 -316q0 -186 57 -302.5t172 -170.5t287 -54q64 0 125 5t113 14l-113 -102v596h251v-704
q-95 -16 -182 -23.5t-174 -7.5zM783 1625q-81 0 -123.5 33.5t-42.5 92.5q0 60 42.5 93.5t123.5 33.5q82 0 124 -33.5t42 -93.5q0 -59 -42 -92.5t-124 -33.5z" />
    <glyph glyph-name="gdotaccent" unicode="&#x121;" horiz-adv-x="1194" 
d="M501 -460q-82 0 -173.5 11t-175.5 35v209q89 -26 173 -38t157 -12q166 0 242.5 65.5t76.5 221.5v84h-13q-48 -57 -121 -91t-168 -34q-112 0 -208 55t-154.5 172t-58.5 305q0 287 149 436t447 149q65 0 134 -6.5t134.5 -19.5t121.5 -31v-972q0 -286 -139.5 -412.5
t-423.5 -126.5zM594 207q57 0 112.5 21t94.5 66v594q-29 8 -68 13t-82 5q-149 0 -228.5 -83.5t-79.5 -276.5q0 -132 32 -206t88.5 -103.5t130.5 -29.5zM620 1277q-84 0 -125.5 38t-41.5 105q0 68 41.5 105.5t125.5 37.5q85 0 126 -37.5t41 -105.5q0 -67 -41 -105t-126 -38z
" />
    <glyph glyph-name="uni0122" unicode="&#x122;" horiz-adv-x="1398" 
d="M907 -15q-271 0 -452 80.5t-272.5 247t-91.5 424.5q0 260 94 428.5t273 251t432 82.5q86 0 169 -10t164 -30v-223q-82 21 -158 30t-153 9q-179 0 -299 -53t-181 -172t-61 -316q0 -186 57 -302.5t172 -170.5t287 -54q64 0 125 5t113 14l-113 -102v596h251v-704
q-95 -16 -182 -23.5t-174 -7.5zM702 -486q32 63 43.5 108t11.5 91l47 -57h-21q-80 0 -116.5 28t-36.5 74q0 47 37 74.5t114 27.5q80 0 117.5 -35t37.5 -100q0 -50 -19 -107.5t-52 -103.5h-163z" />
    <glyph glyph-name="uni0123" unicode="&#x123;" horiz-adv-x="1194" 
d="M501 -460q-82 0 -173.5 11t-175.5 35v209q89 -26 173 -38t157 -12q166 0 242.5 65.5t76.5 221.5v84h-13q-48 -57 -121 -91t-168 -34q-112 0 -208 55t-154.5 172t-58.5 305q0 287 149 436t447 149q65 0 134 -6.5t134.5 -19.5t121.5 -31v-972q0 -286 -139.5 -412.5
t-423.5 -126.5zM594 207q57 0 112.5 21t94.5 66v594q-29 8 -68 13t-82 5q-149 0 -228.5 -83.5t-79.5 -276.5q0 -132 32 -206t88.5 -103.5t130.5 -29.5zM622 1279q-80 0 -117.5 35.5t-37.5 99.5q0 50 19.5 108t51.5 103h163q-32 -63 -43.5 -107.5t-11.5 -91.5l-47 57h21
q80 0 116.5 -27.5t36.5 -74.5t-36.5 -74.5t-114.5 -27.5z" />
    <glyph glyph-name="Hcircumflex" unicode="&#x124;" horiz-adv-x="1497" 
d="M146 0v1480h267v-604h671v604h267v-1480h-267v639h-671v-639h-267zM383 1600l252 296h228l252 -296h-206l-182 222h44l-182 -222h-206z" />
    <glyph glyph-name="hcircumflex" unicode="&#x125;" horiz-adv-x="1192" 
d="M130 0v1616h263v-639h13q60 64 139.5 97.5t174.5 33.5q99 0 179 -40.5t126.5 -131.5t46.5 -241v-695h-263v678q0 114 -49 157.5t-131 43.5q-41 0 -84 -11t-82.5 -35.5t-69.5 -61.5v-771h-263zM236 1696l252 296h228l252 -296h-206l-182 222h44l-182 -222h-206z" />
    <glyph glyph-name="Hbar" unicode="&#x126;" horiz-adv-x="1497" 
d="M3 1094v169h1491v-169h-1491zM146 0v1480h267v-604h671v604h267v-1480h-267v639h-671v-639h-267z" />
    <glyph glyph-name="hbar" unicode="&#x127;" horiz-adv-x="1192" 
d="M6 1268v169h730v-169h-730zM130 0v1616h263v-639h13q60 64 139.5 97.5t174.5 33.5q99 0 179 -40.5t126.5 -131.5t46.5 -241v-695h-263v678q0 114 -49 157.5t-131 43.5q-41 0 -84 -11t-82.5 -35.5t-69.5 -61.5v-771h-263z" />
    <glyph glyph-name="Itilde" unicode="&#x128;" horiz-adv-x="559" 
d="M146 0v1480h267v-1480h-267zM446 1636q-52 0 -96 13t-86 28q-38 14 -76 24.5t-78 10.5q-59 0 -102.5 -17t-87.5 -53v158q37 35 83.5 52t110.5 17q52 0 96.5 -12.5t85.5 -28.5q39 -13 76.5 -24.5t77.5 -11.5q59 0 103 17.5t87 53.5v-158q-37 -35 -83.5 -52t-110.5 -17z
" />
    <glyph glyph-name="itilde" unicode="&#x129;" horiz-adv-x="524" 
d="M130 0v1091h263v-1091h-263zM415 1306q-47 0 -88.5 15.5t-80.5 32.5q-36 16 -70.5 28.5t-70.5 12.5q-53 0 -96 -19.5t-86 -62.5v170q71 74 186 74q47 0 89 -15t80 -33q37 -15 71.5 -28t69.5 -13q54 0 97 20t85 62v-170q-71 -74 -186 -74z" />
    <glyph glyph-name="Imacron" unicode="&#x12a;" horiz-adv-x="559" 
d="M146 0v1480h267v-1480h-267zM-66 1662v162h692v-162h-692z" />
    <glyph glyph-name="imacron" unicode="&#x12b;" horiz-adv-x="524" 
d="M130 0v1091h263v-1091h-263zM-77 1340v162h678v-162h-678z" />
    <glyph glyph-name="Ibreve" unicode="&#x12c;" horiz-adv-x="559" 
d="M146 0v1480h267v-1480h-267zM281 1605q-113 0 -189.5 34.5t-119 97t-52.5 146.5h164q12 -70 58 -107t139 -37q94 0 139 37t56 107h164q-10 -84 -52 -146.5t-118.5 -97t-188.5 -34.5z" />
    <glyph glyph-name="ibreve" unicode="&#x12d;" horiz-adv-x="524" 
d="M130 0v1091h263v-1091h-263zM263 1250q-155 0 -244.5 88t-97.5 254h163q8 -101 51.5 -152t127.5 -51q85 0 128 51t49 152h163q-8 -166 -96.5 -254t-243.5 -88z" />
    <glyph glyph-name="Iogonek" unicode="&#x12e;" horiz-adv-x="559" 
d="M146 0v1480h267v-1480h-267zM301 -433q-132 0 -198.5 53.5t-66.5 145.5q0 60 28.5 112.5t95 99.5t180.5 88l73 -66q-88 -36 -136.5 -71t-67.5 -71t-19 -74q0 -51 35 -78.5t109 -27.5q32 0 67.5 8t80.5 24v-109q-41 -15 -85.5 -24.5t-95.5 -9.5z" />
    <glyph glyph-name="iogonek" unicode="&#x12f;" horiz-adv-x="524" 
d="M130 0v1091h263v-1091h-263zM262 1277q-84 0 -125.5 38t-41.5 105q0 68 41.5 105.5t125.5 37.5q85 0 126 -37.5t41 -105.5q0 -67 -41 -105t-126 -38zM281 -433q-120 0 -182.5 54t-62.5 145q0 60 27 113t89 99.5t168 87.5l73 -66q-78 -35 -122 -70t-62.5 -71.5
t-18.5 -75.5q0 -49 32 -77t92 -28q30 0 64 8.5t70 25.5v-110q-35 -15 -76.5 -25t-90.5 -10z" />
    <glyph glyph-name="Idotaccent" unicode="&#x130;" horiz-adv-x="559" 
d="M146 0v1480h267v-1480h-267zM280 1625q-81 0 -123.5 33.5t-42.5 92.5q0 60 42.5 93.5t123.5 33.5q82 0 124 -33.5t42 -93.5q0 -59 -42 -92.5t-124 -33.5z" />
    <glyph glyph-name="dotlessi" unicode="&#x131;" horiz-adv-x="524" 
d="M130 0v1091h263v-1091h-263z" />
    <glyph glyph-name="Jcircumflex" unicode="&#x134;" horiz-adv-x="559" 
d="M154 -348l-171 116q59 81 95.5 158.5t52.5 166t16 203.5v1184h266v-1190q0 -124 -25.5 -229t-82.5 -204.5t-151 -204.5zM-86 1600l252 296h228l252 -296h-206l-182 222h44l-182 -222h-206z" />
    <glyph glyph-name="jcircumflex" unicode="&#x135;" horiz-adv-x="524" 
d="M137 -469l-171 114q60 81 96 160.5t52 168.5t16 200v917h263v-905q0 -128 -25 -237t-81.5 -211t-149.5 -207zM-80 1243l229 376h220l229 -376h-193l-167 287h42l-167 -287h-193z" />
    <glyph glyph-name="uni0136" unicode="&#x136;" horiz-adv-x="1297" 
d="M1041 0l-539 755l506 725h284l-527 -755l4 71l566 -796h-294zM146 0v1480h267v-1480h-267zM375 639v237h236v-237h-236zM598 -486q32 63 43.5 108t11.5 91l47 -57h-21q-80 0 -116.5 28t-36.5 74q0 47 37 74.5t114 27.5q80 0 117.5 -35t37.5 -100q0 -50 -19 -107.5
t-52 -103.5h-163z" />
    <glyph glyph-name="uni0137" unicode="&#x137;" horiz-adv-x="1129" 
d="M870 0l-404 560l375 531h283l-390 -561v70l425 -600h-289zM368 453v213h195v-213h-195zM130 0v1616h263v-1616h-263zM519 -486q32 63 43.5 108t11.5 91l47 -57h-21q-80 0 -116.5 28t-36.5 74q0 47 37 74.5t114 27.5q80 0 117.5 -35t37.5 -100q0 -50 -19 -107.5
t-52 -103.5h-163z" />
    <glyph glyph-name="kgreenlandic" unicode="&#x138;" horiz-adv-x="1129" 
d="M870 0l-404 560l375 531h283l-390 -561v70l425 -600h-289zM130 0v1091h263v-1091h-263zM368 453v213h195v-213h-195z" />
    <glyph glyph-name="Lacute" unicode="&#x139;" horiz-adv-x="1121" 
d="M146 0v1480h267v-1255h698v-225h-965zM162 1600l180 296h278l-220 -296h-238z" />
    <glyph glyph-name="lacute" unicode="&#x13a;" horiz-adv-x="523" 
d="M130 0v1616h263v-1616h-263zM142 1696l180 296h278l-220 -296h-238z" />
    <glyph glyph-name="uni013B" unicode="&#x13b;" horiz-adv-x="1121" 
d="M146 0v1480h267v-1255h698v-225h-965zM548 -486q32 63 43.5 108t11.5 91l47 -57h-21q-80 0 -116.5 28t-36.5 74q0 47 37 74.5t114 27.5q80 0 117.5 -35t37.5 -100q0 -50 -19 -107.5t-52 -103.5h-163z" />
    <glyph glyph-name="uni013C" unicode="&#x13c;" horiz-adv-x="523" 
d="M130 0v1616h263v-1616h-263zM180 -486q32 63 43.5 108t11.5 91l47 -57h-21q-80 0 -116.5 28t-36.5 74q0 47 37 74.5t114 27.5q80 0 117.5 -35t37.5 -100q0 -50 -19 -107.5t-52 -103.5h-163z" />
    <glyph glyph-name="Lcaron" unicode="&#x13d;" horiz-adv-x="1121" 
d="M146 0v1480h267v-1255h698v-225h-965zM711 1140q11 74 16.5 148t7.5 154.5t2 173.5h180q0 -143 -16 -262.5t-45 -213.5h-145z" />
    <glyph glyph-name="lcaron" unicode="&#x13e;" horiz-adv-x="523" 
d="M130 0v1616h263v-1616h-263zM470 1180q16 111 21.5 219t5.5 217h180q0 -113 -16 -227.5t-47 -208.5h-144z" />
    <glyph glyph-name="Ldot" unicode="&#x13f;" horiz-adv-x="1121" 
d="M146 0v1480h267v-1255h698v-225h-965zM830 706q-84 0 -125 37.5t-41 104.5q0 69 41 106.5t125 37.5q85 0 126 -37.5t41 -106.5q0 -67 -41 -104.5t-126 -37.5z" />
    <glyph glyph-name="ldot" unicode="&#x140;" horiz-adv-x="761" 
d="M130 0v1616h263v-1616h-263zM636 650q-84 0 -125 38t-41 105q0 68 41 106t125 38q85 0 126 -38t41 -106q0 -67 -41 -105t-126 -38z" />
    <glyph glyph-name="Lslash" unicode="&#x141;" horiz-adv-x="1131" 
d="M5 538v203l721 442v-203zM156 0v1480h268v-1255h697v-225h-965z" />
    <glyph glyph-name="lslash" unicode="&#x142;" horiz-adv-x="572" 
d="M20 459v194l530 316v-194zM155 0v1616h262v-1616h-262z" />
    <glyph glyph-name="Nacute" unicode="&#x143;" horiz-adv-x="1517" 
d="M146 0v1480h270l753 -1154h-50v1154h252v-1480h-270l-753 1154h50v-1154h-252zM639 1600l180 296h278l-220 -296h-238z" />
    <glyph glyph-name="nacute" unicode="&#x144;" horiz-adv-x="1192" 
d="M130 0v1091h218l18 -115h13q63 64 147 98t181 34q106 0 188.5 -41t129.5 -131.5t47 -241.5v-694h-263v679q0 113 -48 157t-132 44q-40 0 -83 -11t-83 -35t-70 -63v-771h-263zM482 1240l221 376h280l-261 -376h-240z" />
    <glyph glyph-name="uni0145" unicode="&#x145;" horiz-adv-x="1517" 
d="M146 0v1480h270l753 -1154h-50v1154h252v-1480h-270l-753 1154h50v-1154h-252zM678 -486q32 63 43.5 108t11.5 91l47 -57h-21q-80 0 -116.5 28t-36.5 74q0 47 37 74.5t114 27.5q80 0 117.5 -35t37.5 -100q0 -50 -19 -107.5t-52 -103.5h-163z" />
    <glyph glyph-name="uni0146" unicode="&#x146;" horiz-adv-x="1192" 
d="M130 0v1091h218l18 -115h13q63 64 147 98t181 34q106 0 188.5 -41t129.5 -131.5t47 -241.5v-694h-263v679q0 113 -48 157t-132 44q-40 0 -83 -11t-83 -35t-70 -63v-771h-263zM521 -486q32 63 43.5 108t11.5 91l47 -57h-21q-80 0 -116.5 28t-36.5 74q0 47 37 74.5
t114 27.5q80 0 117.5 -35t37.5 -100q0 -50 -19 -107.5t-52 -103.5h-163z" />
    <glyph glyph-name="Ncaron" unicode="&#x147;" horiz-adv-x="1517" 
d="M146 0v1480h270l753 -1154h-50v1154h252v-1480h-270l-753 1154h50v-1154h-252zM645 1600l-252 296h206l182 -223h-44l182 223h206l-252 -296h-228z" />
    <glyph glyph-name="ncaron" unicode="&#x148;" horiz-adv-x="1192" 
d="M130 0v1091h218l18 -115h13q63 64 147 98t181 34q106 0 188.5 -41t129.5 -131.5t47 -241.5v-694h-263v679q0 113 -48 157t-132 44q-40 0 -83 -11t-83 -35t-70 -63v-771h-263zM492 1240l-231 376h193l169 -288h-42l169 288h193l-231 -376h-220z" />
    <glyph glyph-name="napostrophe" unicode="&#x149;" horiz-adv-x="1192" 
d="M130 0v1091h218l18 -115h13q63 64 147 98t181 34q106 0 188.5 -41t129.5 -131.5t47 -241.5v-694h-263v679q0 113 -48 157t-132 44q-40 0 -83 -11t-83 -35t-70 -63v-771h-263zM84 1279q31 64 42.5 108.5t11.5 91.5l47 -57h-21q-80 0 -116 28t-36 74q0 47 36.5 74t113.5 27
q80 0 117.5 -34.5t37.5 -100.5q0 -49 -19 -107t-52 -104h-162z" />
    <glyph glyph-name="Eng" unicode="&#x14a;" horiz-adv-x="1517" 
d="M1150 -78l-803 1232h51v-1154h-252v1480h270l778 -1188zM1114 -469l-170 114q61 81 100 160.5t57 168.5t18 200v1306h252v-1273q0 -138 -25.5 -252t-81.5 -216.5t-150 -207.5z" />
    <glyph glyph-name="eng" unicode="&#x14b;" horiz-adv-x="1192" 
d="M815 -469l-170 114q60 81 96 160.5t52 168.5t16 200v507q0 114 -49 158t-131 44q-41 0 -84 -11.5t-82.5 -36t-69.5 -62.5v-773h-263v1091h218l18 -115h13q64 65 148 98.5t181 33.5q105 0 187.5 -40.5t129.5 -131.5t47 -241v-528q0 -120 -25.5 -225.5t-81.5 -205.5
t-150 -205z" />
    <glyph glyph-name="Omacron" unicode="&#x14c;" horiz-adv-x="1519" 
d="M759 -19q-201 0 -351 81t-233.5 249t-83.5 429t83.5 429t233.5 249t351 81q202 0 352 -81t233 -249.5t83 -428.5t-83 -428.5t-233.5 -249.5t-351.5 -81zM759 200q122 0 210 53t135.5 170.5t47.5 310.5q0 199 -48 319t-136 173.5t-209 53.5q-120 0 -208.5 -52.5
t-136.5 -170t-48 -311.5q0 -200 48 -320t136 -173t209 -53zM413 1662v162h692v-162h-692z" />
    <glyph glyph-name="omacron" unicode="&#x14d;" horiz-adv-x="1171" 
d="M586 -20q-155 0 -269 61t-176.5 185.5t-62.5 316.5q0 193 61 318t175 186t272 61t272 -61t174.5 -186t60.5 -317q0 -191 -62 -316.5t-176 -186.5t-269 -61zM586 182q76 0 130 33t83 111.5t29 215.5q0 139 -29 218.5t-83.5 112.5t-129.5 33q-76 0 -130.5 -33t-83.5 -111.5
t-29 -215.5q0 -139 29 -218.5t83.5 -112.5t130.5 -33zM247 1340v162h678v-162h-678z" />
    <glyph glyph-name="Obreve" unicode="&#x14e;" horiz-adv-x="1519" 
d="M759 -19q-201 0 -351 81t-233.5 249t-83.5 429t83.5 429t233.5 249t351 81q202 0 352 -81t233 -249.5t83 -428.5t-83 -428.5t-233.5 -249.5t-351.5 -81zM759 200q122 0 210 53t135.5 170.5t47.5 310.5q0 199 -48 319t-136 173.5t-209 53.5q-120 0 -208.5 -52.5
t-136.5 -170t-48 -311.5q0 -200 48 -320t136 -173t209 -53zM760 1605q-113 0 -189.5 34.5t-119 97t-52.5 146.5h164q12 -70 58 -107t139 -37q94 0 139 37t56 107h164q-10 -84 -52 -146.5t-118.5 -97t-188.5 -34.5z" />
    <glyph glyph-name="obreve" unicode="&#x14f;" horiz-adv-x="1171" 
d="M586 -20q-155 0 -269 61t-176.5 185.5t-62.5 316.5q0 193 61 318t175 186t272 61t272 -61t174.5 -186t60.5 -317q0 -191 -62 -316.5t-176 -186.5t-269 -61zM586 182q76 0 130 33t83 111.5t29 215.5q0 139 -29 218.5t-83.5 112.5t-129.5 33q-76 0 -130.5 -33t-83.5 -111.5
t-29 -215.5q0 -139 29 -218.5t83.5 -112.5t130.5 -33zM587 1250q-155 0 -244.5 88t-97.5 254h163q8 -101 51.5 -152t127.5 -51q85 0 128 51t49 152h163q-8 -166 -96.5 -254t-243.5 -88z" />
    <glyph glyph-name="Ohungarumlaut" unicode="&#x150;" horiz-adv-x="1519" 
d="M759 -19q-201 0 -351 81t-233.5 249t-83.5 429t83.5 429t233.5 249t351 81q202 0 352 -81t233 -249.5t83 -428.5t-83 -428.5t-233.5 -249.5t-351.5 -81zM759 200q122 0 210 53t135.5 170.5t47.5 310.5q0 199 -48 319t-136 173.5t-209 53.5q-120 0 -208.5 -52.5
t-136.5 -170t-48 -311.5q0 -200 48 -320t136 -173t209 -53zM851 1600l133 296h211l-147 -296h-197zM470 1600l134 296h211l-148 -296h-197z" />
    <glyph glyph-name="ohungarumlaut" unicode="&#x151;" horiz-adv-x="1171" 
d="M586 -20q-155 0 -269 61t-176.5 185.5t-62.5 316.5q0 193 61 318t175 186t272 61t272 -61t174.5 -186t60.5 -317q0 -191 -62 -316.5t-176 -186.5t-269 -61zM586 182q76 0 130 33t83 111.5t29 215.5q0 139 -29 218.5t-83.5 112.5t-129.5 33q-76 0 -130.5 -33t-83.5 -111.5
t-29 -215.5q0 -139 29 -218.5t83.5 -112.5t130.5 -33zM678 1240l144 376h210l-159 -376h-195zM299 1240l143 376h210l-158 -376h-195z" />
    <glyph glyph-name="OE" unicode="&#x152;" horiz-adv-x="2076" 
d="M905 -11q-271 0 -452 79t-271.5 245t-90.5 427q0 258 93 424.5t272.5 247.5t440.5 81q80 0 161.5 -6.5t153.5 -6.5h783v-217h-699v-1046h709v-217h-787q-47 0 -100 -3t-107.5 -5.5t-105.5 -2.5zM854 209q49 0 93.5 1.5t83.5 4.5v1049q-46 5 -90.5 7t-91.5 2
q-161 0 -268 -54.5t-161 -172t-54 -307.5t55 -307t163.5 -170t269.5 -53zM1196 649v217h698v-217h-698z" />
    <glyph glyph-name="oe" unicode="&#x153;" horiz-adv-x="1821" 
d="M573 -20q-149 0 -260 61t-173 185.5t-62 316.5q0 193 60.5 318t171.5 186t263 61q154 0 259 -64.5t158 -190t53 -309.5t-54.5 -309.5t-159.5 -190t-256 -64.5zM584 182q75 0 129 33t83 111.5t29 215.5q0 139 -29 218.5t-83.5 112.5t-128.5 33q-75 0 -129 -33t-83 -111.5
t-29 -215.5q0 -139 29 -218.5t83 -112.5t129 -33zM1392 -20q-190 0 -309.5 60t-175.5 185t-56 322l23 20q0 172 53 293t152 184.5t237 63.5t236.5 -62.5t151.5 -189t53 -317.5v-72h-717v158h516l-45 -24q0 126 -24.5 199.5t-70.5 105t-114 31.5q-67 0 -114.5 -31.5
t-73 -104.5t-25.5 -197v-102q0 -118 33 -188.5t107 -101t197 -30.5q63 0 132 10t140 28v-201q-83 -21 -158 -30t-148 -9z" />
    <glyph glyph-name="Racute" unicode="&#x154;" horiz-adv-x="1353" 
d="M146 0v1450q63 13 134 24t147.5 17t156.5 6q310 0 464.5 -112.5t154.5 -350.5q0 -154 -73.5 -258t-212 -156.5t-334.5 -52.5q-51 0 -91 2t-83 4v-573h-263zM1027 0l-492 688h289l499 -688h-296zM587 769q188 0 276 63.5t88 201.5q0 92 -36.5 150t-112 85.5t-192.5 27.5
q-60 0 -107.5 -5t-93.5 -13v-501q32 -3 59.5 -5t56 -3t62.5 -1zM540 1600l180 296h278l-220 -296h-238z" />
    <glyph glyph-name="racute" unicode="&#x155;" horiz-adv-x="779" 
d="M130 0v1091h216l21 -143h13q50 80 129 118t171 38q24 0 46.5 -2t40.5 -5v-239q-24 4 -50.5 5.5t-52.5 1.5q-49 0 -100 -13.5t-96 -40.5t-75 -68v-743h-263zM323 1240l221 376h280l-261 -376h-240z" />
    <glyph glyph-name="uni0156" unicode="&#x156;" horiz-adv-x="1353" 
d="M146 0v1450q63 13 134 24t147.5 17t156.5 6q310 0 464.5 -112.5t154.5 -350.5q0 -154 -73.5 -258t-212 -156.5t-334.5 -52.5q-51 0 -91 2t-83 4v-573h-263zM1027 0l-492 688h289l499 -688h-296zM587 769q188 0 276 63.5t88 201.5q0 92 -36.5 150t-112 85.5t-192.5 27.5
q-60 0 -107.5 -5t-93.5 -13v-501q32 -3 59.5 -5t56 -3t62.5 -1zM628 -486q32 63 43.5 108t11.5 91l47 -57h-21q-80 0 -116.5 28t-36.5 74q0 47 37 74.5t114 27.5q80 0 117.5 -35t37.5 -100q0 -50 -19 -107.5t-52 -103.5h-163z" />
    <glyph glyph-name="uni0157" unicode="&#x157;" horiz-adv-x="779" 
d="M130 0v1091h216l21 -143h13q50 80 129 118t171 38q24 0 46.5 -2t40.5 -5v-239q-24 4 -50.5 5.5t-52.5 1.5q-49 0 -100 -13.5t-96 -40.5t-75 -68v-743h-263zM181 -486q32 63 43.5 108t11.5 91l47 -57h-21q-80 0 -116.5 28t-36.5 74q0 47 37 74.5t114 27.5q80 0 117.5 -35
t37.5 -100q0 -50 -19 -107.5t-52 -103.5h-163z" />
    <glyph glyph-name="Rcaron" unicode="&#x158;" horiz-adv-x="1353" 
d="M146 0v1450q63 13 134 24t147.5 17t156.5 6q310 0 464.5 -112.5t154.5 -350.5q0 -154 -73.5 -258t-212 -156.5t-334.5 -52.5q-51 0 -91 2t-83 4v-573h-263zM1027 0l-492 688h289l499 -688h-296zM587 769q188 0 276 63.5t88 201.5q0 92 -36.5 150t-112 85.5t-192.5 27.5
q-60 0 -107.5 -5t-93.5 -13v-501q32 -3 59.5 -5t56 -3t62.5 -1zM546 1600l-252 296h206l182 -223h-44l182 223h206l-252 -296h-228z" />
    <glyph glyph-name="rcaron" unicode="&#x159;" horiz-adv-x="779" 
d="M130 0v1091h216l21 -143h13q50 80 129 118t171 38q24 0 46.5 -2t40.5 -5v-239q-24 4 -50.5 5.5t-52.5 1.5q-49 0 -100 -13.5t-96 -40.5t-75 -68v-743h-263zM333 1240l-231 376h193l169 -288h-42l169 288h193l-231 -376h-220z" />
    <glyph glyph-name="Sacute" unicode="&#x15a;" horiz-adv-x="1121" 
d="M489 -19q-101 0 -204 16t-192 46v220q62 -21 130.5 -35t136.5 -21.5t129 -7.5q161 0 232 54t71 153q0 85 -52.5 131.5t-190.5 81.5l-100 26q-192 49 -289.5 150.5t-97.5 267.5q0 204 146 320t438 116q95 0 183.5 -11.5t158.5 -32.5v-220q-73 23 -158 34.5t-170 11.5
q-121 0 -193.5 -25t-105 -70.5t-32.5 -108.5q0 -80 47.5 -125.5t171.5 -78.5l100 -26q141 -35 232.5 -91.5t135.5 -138t44 -193.5q0 -139 -68 -238t-195.5 -152t-307.5 -53zM451 1600l180 296h278l-220 -296h-238z" />
    <glyph glyph-name="sacute" unicode="&#x15b;" horiz-adv-x="951" 
d="M430 -20q-90 0 -174 11.5t-159 34.5v197q80 -24 162.5 -36t167.5 -12q120 0 171 35.5t51 98.5q0 53 -28 81t-95 41l-167 32q-152 30 -220 106.5t-68 201.5q0 150 119.5 243.5t365.5 93.5q77 0 148.5 -8.5t131.5 -25.5v-197q-64 18 -132.5 27t-139.5 9q-96 0 -149.5 -18.5
t-75.5 -49.5t-22 -68q0 -45 27 -74.5t94 -43.5l166 -31q148 -29 219.5 -100.5t71.5 -207.5q0 -158 -120.5 -249t-344.5 -91zM360 1240l221 376h280l-261 -376h-240z" />
    <glyph glyph-name="Scircumflex" unicode="&#x15c;" horiz-adv-x="1121" 
d="M489 -19q-101 0 -204 16t-192 46v220q62 -21 130.5 -35t136.5 -21.5t129 -7.5q161 0 232 54t71 153q0 85 -52.5 131.5t-190.5 81.5l-100 26q-192 49 -289.5 150.5t-97.5 267.5q0 204 146 320t438 116q95 0 183.5 -11.5t158.5 -32.5v-220q-73 23 -158 34.5t-170 11.5
q-121 0 -193.5 -25t-105 -70.5t-32.5 -108.5q0 -80 47.5 -125.5t171.5 -78.5l100 -26q141 -35 232.5 -91.5t135.5 -138t44 -193.5q0 -139 -68 -238t-195.5 -152t-307.5 -53zM205 1600l252 296h228l252 -296h-206l-182 222h44l-182 -222h-206z" />
    <glyph glyph-name="scircumflex" unicode="&#x15d;" horiz-adv-x="951" 
d="M430 -20q-90 0 -174 11.5t-159 34.5v197q80 -24 162.5 -36t167.5 -12q120 0 171 35.5t51 98.5q0 53 -28 81t-95 41l-167 32q-152 30 -220 106.5t-68 201.5q0 150 119.5 243.5t365.5 93.5q77 0 148.5 -8.5t131.5 -25.5v-197q-64 18 -132.5 27t-139.5 9q-96 0 -149.5 -18.5
t-75.5 -49.5t-22 -68q0 -45 27 -74.5t94 -43.5l166 -31q148 -29 219.5 -100.5t71.5 -207.5q0 -158 -120.5 -249t-344.5 -91zM141 1240l229 376h220l229 -376h-193l-167 287h42l-167 -287h-193z" />
    <glyph glyph-name="Scedilla" unicode="&#x15e;" horiz-adv-x="1121" 
d="M489 -19q-101 0 -204 16t-192 46v220q62 -21 130.5 -35t136.5 -21.5t129 -7.5q161 0 232 54t71 153q0 85 -52.5 131.5t-190.5 81.5l-100 26q-192 49 -289.5 150.5t-97.5 267.5q0 204 146 320t438 116q95 0 183.5 -11.5t158.5 -32.5v-220q-73 23 -158 34.5t-170 11.5
q-121 0 -193.5 -25t-105 -70.5t-32.5 -108.5q0 -80 47.5 -125.5t171.5 -78.5l100 -26q141 -35 232.5 -91.5t135.5 -138t44 -193.5q0 -139 -68 -238t-195.5 -152t-307.5 -53zM552 -433q-54 0 -104.5 9t-94.5 25v108q50 -18 97.5 -26.5t89.5 -8.5q60 0 92 17.5t32 57.5
q0 41 -32.5 59.5t-92.5 18.5h-46v193h132v-151l-56 42q115 0 176.5 -43.5t61.5 -126.5q0 -82 -64 -128t-191 -46z" />
    <glyph glyph-name="scedilla" unicode="&#x15f;" horiz-adv-x="951" 
d="M430 -20q-90 0 -174 11.5t-159 34.5v197q80 -24 162.5 -36t167.5 -12q120 0 171 35.5t51 98.5q0 53 -28 81t-95 41l-167 32q-152 30 -220 106.5t-68 201.5q0 150 119.5 243.5t365.5 93.5q77 0 148.5 -8.5t131.5 -25.5v-197q-64 18 -132.5 27t-139.5 9q-96 0 -149.5 -18.5
t-75.5 -49.5t-22 -68q0 -45 27 -74.5t94 -43.5l166 -31q148 -29 219.5 -100.5t71.5 -207.5q0 -158 -120.5 -249t-344.5 -91zM479 -433q-48 0 -94 9t-83 24v108q41 -18 85.5 -26t80.5 -8q53 0 79 18t26 58q0 77 -106 77h-43v193h131v-151l-61 42q109 0 165 -45.5t56 -126.5
q0 -79 -59 -125.5t-177 -46.5z" />
    <glyph glyph-name="Scaron" unicode="&#x160;" horiz-adv-x="1121" 
d="M489 -19q-101 0 -204 16t-192 46v220q62 -21 130.5 -35t136.5 -21.5t129 -7.5q161 0 232 54t71 153q0 85 -52.5 131.5t-190.5 81.5l-100 26q-192 49 -289.5 150.5t-97.5 267.5q0 204 146 320t438 116q95 0 183.5 -11.5t158.5 -32.5v-220q-73 23 -158 34.5t-170 11.5
q-121 0 -193.5 -25t-105 -70.5t-32.5 -108.5q0 -80 47.5 -125.5t171.5 -78.5l100 -26q141 -35 232.5 -91.5t135.5 -138t44 -193.5q0 -139 -68 -238t-195.5 -152t-307.5 -53zM457 1600l-252 296h206l182 -223h-44l182 223h206l-252 -296h-228z" />
    <glyph glyph-name="scaron" unicode="&#x161;" horiz-adv-x="951" 
d="M430 -20q-90 0 -174 11.5t-159 34.5v197q80 -24 162.5 -36t167.5 -12q120 0 171 35.5t51 98.5q0 53 -28 81t-95 41l-167 32q-152 30 -220 106.5t-68 201.5q0 150 119.5 243.5t365.5 93.5q77 0 148.5 -8.5t131.5 -25.5v-197q-64 18 -132.5 27t-139.5 9q-96 0 -149.5 -18.5
t-75.5 -49.5t-22 -68q0 -45 27 -74.5t94 -43.5l166 -31q148 -29 219.5 -100.5t71.5 -207.5q0 -158 -120.5 -249t-344.5 -91zM370 1240l-231 376h193l169 -288h-42l169 288h193l-231 -376h-220z" />
    <glyph glyph-name="uni0162" unicode="&#x162;" horiz-adv-x="1247" 
d="M489 0v1255h-476v225h1220v-225h-476v-1255h-268zM605 -433q-54 0 -104.5 9t-94.5 25v108q50 -18 97.5 -26.5t89.5 -8.5q60 0 92 17.5t32 57.5q0 41 -32.5 59.5t-92.5 18.5h-46v193h132v-151l-56 42q115 0 176.5 -43.5t61.5 -126.5q0 -82 -64 -128t-191 -46z" />
    <glyph glyph-name="uni0163" unicode="&#x163;" horiz-adv-x="810" 
d="M592 -20q-187 0 -288.5 94t-101.5 299v718l47 389h216v-1066q0 -121 47 -168t148 -47q28 0 57 3.5t64 10.5v-211q-42 -9 -91.5 -15.5t-97.5 -6.5zM15 882v209h756v-209h-756zM491 -433q-48 0 -94 9t-83 24v108q41 -18 85.5 -26t80.5 -8q53 0 79 18t26 58q0 77 -106 77
h-43v193h131v-151l-61 42q109 0 165 -45.5t56 -126.5q0 -79 -59 -125.5t-177 -46.5z" />
    <glyph glyph-name="Tcaron" unicode="&#x164;" horiz-adv-x="1247" 
d="M489 0v1255h-476v225h1220v-225h-476v-1255h-268zM510 1600l-252 296h206l182 -223h-44l182 223h206l-252 -296h-228z" />
    <glyph glyph-name="tcaron" unicode="&#x165;" horiz-adv-x="810" 
d="M592 -20q-187 0 -288.5 94t-101.5 299v718l47 389h216v-1066q0 -121 47 -168t148 -47q28 0 57 3.5t64 10.5v-211q-42 -9 -91.5 -15.5t-97.5 -6.5zM15 882v209h756v-209h-756zM585 1180q16 111 21.5 219t5.5 217h180q0 -113 -16 -227.5t-47 -208.5h-144z" />
    <glyph glyph-name="Tbar" unicode="&#x166;" horiz-adv-x="1247" 
d="M181 658v175h886v-175h-886zM489 0v1255h-476v225h1220v-225h-476v-1255h-268z" />
    <glyph glyph-name="tbar" unicode="&#x167;" horiz-adv-x="810" 
d="M72 522v164h649v-164h-649zM592 -20q-187 0 -288.5 94t-101.5 299v718l47 389h216v-1066q0 -121 47 -168t148 -47q28 0 57 3.5t64 10.5v-211q-42 -9 -91.5 -15.5t-97.5 -6.5zM15 882v209h756v-209h-756z" />
    <glyph glyph-name="Utilde" unicode="&#x168;" horiz-adv-x="1467" 
d="M737 -19q-207 0 -339 66.5t-195.5 202.5t-63.5 344v886h268v-912q0 -192 81 -278.5t249 -86.5t248.5 86.5t80.5 278.5v912h263v-886q0 -208 -63 -344t-194 -202.5t-335 -66.5zM903 1636q-52 0 -96 13t-86 28q-38 14 -76 24.5t-78 10.5q-59 0 -102.5 -17t-87.5 -53v158
q37 35 83.5 52t110.5 17q52 0 96.5 -12.5t85.5 -28.5q39 -13 76.5 -24.5t77.5 -11.5q59 0 103 17.5t87 53.5v-158q-37 -35 -83.5 -52t-110.5 -17z" />
    <glyph glyph-name="utilde" unicode="&#x169;" horiz-adv-x="1183" 
d="M487 -19q-107 0 -189.5 41t-129.5 131.5t-47 240.5v697h262v-681q0 -113 48.5 -157t126.5 -44q39 0 81.5 11.5t81.5 36t69 61.5v773h263v-1091h-218l-18 113h-12q-64 -65 -146 -98.5t-172 -33.5zM740 1306q-47 0 -88.5 15.5t-80.5 32.5q-36 16 -70.5 28.5t-70.5 12.5
q-53 0 -96 -19.5t-86 -62.5v170q71 74 186 74q47 0 89 -15t80 -33q37 -15 71.5 -28t69.5 -13q54 0 97 20t85 62v-170q-71 -74 -186 -74z" />
    <glyph glyph-name="Umacron" unicode="&#x16a;" horiz-adv-x="1467" 
d="M737 -19q-207 0 -339 66.5t-195.5 202.5t-63.5 344v886h268v-912q0 -192 81 -278.5t249 -86.5t248.5 86.5t80.5 278.5v912h263v-886q0 -208 -63 -344t-194 -202.5t-335 -66.5zM391 1662v162h692v-162h-692z" />
    <glyph glyph-name="umacron" unicode="&#x16b;" horiz-adv-x="1183" 
d="M487 -19q-107 0 -189.5 41t-129.5 131.5t-47 240.5v697h262v-681q0 -113 48.5 -157t126.5 -44q39 0 81.5 11.5t81.5 36t69 61.5v773h263v-1091h-218l-18 113h-12q-64 -65 -146 -98.5t-172 -33.5zM248 1340v162h678v-162h-678z" />
    <glyph glyph-name="Ubreve" unicode="&#x16c;" horiz-adv-x="1467" 
d="M737 -19q-207 0 -339 66.5t-195.5 202.5t-63.5 344v886h268v-912q0 -192 81 -278.5t249 -86.5t248.5 86.5t80.5 278.5v912h263v-886q0 -208 -63 -344t-194 -202.5t-335 -66.5zM738 1605q-113 0 -189.5 34.5t-119 97t-52.5 146.5h164q12 -70 58 -107t139 -37q94 0 139 37
t56 107h164q-10 -84 -52 -146.5t-118.5 -97t-188.5 -34.5z" />
    <glyph glyph-name="ubreve" unicode="&#x16d;" horiz-adv-x="1183" 
d="M487 -19q-107 0 -189.5 41t-129.5 131.5t-47 240.5v697h262v-681q0 -113 48.5 -157t126.5 -44q39 0 81.5 11.5t81.5 36t69 61.5v773h263v-1091h-218l-18 113h-12q-64 -65 -146 -98.5t-172 -33.5zM588 1250q-155 0 -244.5 88t-97.5 254h163q8 -101 51.5 -152t127.5 -51
q85 0 128 51t49 152h163q-8 -166 -96.5 -254t-243.5 -88z" />
    <glyph glyph-name="Uring" unicode="&#x16e;" horiz-adv-x="1467" 
d="M737 -19q-207 0 -339 66.5t-195.5 202.5t-63.5 344v886h268v-912q0 -192 81 -278.5t249 -86.5t248.5 86.5t80.5 278.5v912h263v-886q0 -208 -63 -344t-194 -202.5t-335 -66.5zM737 1589q-90 0 -149 57.5t-59 145.5q0 89 59 146.5t149 57.5t149 -57.5t59 -146.5
q0 -88 -59 -145.5t-149 -57.5zM737 1688q45 0 73.5 28t28.5 76q0 49 -28.5 77t-73.5 28q-44 0 -73 -28t-29 -77q0 -48 28.5 -76t73.5 -28z" />
    <glyph glyph-name="uring" unicode="&#x16f;" horiz-adv-x="1183" 
d="M487 -19q-107 0 -189.5 41t-129.5 131.5t-47 240.5v697h262v-681q0 -113 48.5 -157t126.5 -44q39 0 81.5 11.5t81.5 36t69 61.5v773h263v-1091h-218l-18 113h-12q-64 -65 -146 -98.5t-172 -33.5zM587 1235q-90 0 -149 57.5t-59 146.5q0 88 59 145.5t149 57.5t149 -57.5
t59 -145.5q0 -89 -59 -146.5t-149 -57.5zM587 1334q45 0 73.5 28.5t28.5 76.5t-28.5 76t-73.5 28q-44 0 -73 -28t-29 -76t28.5 -76.5t73.5 -28.5z" />
    <glyph glyph-name="Uhungarumlaut" unicode="&#x170;" horiz-adv-x="1467" 
d="M737 -19q-207 0 -339 66.5t-195.5 202.5t-63.5 344v886h268v-912q0 -192 81 -278.5t249 -86.5t248.5 86.5t80.5 278.5v912h263v-886q0 -208 -63 -344t-194 -202.5t-335 -66.5zM829 1600l133 296h211l-147 -296h-197zM448 1600l134 296h211l-148 -296h-197z" />
    <glyph glyph-name="uhungarumlaut" unicode="&#x171;" horiz-adv-x="1183" 
d="M487 -19q-107 0 -189.5 41t-129.5 131.5t-47 240.5v697h262v-681q0 -113 48.5 -157t126.5 -44q39 0 81.5 11.5t81.5 36t69 61.5v773h263v-1091h-218l-18 113h-12q-64 -65 -146 -98.5t-172 -33.5zM679 1240l144 376h210l-159 -376h-195zM300 1240l143 376h210l-158 -376
h-195z" />
    <glyph glyph-name="Uogonek" unicode="&#x172;" horiz-adv-x="1467" 
d="M825 -432q-133 0 -199 53.5t-66 147.5q0 78 53 145.5t187 118.5l-17 -52h-46q-207 0 -339 66.5t-195.5 202.5t-63.5 344v886h268v-912q0 -192 81 -278.5t249 -86.5t248.5 86.5t80.5 278.5v912h263v-886q0 -234 -81.5 -379.5t-260.5 -200.5q-109 -35 -168 -72t-82 -76.5
t-23 -79.5q0 -51 35 -79t109 -28q32 0 68 8t80 24v-109q-41 -15 -85 -24.5t-96 -9.5z" />
    <glyph glyph-name="uogonek" unicode="&#x173;" horiz-adv-x="1183" 
d="M487 -19q-107 0 -189.5 41t-129.5 131.5t-47 240.5v697h262v-681q0 -113 48.5 -157t126.5 -44q39 0 81.5 11.5t81.5 36t69 61.5v773h263v-1091l-209 -11l-27 124h-12q-64 -65 -146 -98.5t-172 -33.5zM941 -433q-120 0 -182.5 54t-62.5 145q0 60 27 113t89 99.5t168 87.5
l73 -66q-78 -35 -122 -70t-62.5 -71.5t-18.5 -75.5q0 -49 32 -77t91 -28q31 0 64.5 8.5t69.5 25.5v-110q-35 -15 -76 -25t-90 -10z" />
    <glyph glyph-name="Wcircumflex" unicode="&#x174;" horiz-adv-x="2221" 
d="M439 0l-400 1480h272l352 -1360h-67l372 1360h300l362 -1360h-61l358 1360h255l-400 -1480h-345l-356 1315h70l-367 -1315h-345zM745 1600l252 296h228l252 -296h-206l-182 222h44l-182 -222h-206z" />
    <glyph glyph-name="wcircumflex" unicode="&#x175;" horiz-adv-x="1769" 
d="M352 0l-303 1091h251l222 -841h-16l237 841h295l234 -841h-20l227 841h241l-301 -1091h-295l-246 871h18l-249 -871h-295zM547 1240l229 376h220l229 -376h-193l-167 287h42l-167 -287h-193z" />
    <glyph glyph-name="Ycircumflex" unicode="&#x176;" horiz-adv-x="1247" 
d="M491 0v746l55 -197l-591 931h287l428 -678h-79l423 678h267l-578 -931l56 194v-743h-268zM258 1600l252 296h228l252 -296h-206l-182 222h44l-182 -222h-206z" />
    <glyph glyph-name="ycircumflex" unicode="&#x177;" horiz-adv-x="1128" 
d="M311 -440l160 440l89 204l303 887h260l-553 -1531h-259zM398 0l-393 1091h275l364 -1091h-246zM225 1240l229 376h220l229 -376h-193l-167 287h42l-167 -287h-193z" />
    <glyph glyph-name="Ydieresis" unicode="&#x178;" horiz-adv-x="1247" 
d="M491 0v746l55 -197l-591 931h287l428 -678h-79l423 678h267l-578 -931l56 194v-743h-268zM873 1625q-72 0 -109.5 33.5t-37.5 92.5q0 60 37.5 93.5t109.5 33.5t109.5 -33.5t37.5 -93.5q0 -59 -37.5 -92.5t-109.5 -33.5zM375 1625q-72 0 -109.5 33.5t-37.5 92.5
q0 60 37.5 93.5t109.5 33.5t109.5 -33.5t37.5 -93.5q0 -59 -37.5 -92.5t-109.5 -33.5z" />
    <glyph glyph-name="Zacute" unicode="&#x179;" horiz-adv-x="1209" 
d="M60 0v147l766 1163l6 -54h-761v224h1067v-147l-766 -1163l-6 54h783v-224h-1089zM485 1600l180 296h278l-220 -296h-238z" />
    <glyph glyph-name="zacute" unicode="&#x17a;" horiz-adv-x="980" 
d="M64 0v165l566 767v-50h-555v209h842v-166l-565 -767v51h576v-209h-864zM377 1240l221 376h280l-261 -376h-240z" />
    <glyph glyph-name="Zdotaccent" unicode="&#x17b;" horiz-adv-x="1209" 
d="M60 0v147l766 1163l6 -54h-761v224h1067v-147l-766 -1163l-6 54h783v-224h-1089zM605 1625q-81 0 -123.5 33.5t-42.5 92.5q0 60 42.5 93.5t123.5 33.5q82 0 124 -33.5t42 -93.5q0 -59 -42 -92.5t-124 -33.5z" />
    <glyph glyph-name="zdotaccent" unicode="&#x17c;" horiz-adv-x="980" 
d="M64 0v165l566 767v-50h-555v209h842v-166l-565 -767v51h576v-209h-864zM497 1277q-84 0 -125.5 38t-41.5 105q0 68 41.5 105.5t125.5 37.5q85 0 126 -37.5t41 -105.5q0 -67 -41 -105t-126 -38z" />
    <glyph glyph-name="Zcaron" unicode="&#x17d;" horiz-adv-x="1209" 
d="M60 0v147l766 1163l6 -54h-761v224h1067v-147l-766 -1163l-6 54h783v-224h-1089zM491 1600l-252 296h206l182 -223h-44l182 223h206l-252 -296h-228z" />
    <glyph glyph-name="zcaron" unicode="&#x17e;" horiz-adv-x="980" 
d="M64 0v165l566 767v-50h-555v209h842v-166l-565 -767v51h576v-209h-864zM387 1240l-231 376h193l169 -288h-42l169 288h193l-231 -376h-220z" />
    <glyph glyph-name="uni018F" unicode="&#x18f;" horiz-adv-x="1503" 
d="M754 -19q-202 0 -353.5 80t-235.5 245.5t-84 423.5v96h1151v-198h-973l96 96q0 -198 45.5 -314.5t134.5 -167.5t222 -51q123 0 210 49.5t133.5 166t46.5 316.5q0 211 -64.5 333t-192.5 174t-318 52q-93 0 -198.5 -11.5t-200.5 -34.5v219q101 23 209 33.5t211 10.5
q267 0 449.5 -80.5t276 -250.5t93.5 -439q0 -255 -82 -420.5t-230 -246.5t-346 -81z" />
    <glyph glyph-name="florin" unicode="&#x192;" horiz-adv-x="772" 
d="M15 -460q-40 0 -78.5 3t-77.5 9v209q35 -5 62.5 -7.5t56.5 -2.5q120 0 176 49t56 155v1252q0 136 52 232t154 146.5t250 50.5q40 0 78.5 -3t77.5 -9v-209q-34 5 -61.5 7.5t-57.5 2.5q-119 0 -175.5 -49t-56.5 -155v-1252q0 -136 -52 -232t-154 -146.5t-250 -50.5zM23 881
v210h755v-210h-755z" />
    <glyph glyph-name="Ohorn" unicode="&#x1a0;" horiz-adv-x="1519" 
d="M759 -19q-202 0 -352 81t-233 249t-83 429t83.5 429t233.5 249t351 81q56 0 106 -5.5t98.5 -11t99.5 -5.5q91 0 140.5 36.5t49.5 121.5q0 35 -4.5 68.5t-14.5 72.5h181q13 -39 17.5 -74.5t4.5 -77.5q0 -94 -38 -156t-107.5 -92.5t-163.5 -30.5l17 52q134 -83 208 -246
t74 -411q0 -262 -82.5 -430t-233 -248.5t-352.5 -80.5zM759 200q122 0 210 53t135.5 170.5t47.5 310.5q0 199 -48 319t-136 173.5t-209 53.5q-120 0 -208.5 -52.5t-136.5 -170t-48 -311.5q0 -200 48 -320t136 -173t209 -53z" />
    <glyph glyph-name="ohorn" unicode="&#x1a1;" horiz-adv-x="1171" 
d="M586 -20q-155 0 -269 61t-176.5 185.5t-62.5 316.5q0 193 61 318t176 186t276 61q58 0 104.5 -5t79.5 -5q87 0 136 36.5t49 121.5q0 35 -4.5 68t-14.5 72h171q13 -39 17.5 -74.5t4.5 -76.5q0 -94 -38 -156t-106.5 -93t-160.5 -31l45 70q219 -131 219 -491
q0 -191 -62 -316.5t-176 -186.5t-269 -61zM586 182q76 0 130 33t83 111.5t29 215.5q0 139 -29 218.5t-83.5 112.5t-129.5 33q-76 0 -130.5 -33t-83.5 -111.5t-29 -215.5q0 -139 29 -218.5t83.5 -112.5t130.5 -33z" />
    <glyph glyph-name="Uhorn" unicode="&#x1af;" horiz-adv-x="1470" 
d="M737 -19q-207 0 -339 66.5t-195.5 202.5t-63.5 344v886h268v-912q0 -192 81 -278.5t249 -86.5t248.5 86.5t80.5 278.5v912h89q91 0 140.5 35t49.5 120q0 35 -5 68.5t-14 72.5h181q13 -39 17.5 -74.5t4.5 -77.5q0 -109 -54 -174t-146 -85v-771q0 -208 -63 -344
t-194 -202.5t-335 -66.5z" />
    <glyph glyph-name="uhorn" unicode="&#x1b0;" horiz-adv-x="1214" 
d="M487 -19q-107 0 -189.5 41t-129.5 131.5t-47 240.5v697h262v-681q0 -113 48.5 -157t126.5 -44q39 0 81.5 11.5t81.5 36t69 61.5v773h103q87 0 136 36.5t49 121.5q0 35 -5 68t-14 72h171q12 -39 17 -74.5t5 -76.5q0 -94 -38 -156t-106.5 -93t-160.5 -31l106 106v-1064
h-218l-18 113h-12q-64 -65 -146 -98.5t-172 -33.5z" />
    <glyph glyph-name="uni01C4" unicode="&#x1c4;" horiz-adv-x="2624" 
d="M532 -14q-60 0 -123.5 2.5t-129.5 7.5t-133 13v1441q65 14 139.5 24.5t151 16t149.5 5.5q390 0 588.5 -184.5t198.5 -571.5q0 -264 -93 -430.5t-280 -245t-468 -78.5zM598 206q167 0 278.5 53.5t166.5 171.5t55 310q0 191 -55 309t-165.5 172.5t-274.5 54.5
q-44 0 -93.5 -4.5t-96.5 -12.5v-1045q45 -5 89.5 -7t95.5 -2zM1476 0v147l766 1163l6 -54h-761v224h1067v-147l-766 -1163l-6 54h783v-224h-1089zM1907 1600l-252 296h206l182 -223h-44l182 223h206l-252 -296h-228z" />
    <glyph glyph-name="uni01C5" unicode="&#x1c5;" horiz-adv-x="2444" 
d="M532 -14q-60 0 -123.5 2.5t-129.5 7.5t-133 13v1441q65 14 139.5 24.5t151 16t149.5 5.5q390 0 588.5 -184.5t198.5 -571.5q0 -264 -93 -430.5t-280 -245t-468 -78.5zM598 206q167 0 278.5 53.5t166.5 171.5t55 310q0 191 -55 309t-165.5 172.5t-274.5 54.5
q-44 0 -93.5 -4.5t-96.5 -12.5v-1045q45 -5 89.5 -7t95.5 -2zM1529 0v165l566 767v-50h-555v209h842v-166l-565 -767v51h576v-209h-864zM1847 1280l-252 296h206l182 -223h-44l182 223h206l-252 -296h-228z" />
    <glyph glyph-name="uni01C6" unicode="&#x1c6;" horiz-adv-x="2174" 
d="M519 -19q-120 0 -220.5 54.5t-160.5 174t-60 313.5q0 192 66 322.5t195 197t318 66.5q38 0 75.5 -3t68.5 -8v518h263v-1616h-221l-17 116h-13q-48 -60 -122 -97.5t-172 -37.5zM593 198q57 0 113 23t95 72v598q-29 6 -68 10.5t-77 4.5q-155 0 -234 -84t-79 -278
q0 -134 31.5 -209t88 -106t130.5 -31zM1258 0v165l566 767v-50h-555v209h842v-166l-565 -767v51h576v-209h-864zM1581 1240l-231 376h193l169 -288h-42l169 288h193l-231 -376h-220z" />
    <glyph glyph-name="uni01C7" unicode="&#x1c7;" horiz-adv-x="1680" 
d="M146 0v1480h267v-1255h698v-225h-965zM1275 -348l-171 116q59 81 95.5 158.5t52.5 166t16 203.5v1184h266v-1190q0 -124 -25.5 -229t-82.5 -204.5t-151 -204.5z" />
    <glyph glyph-name="uni01C8" unicode="&#x1c8;" horiz-adv-x="1644" 
d="M146 0v1480h267v-1255h698v-225h-965zM1258 -469l-171 114q60 81 96 160.5t52 168.5t16 200v917h263v-905q0 -128 -25 -237t-81.5 -211t-149.5 -207zM1380 1280q-84 0 -125.5 38t-41.5 105q0 68 41.5 105.5t125.5 37.5q85 0 126 -37.5t41 -105.5q0 -67 -41 -105t-126 -38
z" />
    <glyph glyph-name="uni01C9" unicode="&#x1c9;" horiz-adv-x="1047" 
d="M130 0v1616h263v-1616h-263zM660 -469l-171 114q60 81 96 160.5t52 168.5t16 200v917h263v-905q0 -128 -25 -237t-81.5 -211t-149.5 -207zM782 1280q-84 0 -125.5 38t-41.5 105q0 68 41.5 105.5t125.5 37.5q85 0 126 -37.5t41 -105.5q0 -67 -41 -105t-126 -38z" />
    <glyph glyph-name="uni01CA" unicode="&#x1ca;" horiz-adv-x="2076" 
d="M146 0v1480h270l753 -1154h-50v1154h252v-1480h-270l-753 1154h50v-1154h-252zM1671 -348l-171 116q59 81 95.5 158.5t52.5 166t16 203.5v1184h266v-1190q0 -124 -25.5 -229t-82.5 -204.5t-151 -204.5z" />
    <glyph glyph-name="uni01CB" unicode="&#x1cb;" horiz-adv-x="2041" 
d="M146 0v1480h270l753 -1154h-50v1154h252v-1480h-270l-753 1154h50v-1154h-252zM1654 -469l-171 114q60 81 96 160.5t52 168.5t16 200v917h263v-905q0 -128 -25 -237t-81.5 -211t-149.5 -207zM1776 1280q-84 0 -125.5 38t-41.5 105q0 68 41.5 105.5t125.5 37.5
q85 0 126 -37.5t41 -105.5q0 -67 -41 -105t-126 -38z" />
    <glyph glyph-name="uni01CC" unicode="&#x1cc;" horiz-adv-x="1716" 
d="M130 0v1091h218l18 -115h13q63 64 147 98t181 34q106 0 188.5 -41t129.5 -131.5t47 -241.5v-694h-263v679q0 113 -48 157t-132 44q-40 0 -83 -11t-83 -35t-70 -63v-771h-263zM1329 -469l-171 114q60 81 96 160.5t52 168.5t16 200v917h263v-905q0 -128 -25 -237
t-81.5 -211t-149.5 -207zM1451 1280q-84 0 -125.5 38t-41.5 105q0 68 41.5 105.5t125.5 37.5q85 0 126 -37.5t41 -105.5q0 -67 -41 -105t-126 -38z" />
    <glyph glyph-name="Gcaron" unicode="&#x1e6;" horiz-adv-x="1398" 
d="M907 -15q-271 0 -452 80.5t-272.5 247t-91.5 424.5q0 260 94 428.5t273 251t432 82.5q86 0 169 -10t164 -30v-223q-82 21 -158 30t-153 9q-179 0 -299 -53t-181 -172t-61 -316q0 -186 57 -302.5t172 -170.5t287 -54q64 0 125 5t113 14l-113 -102v596h251v-704
q-95 -16 -182 -23.5t-174 -7.5zM669 1600l-252 296h206l182 -223h-44l182 223h206l-252 -296h-228z" />
    <glyph glyph-name="gcaron" unicode="&#x1e7;" horiz-adv-x="1194" 
d="M501 -460q-82 0 -173.5 11t-175.5 35v209q89 -26 173 -38t157 -12q166 0 242.5 65.5t76.5 221.5v84h-13q-48 -57 -121 -91t-168 -34q-112 0 -208 55t-154.5 172t-58.5 305q0 287 149 436t447 149q65 0 134 -6.5t134.5 -19.5t121.5 -31v-972q0 -286 -139.5 -412.5
t-423.5 -126.5zM594 207q57 0 112.5 21t94.5 66v594q-29 8 -68 13t-82 5q-149 0 -228.5 -83.5t-79.5 -276.5q0 -132 32 -206t88.5 -103.5t130.5 -29.5zM510 1240l-231 376h193l169 -288h-42l169 288h193l-231 -376h-220z" />
    <glyph glyph-name="uni01EA" unicode="&#x1ea;" horiz-adv-x="1519" 
d="M843 -433q-132 0 -199 53.5t-67 145.5q0 80 53.5 148t185.5 119l-17 -52h-46q-201 0 -349.5 81.5t-230.5 249.5t-82 428q0 261 83.5 429t233.5 249t351 81q202 0 352 -80.5t233 -248.5t83 -430q0 -218 -57 -365.5t-155 -235t-218 -125.5q-102 -33 -160 -70.5t-81.5 -78
t-23.5 -81.5q0 -51 35 -78.5t109 -27.5q32 0 68 8t81 24v-109q-42 -15 -86 -24.5t-96 -9.5zM759 200q122 0 210 53t135.5 170.5t47.5 310.5q0 199 -48 319t-136 173.5t-209 53.5q-120 0 -208.5 -52.5t-136.5 -170t-48 -311.5q0 -200 48 -320t136 -173t209 -53z" />
    <glyph glyph-name="uni01EB" unicode="&#x1eb;" horiz-adv-x="1171" 
d="M638 -433q-118 0 -181.5 54.5t-63.5 146.5q0 81 48 145.5t154 110.5l-8 -44q-156 0 -270 61t-176.5 185.5t-62.5 316.5q0 193 61 318t175 186t272 61t272 -61t174.5 -186t60.5 -317q0 -222 -81.5 -353t-228.5 -182q-93 -32 -144 -68.5t-71.5 -75.5t-20.5 -77
q0 -51 32.5 -80.5t91.5 -29.5q29 0 60 7t65 22l9 -106q-36 -15 -76.5 -24.5t-90.5 -9.5zM586 182q76 0 130 33t83 111.5t29 215.5q0 139 -29 218.5t-83.5 112.5t-129.5 33q-76 0 -130.5 -33t-83.5 -111.5t-29 -215.5q0 -139 29 -218.5t83.5 -112.5t130.5 -33z" />
    <glyph glyph-name="uni01F1" unicode="&#x1f1;" horiz-adv-x="2624" 
d="M532 -14q-60 0 -123.5 2.5t-129.5 7.5t-133 13v1441q65 14 139.5 24.5t151 16t149.5 5.5q390 0 588.5 -184.5t198.5 -571.5q0 -264 -93 -430.5t-280 -245t-468 -78.5zM598 206q167 0 278.5 53.5t166.5 171.5t55 310q0 191 -55 309t-165.5 172.5t-274.5 54.5
q-44 0 -93.5 -4.5t-96.5 -12.5v-1045q45 -5 89.5 -7t95.5 -2zM1476 0v147l766 1163l6 -54h-761v224h1067v-147l-766 -1163l-6 54h783v-224h-1089z" />
    <glyph glyph-name="uni01F2" unicode="&#x1f2;" horiz-adv-x="2444" 
d="M532 -14q-60 0 -123.5 2.5t-129.5 7.5t-133 13v1441q65 14 139.5 24.5t151 16t149.5 5.5q390 0 588.5 -184.5t198.5 -571.5q0 -264 -93 -430.5t-280 -245t-468 -78.5zM598 206q167 0 278.5 53.5t166.5 171.5t55 310q0 191 -55 309t-165.5 172.5t-274.5 54.5
q-44 0 -93.5 -4.5t-96.5 -12.5v-1045q45 -5 89.5 -7t95.5 -2zM1529 0v165l566 767v-50h-555v209h842v-166l-565 -767v51h576v-209h-864z" />
    <glyph glyph-name="uni01F3" unicode="&#x1f3;" horiz-adv-x="2174" 
d="M519 -19q-120 0 -220.5 54.5t-160.5 174t-60 313.5q0 192 66 322.5t195 197t318 66.5q38 0 75.5 -3t68.5 -8v518h263v-1616h-221l-17 116h-13q-48 -60 -122 -97.5t-172 -37.5zM593 198q57 0 113 23t95 72v598q-29 6 -68 10.5t-77 4.5q-155 0 -234 -84t-79 -278
q0 -134 31.5 -209t88 -106t130.5 -31zM1258 0v165l566 767v-50h-555v209h842v-166l-565 -767v51h576v-209h-864z" />
    <glyph glyph-name="uni01F4" unicode="&#x1f4;" horiz-adv-x="1398" 
d="M907 -15q-271 0 -452 80.5t-272.5 247t-91.5 424.5q0 260 94 428.5t273 251t432 82.5q86 0 169 -10t164 -30v-223q-82 21 -158 30t-153 9q-179 0 -299 -53t-181 -172t-61 -316q0 -186 57 -302.5t172 -170.5t287 -54q64 0 125 5t113 14l-113 -102v596h251v-704
q-95 -16 -182 -23.5t-174 -7.5zM663 1600l180 296h278l-220 -296h-238z" />
    <glyph glyph-name="uni01F5" unicode="&#x1f5;" horiz-adv-x="1194" 
d="M501 -460q-82 0 -173.5 11t-175.5 35v209q89 -26 173 -38t157 -12q166 0 242.5 65.5t76.5 221.5v84h-13q-48 -57 -121 -91t-168 -34q-112 0 -208 55t-154.5 172t-58.5 305q0 287 149 436t447 149q65 0 134 -6.5t134.5 -19.5t121.5 -31v-972q0 -286 -139.5 -412.5
t-423.5 -126.5zM594 207q57 0 112.5 21t94.5 66v594q-29 8 -68 13t-82 5q-149 0 -228.5 -83.5t-79.5 -276.5q0 -132 32 -206t88.5 -103.5t130.5 -29.5zM500 1240l221 376h280l-261 -376h-240z" />
    <glyph glyph-name="Aringacute" unicode="&#x1fa;" horiz-adv-x="1419" 
d="M19 0l497 1480h387l497 -1480h-265l-443 1361h31l-442 -1361h-262zM333 425l58 215h636l58 -215h-752zM709 1589q-90 0 -149 57.5t-59 146.5q0 88 59 145.5t149 57.5t149 -57.5t59 -145.5q0 -89 -59 -146.5t-149 -57.5zM709 1688q45 0 73.5 28.5t28.5 76.5
q0 49 -28.5 76.5t-73.5 27.5q-44 0 -73 -27.5t-29 -76.5q0 -48 29 -76.5t73 -28.5zM859 1873l-120 75l144 166h198z" />
    <glyph glyph-name="aringacute" unicode="&#x1fb;" horiz-adv-x="1086" 
d="M419 -19q-163 0 -254.5 84.5t-91.5 224.5q0 150 102.5 234.5t330.5 101.5l252 24l28 -152l-255 -23q-105 -10 -151 -50t-46 -110q0 -71 42 -109t124 -38q54 0 109 21t100 70v429q0 83 -26.5 130.5t-84 67t-149.5 19.5q-62 0 -141 -11t-154 -34v201q77 23 168.5 35
t171.5 12q161 0 265.5 -40.5t155.5 -136t51 -259.5v-672h-217l-19 113h-13q-50 -67 -128.5 -99.5t-169.5 -32.5zM540 1235q-90 0 -149 57.5t-59 146.5q0 88 59 145.5t149 57.5q91 0 149.5 -57.5t58.5 -145.5q0 -89 -58.5 -146.5t-149.5 -57.5zM540 1334q45 0 73.5 28.5
t28.5 76.5t-28.5 76t-73.5 28q-44 0 -72.5 -28t-28.5 -76t28.5 -76.5t72.5 -28.5zM686 1520l-120 73l150 187h197z" />
    <glyph glyph-name="AEacute" unicode="&#x1fc;" horiz-adv-x="1950" 
d="M19 0l502 1480h461l-1 -217h-279l-419 -1263h-264zM335 424l59 217h611v-217h-670zM964 0l-107 1480h1011v-217h-736l80 -1046h666v-217h-914zM1051 649v217h717v-217h-717zM868 1600l180 296h278l-220 -296h-238z" />
    <glyph glyph-name="aeacute" unicode="&#x1fd;" horiz-adv-x="1698" 
d="M1268 -20q-189 0 -312.5 58.5t-184 183.5t-60.5 325l40 20q0 174 52.5 295t151.5 183.5t238 62.5q138 0 236.5 -62.5t151 -189t52.5 -317.5v-72h-716v158h516l-46 -24q0 126 -24 199.5t-70.5 105t-113.5 31.5q-68 0 -115.5 -31.5t-72.5 -104.5t-25 -197v-102
q0 -118 33 -188.5t107 -101t197 -30.5q62 0 131 10t141 28v-201q-83 -21 -158.5 -30t-148.5 -9zM441 -19q-118 0 -200.5 38t-125 107.5t-42.5 165.5q0 98 45.5 173t144.5 117.5t259 42.5h242v-153h-219q-78 0 -124.5 -20.5t-66.5 -56.5t-20 -82q0 -70 43 -107.5t126 -37.5
q69 0 134.5 30.5t122.5 110.5l79 -129q-86 -113 -188 -156t-210 -43zM711 547v140q0 84 -28 131.5t-86 67t-149 19.5q-61 0 -140 -11t-153 -34v201q80 24 165.5 35.5t162.5 11.5q152 0 250.5 -42.5t146 -136.5t47.5 -249v-142zM722 1240l221 376h280l-261 -376h-240z" />
    <glyph glyph-name="Oslashacute" unicode="&#x1fe;" horiz-adv-x="1519" 
d="M285 -2h-188l1134 1483h187zM759 -19q-201 0 -351 81t-233.5 249t-83.5 429t83.5 429t233.5 249t351 81q202 0 352 -81t233 -249.5t83 -428.5t-83 -428.5t-233.5 -249.5t-351.5 -81zM759 200q122 0 210 53t135.5 170.5t47.5 310.5q0 199 -48 319t-136 173.5t-209 53.5
q-120 0 -208.5 -52.5t-136.5 -170t-48 -311.5q0 -200 48 -320t136 -173t209 -53zM637 1600l180 296h278l-220 -296h-238z" />
    <glyph glyph-name="oslashacute" unicode="&#x1ff;" horiz-adv-x="1171" 
d="M967 956q61 -69 93.5 -172t32.5 -240q0 -191 -62 -316.5t-176 -186.5t-269 -61q-79 0 -147 17t-123 54l-46 -63h-172l106 148q-61 69 -93.5 170.5t-32.5 236.5q0 193 61 318t175 186t272 61q78 0 145 -17t122 -52l46 64h173zM586 909q-78 0 -134 -33t-86 -112.5
t-30 -217.5q0 -63 9 -112t26 -83l362 505q-28 29 -65.5 41t-81.5 12zM586 179q78 0 134 33t85.5 112.5t29.5 217.5q0 66 -9 116t-26 86l-364 -510q29 -29 66.5 -42t83.5 -13zM462 1240l221 376h280l-261 -376h-240z" />
    <glyph glyph-name="uni0200" unicode="&#x200;" horiz-adv-x="1419" 
d="M19 0l497 1480h387l497 -1480h-265l-443 1361h31l-442 -1361h-262zM333 425l58 215h636l58 -215h-752zM801 1600l-148 296h211l134 -296h-197zM420 1600l-147 296h211l133 -296h-197z" />
    <glyph glyph-name="uni0201" unicode="&#x201;" horiz-adv-x="1086" 
d="M419 -19q-163 0 -254.5 84.5t-91.5 224.5q0 150 102.5 234.5t330.5 101.5l252 24l28 -152l-255 -23q-105 -10 -151 -50t-46 -110q0 -71 42 -109t124 -38q54 0 109 21t100 70v429q0 83 -26.5 130.5t-84 67t-149.5 19.5q-62 0 -141 -11t-154 -34v201q77 23 168.5 35
t171.5 12q161 0 265.5 -40.5t155.5 -136t51 -259.5v-672h-217l-19 113h-13q-50 -67 -128.5 -99.5t-169.5 -32.5zM632 1240l-158 376h211l144 -376h-197zM251 1240l-158 376h212l143 -376h-197z" />
    <glyph glyph-name="uni0202" unicode="&#x202;" horiz-adv-x="1419" 
d="M19 0l497 1480h387l497 -1480h-265l-443 1361h31l-442 -1361h-262zM333 425l58 215h636l58 -215h-752zM349 1612q10 85 52 147t118.5 96.5t188.5 34.5q113 0 189.5 -34.5t119 -97t52.5 -146.5h-164q-12 71 -57.5 107.5t-139.5 36.5q-93 0 -138.5 -36.5t-56.5 -107.5h-164
z" />
    <glyph glyph-name="uni0203" unicode="&#x203;" horiz-adv-x="1086" 
d="M419 -19q-163 0 -254.5 84.5t-91.5 224.5q0 150 102.5 234.5t330.5 101.5l252 24l28 -152l-255 -23q-105 -10 -151 -50t-46 -110q0 -71 42 -109t124 -38q54 0 109 21t100 70v429q0 83 -26.5 130.5t-84 67t-149.5 19.5q-62 0 -141 -11t-154 -34v201q77 23 168.5 35
t171.5 12q161 0 265.5 -40.5t155.5 -136t51 -259.5v-672h-217l-19 113h-13q-50 -67 -128.5 -99.5t-169.5 -32.5zM199 1268q8 168 96 255.5t244 87.5q155 0 244.5 -87.5t97.5 -255.5h-163q-7 103 -51 153.5t-128 50.5q-85 0 -127.5 -50.5t-49.5 -153.5h-163z" />
    <glyph glyph-name="uni0204" unicode="&#x204;" horiz-adv-x="1223" 
d="M146 0v1480h995v-217h-731v-1046h741v-217h-1005zM307 649v217h734v-217h-734zM758 1600l-148 296h211l134 -296h-197zM377 1600l-147 296h211l133 -296h-197z" />
    <glyph glyph-name="uni0205" unicode="&#x205;" horiz-adv-x="1081" 
d="M648 -20q-193 0 -319.5 58.5t-188.5 183.5t-62 324q0 185 57.5 310t165.5 188.5t261 63.5q147 0 248.5 -63.5t153.5 -190.5t52 -316v-71h-790v158h590l-46 -22q0 124 -24 197t-71 104.5t-116 31.5t-118 -31t-74.5 -104t-25.5 -197v-102q0 -118 33.5 -188.5t108.5 -101
t201 -30.5q63 0 132 10t142 28v-201q-84 -21 -159.5 -30t-150.5 -9zM649 1240l-158 376h211l144 -376h-197zM268 1240l-158 376h212l143 -376h-197z" />
    <glyph glyph-name="uni0206" unicode="&#x206;" horiz-adv-x="1223" 
d="M146 0v1480h995v-217h-731v-1046h741v-217h-1005zM307 649v217h734v-217h-734zM306 1612q10 85 52 147t118.5 96.5t188.5 34.5q113 0 189.5 -34.5t119 -97t52.5 -146.5h-164q-12 71 -57.5 107.5t-139.5 36.5q-93 0 -138.5 -36.5t-56.5 -107.5h-164z" />
    <glyph glyph-name="uni0207" unicode="&#x207;" horiz-adv-x="1081" 
d="M648 -20q-193 0 -319.5 58.5t-188.5 183.5t-62 324q0 185 57.5 310t165.5 188.5t261 63.5q147 0 248.5 -63.5t153.5 -190.5t52 -316v-71h-790v158h590l-46 -22q0 124 -24 197t-71 104.5t-116 31.5t-118 -31t-74.5 -104t-25.5 -197v-102q0 -118 33.5 -188.5t108.5 -101
t201 -30.5q63 0 132 10t142 28v-201q-84 -21 -159.5 -30t-150.5 -9zM216 1268q8 168 96 255.5t244 87.5q155 0 244.5 -87.5t97.5 -255.5h-163q-7 103 -51 153.5t-128 50.5q-85 0 -127.5 -50.5t-49.5 -153.5h-163z" />
    <glyph glyph-name="uni0208" unicode="&#x208;" horiz-adv-x="559" 
d="M146 0v1480h267v-1480h-267zM372 1600l-148 296h211l134 -296h-197zM-9 1600l-147 296h211l133 -296h-197z" />
    <glyph glyph-name="uni0209" unicode="&#x209;" horiz-adv-x="524" 
d="M130 0v1091h263v-1091h-263zM354 1240l-158 376h211l144 -376h-197zM-27 1240l-158 376h212l143 -376h-197z" />
    <glyph glyph-name="uni020A" unicode="&#x20a;" horiz-adv-x="559" 
d="M146 0v1480h267v-1480h-267zM-80 1612q10 85 52 147t118.5 96.5t188.5 34.5q113 0 189.5 -34.5t119 -97t52.5 -146.5h-164q-12 71 -57.5 107.5t-139.5 36.5q-93 0 -138.5 -36.5t-56.5 -107.5h-164z" />
    <glyph glyph-name="uni020B" unicode="&#x20b;" horiz-adv-x="524" 
d="M130 0v1091h263v-1091h-263zM-79 1268q8 168 96 255.5t244 87.5q155 0 244.5 -87.5t97.5 -255.5h-163q-7 103 -51 153.5t-128 50.5q-85 0 -127.5 -50.5t-49.5 -153.5h-163z" />
    <glyph glyph-name="uni020C" unicode="&#x20c;" horiz-adv-x="1519" 
d="M759 -19q-201 0 -351 81t-233.5 249t-83.5 429t83.5 429t233.5 249t351 81q202 0 352 -81t233 -249.5t83 -428.5t-83 -428.5t-233.5 -249.5t-351.5 -81zM759 200q122 0 210 53t135.5 170.5t47.5 310.5q0 199 -48 319t-136 173.5t-209 53.5q-120 0 -208.5 -52.5
t-136.5 -170t-48 -311.5q0 -200 48 -320t136 -173t209 -53zM851 1600l-148 296h211l134 -296h-197zM470 1600l-147 296h211l133 -296h-197z" />
    <glyph glyph-name="uni020D" unicode="&#x20d;" horiz-adv-x="1171" 
d="M586 -20q-155 0 -269 61t-176.5 185.5t-62.5 316.5q0 193 61 318t175 186t272 61t272 -61t174.5 -186t60.5 -317q0 -191 -62 -316.5t-176 -186.5t-269 -61zM586 182q76 0 130 33t83 111.5t29 215.5q0 139 -29 218.5t-83.5 112.5t-129.5 33q-76 0 -130.5 -33t-83.5 -111.5
t-29 -215.5q0 -139 29 -218.5t83.5 -112.5t130.5 -33zM678 1240l-158 376h211l144 -376h-197zM297 1240l-158 376h212l143 -376h-197z" />
    <glyph glyph-name="uni020E" unicode="&#x20e;" horiz-adv-x="1519" 
d="M759 -19q-201 0 -351 81t-233.5 249t-83.5 429t83.5 429t233.5 249t351 81q202 0 352 -81t233 -249.5t83 -428.5t-83 -428.5t-233.5 -249.5t-351.5 -81zM759 200q122 0 210 53t135.5 170.5t47.5 310.5q0 199 -48 319t-136 173.5t-209 53.5q-120 0 -208.5 -52.5
t-136.5 -170t-48 -311.5q0 -200 48 -320t136 -173t209 -53zM399 1612q10 85 52 147t118.5 96.5t188.5 34.5q113 0 189.5 -34.5t119 -97t52.5 -146.5h-164q-12 71 -57.5 107.5t-139.5 36.5q-93 0 -138.5 -36.5t-56.5 -107.5h-164z" />
    <glyph glyph-name="uni020F" unicode="&#x20f;" horiz-adv-x="1171" 
d="M586 -20q-155 0 -269 61t-176.5 185.5t-62.5 316.5q0 193 61 318t175 186t272 61t272 -61t174.5 -186t60.5 -317q0 -191 -62 -316.5t-176 -186.5t-269 -61zM586 182q76 0 130 33t83 111.5t29 215.5q0 139 -29 218.5t-83.5 112.5t-129.5 33q-76 0 -130.5 -33t-83.5 -111.5
t-29 -215.5q0 -139 29 -218.5t83.5 -112.5t130.5 -33zM245 1268q8 168 96 255.5t244 87.5q155 0 244.5 -87.5t97.5 -255.5h-163q-7 103 -51 153.5t-128 50.5q-85 0 -127.5 -50.5t-49.5 -153.5h-163z" />
    <glyph glyph-name="uni0210" unicode="&#x210;" horiz-adv-x="1353" 
d="M146 0v1450q63 13 134 24t147.5 17t156.5 6q310 0 464.5 -112.5t154.5 -350.5q0 -154 -73.5 -258t-212 -156.5t-334.5 -52.5q-51 0 -91 2t-83 4v-573h-263zM1027 0l-492 688h289l499 -688h-296zM587 769q188 0 276 63.5t88 201.5q0 92 -36.5 150t-112 85.5t-192.5 27.5
q-60 0 -107.5 -5t-93.5 -13v-501q32 -3 59.5 -5t56 -3t62.5 -1zM752 1600l-148 296h211l134 -296h-197zM371 1600l-147 296h211l133 -296h-197z" />
    <glyph glyph-name="uni0211" unicode="&#x211;" horiz-adv-x="779" 
d="M130 0v1091h216l21 -143h13q50 80 129 118t171 38q24 0 46.5 -2t40.5 -5v-239q-24 4 -50.5 5.5t-52.5 1.5q-49 0 -100 -13.5t-96 -40.5t-75 -68v-743h-263zM535 1240l-158 376h211l144 -376h-197zM154 1240l-158 376h212l143 -376h-197z" />
    <glyph glyph-name="uni0212" unicode="&#x212;" horiz-adv-x="1353" 
d="M146 0v1450q63 13 134 24t147.5 17t156.5 6q310 0 464.5 -112.5t154.5 -350.5q0 -154 -73.5 -258t-212 -156.5t-334.5 -52.5q-51 0 -91 2t-83 4v-573h-263zM1027 0l-492 688h289l499 -688h-296zM587 769q188 0 276 63.5t88 201.5q0 92 -36.5 150t-112 85.5t-192.5 27.5
q-60 0 -107.5 -5t-93.5 -13v-501q32 -3 59.5 -5t56 -3t62.5 -1zM300 1612q10 85 52 147t118.5 96.5t188.5 34.5q113 0 189.5 -34.5t119 -97t52.5 -146.5h-164q-12 71 -57.5 107.5t-139.5 36.5q-93 0 -138.5 -36.5t-56.5 -107.5h-164z" />
    <glyph glyph-name="uni0213" unicode="&#x213;" horiz-adv-x="779" 
d="M130 0v1091h216l21 -143h13q50 80 129 118t171 38q24 0 46.5 -2t40.5 -5v-239q-24 4 -50.5 5.5t-52.5 1.5q-49 0 -100 -13.5t-96 -40.5t-75 -68v-743h-263zM102 1268q8 168 96 255.5t244 87.5q155 0 244.5 -87.5t97.5 -255.5h-163q-7 103 -51 153.5t-128 50.5
q-85 0 -127.5 -50.5t-49.5 -153.5h-163z" />
    <glyph glyph-name="uni0214" unicode="&#x214;" horiz-adv-x="1467" 
d="M737 -19q-207 0 -339 66.5t-195.5 202.5t-63.5 344v886h268v-912q0 -192 81 -278.5t249 -86.5t248.5 86.5t80.5 278.5v912h263v-886q0 -208 -63 -344t-194 -202.5t-335 -66.5zM829 1600l-148 296h211l134 -296h-197zM448 1600l-147 296h211l133 -296h-197z" />
    <glyph glyph-name="uni0215" unicode="&#x215;" horiz-adv-x="1183" 
d="M487 -19q-107 0 -189.5 41t-129.5 131.5t-47 240.5v697h262v-681q0 -113 48.5 -157t126.5 -44q39 0 81.5 11.5t81.5 36t69 61.5v773h263v-1091h-218l-18 113h-12q-64 -65 -146 -98.5t-172 -33.5zM679 1240l-158 376h211l144 -376h-197zM298 1240l-158 376h212l143 -376
h-197z" />
    <glyph glyph-name="uni0216" unicode="&#x216;" horiz-adv-x="1467" 
d="M737 -19q-207 0 -339 66.5t-195.5 202.5t-63.5 344v886h268v-912q0 -192 81 -278.5t249 -86.5t248.5 86.5t80.5 278.5v912h263v-886q0 -208 -63 -344t-194 -202.5t-335 -66.5zM377 1612q10 85 52 147t118.5 96.5t188.5 34.5q113 0 189.5 -34.5t119 -97t52.5 -146.5h-164
q-12 71 -57.5 107.5t-139.5 36.5q-93 0 -138.5 -36.5t-56.5 -107.5h-164z" />
    <glyph glyph-name="uni0217" unicode="&#x217;" horiz-adv-x="1183" 
d="M487 -19q-107 0 -189.5 41t-129.5 131.5t-47 240.5v697h262v-681q0 -113 48.5 -157t126.5 -44q39 0 81.5 11.5t81.5 36t69 61.5v773h263v-1091h-218l-18 113h-12q-64 -65 -146 -98.5t-172 -33.5zM246 1268q8 168 96 255.5t244 87.5q155 0 244.5 -87.5t97.5 -255.5h-163
q-7 103 -51 153.5t-128 50.5q-85 0 -127.5 -50.5t-49.5 -153.5h-163z" />
    <glyph glyph-name="uni0218" unicode="&#x218;" horiz-adv-x="1121" 
d="M489 -19q-101 0 -204 16t-192 46v220q62 -21 130.5 -35t136.5 -21.5t129 -7.5q161 0 232 54t71 153q0 85 -52.5 131.5t-190.5 81.5l-100 26q-192 49 -289.5 150.5t-97.5 267.5q0 204 146 320t438 116q95 0 183.5 -11.5t158.5 -32.5v-220q-73 23 -158 34.5t-170 11.5
q-121 0 -193.5 -25t-105 -70.5t-32.5 -108.5q0 -80 47.5 -125.5t171.5 -78.5l100 -26q141 -35 232.5 -91.5t135.5 -138t44 -193.5q0 -139 -68 -238t-195.5 -152t-307.5 -53zM490 -486q32 63 43.5 108t11.5 91l47 -57h-21q-80 0 -116.5 28t-36.5 74q0 47 37 74.5t114 27.5
q80 0 117.5 -35t37.5 -100q0 -50 -19 -107.5t-52 -103.5h-163z" />
    <glyph glyph-name="uni0219" unicode="&#x219;" horiz-adv-x="951" 
d="M430 -20q-90 0 -174 11.5t-159 34.5v197q80 -24 162.5 -36t167.5 -12q120 0 171 35.5t51 98.5q0 53 -28 81t-95 41l-167 32q-152 30 -220 106.5t-68 201.5q0 150 119.5 243.5t365.5 93.5q77 0 148.5 -8.5t131.5 -25.5v-197q-64 18 -132.5 27t-139.5 9q-96 0 -149.5 -18.5
t-75.5 -49.5t-22 -68q0 -45 27 -74.5t94 -43.5l166 -31q148 -29 219.5 -100.5t71.5 -207.5q0 -158 -120.5 -249t-344.5 -91zM399 -486q32 63 43.5 108t11.5 91l47 -57h-21q-80 0 -116.5 28t-36.5 74q0 47 37 74.5t114 27.5q80 0 117.5 -35t37.5 -100q0 -50 -19 -107.5
t-52 -103.5h-163z" />
    <glyph glyph-name="uni021A" unicode="&#x21a;" horiz-adv-x="1247" 
d="M489 0v1255h-476v225h1220v-225h-476v-1255h-268zM543 -486q32 63 43.5 108t11.5 91l47 -57h-21q-80 0 -116.5 28t-36.5 74q0 47 37 74.5t114 27.5q80 0 117.5 -35t37.5 -100q0 -50 -19 -107.5t-52 -103.5h-163z" />
    <glyph glyph-name="uni021B" unicode="&#x21b;" horiz-adv-x="810" 
d="M592 -20q-187 0 -288.5 94t-101.5 299v718l47 389h216v-1066q0 -121 47 -168t148 -47q28 0 57 3.5t64 10.5v-211q-42 -9 -91.5 -15.5t-97.5 -6.5zM15 882v209h756v-209h-756zM411 -486q32 63 43.5 108t11.5 91l47 -57h-21q-80 0 -116.5 28t-36.5 74q0 47 37 74.5
t114 27.5q80 0 117.5 -35t37.5 -100q0 -50 -19 -107.5t-52 -103.5h-163z" />
    <glyph glyph-name="uni022A" unicode="&#x22a;" horiz-adv-x="1519" 
d="M759 -19q-201 0 -351 81t-233.5 249t-83.5 429t83.5 429t233.5 249t351 81q202 0 352 -81t233 -249.5t83 -428.5t-83 -428.5t-233.5 -249.5t-351.5 -81zM759 200q122 0 210 53t135.5 170.5t47.5 310.5q0 199 -48 319t-136 173.5t-209 53.5q-120 0 -208.5 -52.5
t-136.5 -170t-48 -311.5q0 -200 48 -320t136 -173t209 -53zM1008 1625q-72 0 -109.5 33.5t-37.5 92.5q0 60 37.5 93.5t109.5 33.5t109.5 -33.5t37.5 -93.5q0 -59 -37.5 -92.5t-109.5 -33.5zM510 1625q-72 0 -109.5 33.5t-37.5 92.5q0 60 37.5 93.5t109.5 33.5t109.5 -33.5
t37.5 -93.5q0 -59 -37.5 -92.5t-109.5 -33.5zM413 1995v162h692v-162h-692z" />
    <glyph glyph-name="uni022B" unicode="&#x22b;" horiz-adv-x="1171" 
d="M586 -20q-155 0 -269 61t-176.5 185.5t-62.5 316.5q0 193 61 318t175 186t272 61t272 -61t174.5 -186t60.5 -317q0 -191 -62 -316.5t-176 -186.5t-269 -61zM586 182q76 0 130 33t83 111.5t29 215.5q0 139 -29 218.5t-83.5 112.5t-129.5 33q-76 0 -130.5 -33t-83.5 -111.5
t-29 -215.5q0 -139 29 -218.5t83.5 -112.5t130.5 -33zM821 1281q-71 0 -109.5 37t-38.5 102t38.5 102.5t109.5 37.5t109.5 -37.5t38.5 -102.5t-38.5 -102t-109.5 -37zM351 1281q-71 0 -109.5 37t-38.5 102t38.5 102.5t109.5 37.5t109.5 -37.5t38.5 -102.5t-38.5 -102
t-109.5 -37zM247 1703v162h678v-162h-678z" />
    <glyph glyph-name="uni022C" unicode="&#x22c;" horiz-adv-x="1519" 
d="M759 -19q-201 0 -351 81t-233.5 249t-83.5 429t83.5 429t233.5 249t351 81q202 0 352 -81t233 -249.5t83 -428.5t-83 -428.5t-233.5 -249.5t-351.5 -81zM759 200q122 0 210 53t135.5 170.5t47.5 310.5q0 199 -48 319t-136 173.5t-209 53.5q-120 0 -208.5 -52.5
t-136.5 -170t-48 -311.5q0 -200 48 -320t136 -173t209 -53zM925 1636q-52 0 -96 13t-86 28q-38 14 -76 24.5t-78 10.5q-59 0 -102.5 -17t-87.5 -53v158q37 35 83.5 52t110.5 17q52 0 96.5 -12.5t85.5 -28.5q39 -13 76.5 -24.5t77.5 -11.5q59 0 103 17.5t87 53.5v-158
q-37 -35 -83.5 -52t-110.5 -17zM413 1984v162h692v-162h-692z" />
    <glyph glyph-name="uni022D" unicode="&#x22d;" horiz-adv-x="1171" 
d="M586 -20q-155 0 -269 61t-176.5 185.5t-62.5 316.5q0 193 61 318t175 186t272 61t272 -61t174.5 -186t60.5 -317q0 -191 -62 -316.5t-176 -186.5t-269 -61zM586 182q76 0 130 33t83 111.5t29 215.5q0 139 -29 218.5t-83.5 112.5t-129.5 33q-76 0 -130.5 -33t-83.5 -111.5
t-29 -215.5q0 -139 29 -218.5t83.5 -112.5t130.5 -33zM739 1306q-47 0 -88.5 15.5t-80.5 32.5q-36 16 -70.5 28.5t-70.5 12.5q-53 0 -96 -19.5t-86 -62.5v170q71 74 186 74q47 0 89 -15t80 -33q37 -15 71.5 -28t69.5 -13q54 0 97 20t85 62v-170q-71 -74 -186 -74zM247 1701
v162h678v-162h-678z" />
    <glyph glyph-name="uni0230" unicode="&#x230;" horiz-adv-x="1519" 
d="M759 -19q-201 0 -351 81t-233.5 249t-83.5 429t83.5 429t233.5 249t351 81q202 0 352 -81t233 -249.5t83 -428.5t-83 -428.5t-233.5 -249.5t-351.5 -81zM759 200q122 0 210 53t135.5 170.5t47.5 310.5q0 199 -48 319t-136 173.5t-209 53.5q-120 0 -208.5 -52.5
t-136.5 -170t-48 -311.5q0 -200 48 -320t136 -173t209 -53zM759 1625q-81 0 -123.5 33.5t-42.5 92.5q0 60 42.5 93.5t123.5 33.5q82 0 124 -33.5t42 -93.5q0 -59 -42 -92.5t-124 -33.5zM413 1984v162h692v-162h-692z" />
    <glyph glyph-name="uni0231" unicode="&#x231;" horiz-adv-x="1171" 
d="M586 -20q-155 0 -269 61t-176.5 185.5t-62.5 316.5q0 193 61 318t175 186t272 61t272 -61t174.5 -186t60.5 -317q0 -191 -62 -316.5t-176 -186.5t-269 -61zM586 182q76 0 130 33t83 111.5t29 215.5q0 139 -29 218.5t-83.5 112.5t-129.5 33q-76 0 -130.5 -33t-83.5 -111.5
t-29 -215.5q0 -139 29 -218.5t83.5 -112.5t130.5 -33zM586 1277q-84 0 -125.5 38t-41.5 105q0 68 41.5 105.5t125.5 37.5q85 0 126 -37.5t41 -105.5q0 -67 -41 -105t-126 -38zM247 1689v162h678v-162h-678z" />
    <glyph glyph-name="uni0232" unicode="&#x232;" horiz-adv-x="1247" 
d="M491 0v746l55 -197l-591 931h287l428 -678h-79l423 678h267l-578 -931l56 194v-743h-268zM278 1662v162h692v-162h-692z" />
    <glyph glyph-name="uni0233" unicode="&#x233;" horiz-adv-x="1128" 
d="M311 -440l160 440l89 204l303 887h260l-553 -1531h-259zM398 0l-393 1091h275l364 -1091h-246zM225 1340v162h678v-162h-678z" />
    <glyph glyph-name="uni0237" unicode="&#x237;" horiz-adv-x="524" 
d="M137 -469l-171 114q60 81 96 160.5t52 168.5t16 200v917h263v-905q0 -128 -25 -237t-81.5 -211t-149.5 -207z" />
    <glyph glyph-name="uni0259" unicode="&#x259;" horiz-adv-x="1081" 
d="M433 1111q193 0 319.5 -58.5t188.5 -183.5t62 -324q0 -185 -57.5 -310t-165.5 -188.5t-261 -63.5q-147 0 -248.5 63.5t-153.5 190.5t-52 316v71h790v-158h-590l46 22q0 -124 24 -197t71 -104.5t116 -31.5t118 31t74.5 104t25.5 197v102q0 118 -33.5 188.5t-108.5 101
t-201 30.5q-63 0 -132 -10t-142 -28v201q84 21 159.5 30t150.5 9z" />
    <glyph glyph-name="uni02BB" unicode="&#x2bb;" horiz-adv-x="1109" 
d="M556 1279q-79 0 -116.5 35.5t-37.5 99.5q0 50 19.5 108t50.5 103h163q-31 -63 -42.5 -107.5t-11.5 -91.5l-47 57h21q80 0 116 -27.5t36 -74.5t-36.5 -74.5t-114.5 -27.5z" />
    <glyph glyph-name="uni02BC" unicode="&#x2bc;" horiz-adv-x="1109" 
d="M627 1279q31 64 42.5 108.5t11.5 91.5l47 -57h-21q-80 0 -116 28t-36 74q0 47 36.5 74t113.5 27q80 0 117.5 -34.5t37.5 -100.5q0 -49 -19 -107t-52 -104h-162z" />
    <glyph glyph-name="uni02BE" unicode="&#x2be;" horiz-adv-x="1109" 
d="M555 1235v99q45 0 73 28.5t28 76.5t-28 76t-73 28v99q90 0 149 -57.5t59 -145.5q0 -89 -59 -146.5t-149 -57.5z" />
    <glyph glyph-name="uni02BF" unicode="&#x2bf;" horiz-adv-x="1109" 
d="M555 1235q-90 0 -149 57.5t-59 146.5q0 88 59 145.5t149 57.5v-99q-45 0 -73.5 -28t-28.5 -76t28.5 -76.5t73.5 -28.5v-99z" />
    <glyph glyph-name="circumflex" unicode="&#x2c6;" horiz-adv-x="1109" 
d="M261 1240l229 376h220l229 -376h-193l-167 287h42l-167 -287h-193z" />
    <glyph glyph-name="caron" unicode="&#x2c7;" horiz-adv-x="1109" 
d="M490 1240l-231 376h193l169 -288h-42l169 288h193l-231 -376h-220z" />
    <glyph glyph-name="uni02C8" unicode="&#x2c8;" horiz-adv-x="1200" 
d="M537 1218v400h126v-400h-126z" />
    <glyph glyph-name="uni02C9" unicode="&#x2c9;" horiz-adv-x="1109" 
d="M215 1340v162h679v-162h-679z" />
    <glyph glyph-name="uni02CA" unicode="&#x2ca;" horiz-adv-x="1109" 
d="M428 1240l222 376h292l-261 -376h-253z" />
    <glyph glyph-name="uni02CB" unicode="&#x2cb;" horiz-adv-x="1109" 
d="M428 1240l-261 376h292l222 -376h-253z" />
    <glyph glyph-name="uni02CC" unicode="&#x2cc;" horiz-adv-x="1200" 
d="M537 -440v400h126v-400h-126z" />
    <glyph glyph-name="breve" unicode="&#x2d8;" horiz-adv-x="1109" 
d="M601 1250q-155 0 -244.5 88t-97.5 254h163q8 -101 51.5 -152t127.5 -51q85 0 128 51t49 152h163q-8 -166 -96.5 -254t-243.5 -88z" />
    <glyph glyph-name="dotaccent" unicode="&#x2d9;" horiz-adv-x="1109" 
d="M600 1277q-84 0 -125.5 38t-41.5 105q0 68 41.5 105.5t125.5 37.5q85 0 126 -37.5t41 -105.5q0 -67 -41 -105t-126 -38z" />
    <glyph glyph-name="ring" unicode="&#x2da;" horiz-adv-x="1109" 
d="M600 1235q-90 0 -149 57.5t-59 146.5q0 88 59 145.5t149 57.5t149 -57.5t59 -145.5q0 -89 -59 -146.5t-149 -57.5zM600 1334q45 0 73.5 28.5t28.5 76.5t-28.5 76t-73.5 28q-44 0 -73 -28t-29 -76t28.5 -76.5t73.5 -28.5z" />
    <glyph glyph-name="ogonek" unicode="&#x2db;" horiz-adv-x="1109" 
d="M488 -433q-120 0 -182.5 54t-62.5 145q0 60 27 113t89 99.5t168 87.5l73 -66q-78 -35 -122 -70t-62.5 -71.5t-18.5 -75.5q0 -49 32 -77t92 -28q30 0 64 8.5t70 25.5v-110q-35 -15 -76.5 -25t-90.5 -10z" />
    <glyph glyph-name="tilde" unicode="&#x2dc;" horiz-adv-x="1109" 
d="M753 1306q-47 0 -88.5 15.5t-80.5 32.5q-36 16 -70.5 28.5t-70.5 12.5q-53 0 -96 -19.5t-86 -62.5v170q71 74 186 74q47 0 89 -15t80 -33q37 -15 71.5 -28t69.5 -13q54 0 97 20t85 62v-170q-71 -74 -186 -74z" />
    <glyph glyph-name="hungarumlaut" unicode="&#x2dd;" horiz-adv-x="1109" 
d="M692 1240l144 376h210l-159 -376h-195zM313 1240l143 376h210l-158 -376h-195z" />
    <glyph glyph-name="gravecomb" unicode="&#x300;" 
d="M480 1240l-261 376h280l221 -376h-240z" />
    <glyph glyph-name="acutecomb" unicode="&#x301;" 
d="M480 1240l221 376h280l-261 -376h-240z" />
    <glyph glyph-name="uni0302" unicode="&#x302;" 
d="M261 1240l229 376h220l229 -376h-193l-167 287h42l-167 -287h-193z" />
    <glyph glyph-name="tildecomb" unicode="&#x303;" 
d="M753 1306q-47 0 -88.5 15.5t-80.5 32.5q-36 16 -70.5 28.5t-70.5 12.5q-53 0 -96 -19.5t-86 -62.5v170q71 74 186 74q47 0 89 -15t80 -33q37 -15 71.5 -28t69.5 -13q54 0 97 20t85 62v-170q-71 -74 -186 -74z" />
    <glyph glyph-name="uni0304" unicode="&#x304;" 
d="M261 1340v162h678v-162h-678z" />
    <glyph glyph-name="uni0306" unicode="&#x306;" 
d="M601 1250q-155 0 -244.5 88t-97.5 254h163q8 -101 51.5 -152t127.5 -51q85 0 128 51t49 152h163q-8 -166 -96.5 -254t-243.5 -88z" />
    <glyph glyph-name="uni0307" unicode="&#x307;" 
d="M600 1277q-84 0 -125.5 38t-41.5 105q0 68 41.5 105.5t125.5 37.5q85 0 126 -37.5t41 -105.5q0 -67 -41 -105t-126 -38z" />
    <glyph glyph-name="uni0308" unicode="&#x308;" 
d="M835 1281q-71 0 -109.5 37t-38.5 102t38.5 102.5t109.5 37.5t109.5 -37.5t38.5 -102.5t-38.5 -102t-109.5 -37zM365 1281q-71 0 -109.5 37t-38.5 102t38.5 102.5t109.5 37.5t109.5 -37.5t38.5 -102.5t-38.5 -102t-109.5 -37z" />
    <glyph glyph-name="hookabovecomb" unicode="&#x309;" 
d="M534 1240q2 55 25.5 87t53 52.5t52 39t22.5 45.5q0 28 -25 41.5t-80 13.5q-37 0 -79.5 -5.5t-83.5 -18.5v108q37 12 87 18.5t93 6.5q119 0 175.5 -37.5t56.5 -110.5q0 -52 -22.5 -80.5t-53 -49t-55 -44.5t-28.5 -66h-138z" />
    <glyph glyph-name="uni030A" unicode="&#x30a;" 
d="M600 1235q-90 0 -149 57.5t-59 146.5q0 88 59 145.5t149 57.5t149 -57.5t59 -145.5q0 -89 -59 -146.5t-149 -57.5zM600 1334q45 0 73.5 28.5t28.5 76.5t-28.5 76t-73.5 28q-44 0 -73 -28t-29 -76t28.5 -76.5t73.5 -28.5z" />
    <glyph glyph-name="uni030B" unicode="&#x30b;" 
d="M692 1240l144 376h210l-159 -376h-195zM313 1240l143 376h210l-158 -376h-195z" />
    <glyph glyph-name="uni030C" unicode="&#x30c;" 
d="M490 1240l-231 376h193l169 -288h-42l169 288h193l-231 -376h-220z" />
    <glyph glyph-name="uni030F" unicode="&#x30f;" 
d="M692 1240l-158 376h211l144 -376h-197zM311 1240l-158 376h212l143 -376h-197z" />
    <glyph glyph-name="uni0311" unicode="&#x311;" 
d="M259 1268q8 168 96 255.5t244 87.5q155 0 244.5 -87.5t97.5 -255.5h-163q-7 103 -51 153.5t-128 50.5q-85 0 -127.5 -50.5t-49.5 -153.5h-163z" />
    <glyph glyph-name="uni0312" unicode="&#x312;" 
d="M602 1279q-80 0 -117.5 35.5t-37.5 99.5q0 50 19.5 108t51.5 103h163q-32 -63 -43.5 -107.5t-11.5 -91.5l-47 57h21q80 0 116.5 -27.5t36.5 -74.5t-36.5 -74.5t-114.5 -27.5z" />
    <glyph glyph-name="uni031B" unicode="&#x31b;" 
d="M491 1348v132h86q87 0 135.5 36.5t48.5 121.5q0 35 -4.5 68t-14.5 72h171q13 -39 17.5 -74.5t4.5 -75.5q0 -95 -38 -157t-106.5 -92.5t-160.5 -30.5h-139z" />
    <glyph glyph-name="dotbelowcomb" unicode="&#x323;" 
d="M600 -414q-71 0 -109.5 37t-38.5 100t38.5 100t109.5 37t109.5 -37t38.5 -100t-38.5 -100t-109.5 -37z" />
    <glyph glyph-name="uni0324" unicode="&#x324;" 
d="M835 -419q-71 0 -109.5 37t-38.5 102t38.5 102.5t109.5 37.5t109.5 -37.5t38.5 -102.5t-38.5 -102t-109.5 -37zM365 -419q-71 0 -109.5 37t-38.5 102t38.5 102.5t109.5 37.5t109.5 -37.5t38.5 -102.5t-38.5 -102t-109.5 -37z" />
    <glyph glyph-name="uni0326" unicode="&#x326;" 
d="M519 -486q32 63 43.5 108t11.5 91l47 -57h-21q-80 0 -116.5 28t-36.5 74q0 47 37 74.5t114 27.5q80 0 117.5 -35t37.5 -100q0 -50 -19 -107.5t-52 -103.5h-163z" />
    <glyph glyph-name="uni0327" unicode="&#x327;" 
d="M599 -433q-48 0 -94 9t-83 24v108q41 -18 85.5 -26t80.5 -8q53 0 79 18t26 58q0 77 -106 77h-43v193h131v-151l-61 42q109 0 165 -45.5t56 -126.5q0 -79 -59 -125.5t-177 -46.5z" />
    <glyph glyph-name="uni0328" unicode="&#x328;" 
d="M488 -433q-120 0 -182.5 54t-62.5 145q0 60 27 113t89 99.5t168 87.5l73 -66q-78 -35 -122 -70t-62.5 -71.5t-18.5 -75.5q0 -49 32 -77t92 -28q30 0 64 8.5t70 25.5v-110q-35 -15 -76.5 -25t-90.5 -10z" />
    <glyph glyph-name="uni032E" unicode="&#x32e;" 
d="M601 -444q-160 0 -249 79.5t-93 215.5h163q4 -77 48 -117t131 -40t130.5 40t46.5 117h163q-4 -137 -92 -216t-248 -79z" />
    <glyph glyph-name="uni0331" unicode="&#x331;" 
d="M276 -356v161h648v-161h-648z" />
    <glyph glyph-name="uni0394" unicode="&#x394;" horiz-adv-x="1419" 
d="M19 0l497 1480h387l497 -1480h-1381zM312 104l-24 111h840l-24 -111l-412 1256h31z" />
    <glyph glyph-name="uni03A9" unicode="&#x3a9;" horiz-adv-x="1519" 
d="M91 0v211h402l42 -105q-141 64 -240.5 164t-151.5 234t-52 298q0 226 81.5 381t231 235.5t355.5 80.5t356 -80.5t231 -235.5t81 -381q0 -164 -52 -298t-151 -234t-241 -164l43 105h401v-211h-571v173q102 82 167.5 172.5t97 197.5t31.5 239q0 171 -46 281t-134 163.5
t-213 53.5t-213 -53.5t-134 -163.5t-46 -281q0 -132 32 -239t97.5 -197.5t166.5 -172.5v-173h-571z" />
    <glyph glyph-name="uni03BC" unicode="&#x3bc;" horiz-adv-x="1183" 
d="M538 -19q-86 0 -151 41t-101 131.5t-36 240.5v201h133v-185q0 -113 48.5 -157t127.5 -44q38 0 80.5 11.5t81.5 36t69 61.5v773h263v-1091h-218l-18 113h-12q-54 -65 -122.5 -98.5t-144.5 -33.5zM121 -440v1530h262v-1530h-262z" />
    <glyph glyph-name="pi" unicode="&#x3c0;" horiz-adv-x="1395" 
d="M1189 -20q-176 0 -272 90t-96 288l-1 613h263v-571q0 -115 41.5 -158t133.5 -43q24 0 51 3.5t58 9.5v-211q-37 -8 -85 -14.5t-93 -6.5zM202 -1v973h263v-973h-263zM15 882v209h1256v-209h-1256z" />
    <glyph glyph-name="uni1E08" unicode="&#x1e08;" horiz-adv-x="1207" 
d="M827 -19q-173 0 -309.5 42.5t-231.5 133t-145 234.5t-50 346q0 259 88.5 428t256.5 251.5t407 82.5q85 0 164 -9.5t155 -28.5v-223q-73 19 -147.5 28t-152.5 9q-163 0 -272 -53t-163.5 -170.5t-54.5 -310.5q0 -199 55 -316.5t161.5 -168.5t262.5 -51q78 0 154 12t157 37
v-223q-72 -23 -158 -36.5t-177 -13.5zM722 -433q-54 0 -104.5 9t-94.5 25v108q50 -18 97.5 -26.5t89.5 -8.5q60 0 92 17.5t32 57.5q0 41 -32.5 59.5t-92.5 18.5h-46v193h132v-151l-56 42q115 0 176.5 -43.5t61.5 -126.5q0 -82 -64 -128t-191 -46zM614 1600l180 296h278
l-220 -296h-238z" />
    <glyph glyph-name="uni1E09" unicode="&#x1e09;" horiz-adv-x="931" 
d="M615 -20q-173 0 -293 60.5t-182 185.5t-62 318q0 194 67 319t195 185t311 60q63 0 122.5 -6.5t113.5 -19.5v-211q-52 11 -102 17t-100 6q-115 0 -189.5 -34.5t-110.5 -111t-36 -201.5q0 -128 34.5 -206t102.5 -112.5t169 -34.5q52 0 107 9.5t125 29.5v-211
q-61 -20 -130.5 -31t-141.5 -11zM540 -433q-48 0 -94 9t-83 24v108q41 -18 85.5 -26t80.5 -8q53 0 79 18t26 58q0 77 -106 77h-43v193h131v-151l-61 42q109 0 165 -45.5t56 -126.5q0 -79 -59 -125.5t-177 -46.5zM409 1240l221 376h280l-261 -376h-240z" />
    <glyph glyph-name="uni1E0C" unicode="&#x1e0c;" horiz-adv-x="1465" 
d="M532 -14q-60 0 -123.5 2.5t-129.5 7.5t-133 13v1441q65 14 139.5 24.5t151 16t149.5 5.5q390 0 588.5 -184.5t198.5 -571.5q0 -264 -93 -430.5t-280 -245t-468 -78.5zM598 206q167 0 278.5 53.5t166.5 171.5t55 310q0 191 -55 309t-165.5 172.5t-274.5 54.5
q-44 0 -93.5 -4.5t-96.5 -12.5v-1045q45 -5 89.5 -7t95.5 -2zM668 -394q-81 0 -123.5 33.5t-42.5 92.5q0 60 42.5 94t123.5 34q82 0 124 -34t42 -94q0 -59 -42 -92.5t-124 -33.5z" />
    <glyph glyph-name="uni1E0D" unicode="&#x1e0d;" horiz-adv-x="1194" 
d="M519 -19q-120 0 -220.5 54.5t-160.5 174t-60 313.5q0 192 66 322.5t195 197t318 66.5q38 0 75.5 -3t68.5 -8v518h263v-1616h-221l-17 116h-13q-48 -60 -122 -97.5t-172 -37.5zM593 198q57 0 113 23t95 72v598q-29 6 -68 10.5t-77 4.5q-155 0 -234 -84t-79 -278
q0 -134 31.5 -209t88 -106t130.5 -31zM603 -414q-71 0 -109.5 37t-38.5 100t38.5 100t109.5 37t109.5 -37t38.5 -100t-38.5 -100t-109.5 -37z" />
    <glyph glyph-name="uni1E0E" unicode="&#x1e0e;" horiz-adv-x="1465" 
d="M532 -14q-60 0 -123.5 2.5t-129.5 7.5t-133 13v1441q65 14 139.5 24.5t151 16t149.5 5.5q390 0 588.5 -184.5t198.5 -571.5q0 -264 -93 -430.5t-280 -245t-468 -78.5zM598 206q167 0 278.5 53.5t166.5 171.5t55 310q0 191 -55 309t-165.5 172.5t-274.5 54.5
q-44 0 -93.5 -4.5t-96.5 -12.5v-1045q45 -5 89.5 -7t95.5 -2zM322 -343v162h692v-162h-692z" />
    <glyph glyph-name="uni1E0F" unicode="&#x1e0f;" horiz-adv-x="1194" 
d="M519 -19q-120 0 -220.5 54.5t-160.5 174t-60 313.5q0 192 66 322.5t195 197t318 66.5q38 0 75.5 -3t68.5 -8v518h263v-1616h-221l-17 116h-13q-48 -60 -122 -97.5t-172 -37.5zM593 198q57 0 113 23t95 72v598q-29 6 -68 10.5t-77 4.5q-155 0 -234 -84t-79 -278
q0 -134 31.5 -209t88 -106t130.5 -31zM279 -356v161h648v-161h-648z" />
    <glyph glyph-name="uni1E14" unicode="&#x1e14;" horiz-adv-x="1223" 
d="M146 0v1480h995v-217h-731v-1046h741v-217h-1005zM307 649v217h734v-217h-734zM535 1940l-220 232h304l179 -232h-263zM320 1662v162h692v-162h-692z" />
    <glyph glyph-name="uni1E15" unicode="&#x1e15;" horiz-adv-x="1081" 
d="M648 -20q-193 0 -319.5 58.5t-188.5 183.5t-62 324q0 185 57.5 310t165.5 188.5t261 63.5q147 0 248.5 -63.5t153.5 -190.5t52 -316v-71h-790v158h590l-46 -22q0 124 -24 197t-71 104.5t-116 31.5t-118 -31t-74.5 -104t-25.5 -197v-102q0 -118 33.5 -188.5t108.5 -101
t201 -30.5q63 0 132 10t142 28v-201q-84 -21 -159.5 -30t-150.5 -9zM218 1340v162h678v-162h-678zM438 1643l-220 296h278l180 -296h-238z" />
    <glyph glyph-name="uni1E16" unicode="&#x1e16;" horiz-adv-x="1223" 
d="M146 0v1480h995v-217h-731v-1046h741v-217h-1005zM307 649v217h734v-217h-734zM533 1940l179 232h305l-219 -232h-265zM320 1662v162h692v-162h-692z" />
    <glyph glyph-name="uni1E17" unicode="&#x1e17;" horiz-adv-x="1081" 
d="M648 -20q-193 0 -319.5 58.5t-188.5 183.5t-62 324q0 185 57.5 310t165.5 188.5t261 63.5q147 0 248.5 -63.5t153.5 -190.5t52 -316v-71h-790v158h590l-46 -22q0 124 -24 197t-71 104.5t-116 31.5t-118 -31t-74.5 -104t-25.5 -197v-102q0 -118 33.5 -188.5t108.5 -101
t201 -30.5q63 0 132 10t142 28v-201q-84 -21 -159.5 -30t-150.5 -9zM218 1340v162h678v-162h-678zM437 1643l180 296h278l-220 -296h-238z" />
    <glyph glyph-name="uni1E1C" unicode="&#x1e1c;" horiz-adv-x="1223" 
d="M146 0v1480h995v-217h-731v-1046h741v-217h-1005zM307 649v217h734v-217h-734zM648 -433q-54 0 -104.5 9t-94.5 25v108q50 -18 97.5 -26.5t89.5 -8.5q60 0 92 17.5t32 57.5q0 41 -32.5 59.5t-92.5 18.5h-46v193h132v-151l-56 42q115 0 176.5 -43.5t61.5 -126.5
q0 -82 -64 -128t-191 -46zM667 1605q-113 0 -189.5 34.5t-119 97t-52.5 146.5h164q12 -70 58 -107t139 -37q94 0 139 37t56 107h164q-10 -84 -52 -146.5t-118.5 -97t-188.5 -34.5z" />
    <glyph glyph-name="uni1E1D" unicode="&#x1e1d;" horiz-adv-x="1081" 
d="M648 -20q-193 0 -319.5 58.5t-188.5 183.5t-62 324q0 185 57.5 310t165.5 188.5t261 63.5q147 0 248.5 -63.5t153.5 -190.5t52 -316v-71h-790v158h590l-46 -22q0 124 -24 197t-71 104.5t-116 31.5t-118 -31t-74.5 -104t-25.5 -197v-102q0 -118 33.5 -188.5t108.5 -101
t201 -30.5q63 0 132 10t142 28v-201q-84 -21 -159.5 -30t-150.5 -9zM556 -433q-48 0 -94 9t-83 24v108q41 -18 85.5 -26t80.5 -8q53 0 79 18t26 58q0 77 -106 77h-43v193h131v-151l-61 42q109 0 165 -45.5t56 -126.5q0 -79 -59 -125.5t-177 -46.5zM558 1250
q-155 0 -244.5 88t-97.5 254h163q8 -101 51.5 -152t127.5 -51q85 0 128 51t49 152h163q-8 -166 -96.5 -254t-243.5 -88z" />
    <glyph glyph-name="uni1E20" unicode="&#x1e20;" horiz-adv-x="1398" 
d="M907 -15q-271 0 -452 80.5t-272.5 247t-91.5 424.5q0 260 94 428.5t273 251t432 82.5q86 0 169 -10t164 -30v-223q-82 21 -158 30t-153 9q-179 0 -299 -53t-181 -172t-61 -316q0 -186 57 -302.5t172 -170.5t287 -54q64 0 125 5t113 14l-113 -102v596h251v-704
q-95 -16 -182 -23.5t-174 -7.5zM437 1662v162h692v-162h-692z" />
    <glyph glyph-name="uni1E21" unicode="&#x1e21;" horiz-adv-x="1194" 
d="M501 -460q-82 0 -173.5 11t-175.5 35v209q89 -26 173 -38t157 -12q166 0 242.5 65.5t76.5 221.5v84h-13q-48 -57 -121 -91t-168 -34q-112 0 -208 55t-154.5 172t-58.5 305q0 287 149 436t447 149q65 0 134 -6.5t134.5 -19.5t121.5 -31v-972q0 -286 -139.5 -412.5
t-423.5 -126.5zM594 207q57 0 112.5 21t94.5 66v594q-29 8 -68 13t-82 5q-149 0 -228.5 -83.5t-79.5 -276.5q0 -132 32 -206t88.5 -103.5t130.5 -29.5zM281 1340v162h678v-162h-678z" />
    <glyph glyph-name="uni1E24" unicode="&#x1e24;" horiz-adv-x="1497" 
d="M146 0v1480h267v-604h671v604h267v-1480h-267v639h-671v-639h-267zM749 -394q-81 0 -123.5 33.5t-42.5 92.5q0 60 42.5 94t123.5 34q82 0 124 -34t42 -94q0 -59 -42 -92.5t-124 -33.5z" />
    <glyph glyph-name="uni1E25" unicode="&#x1e25;" horiz-adv-x="1192" 
d="M130 0v1616h263v-639h13q60 64 139.5 97.5t174.5 33.5q99 0 179 -40.5t126.5 -131.5t46.5 -241v-695h-263v678q0 114 -49 157.5t-131 43.5q-41 0 -84 -11t-82.5 -35.5t-69.5 -61.5v-771h-263zM602 -414q-71 0 -109.5 37t-38.5 100t38.5 100t109.5 37t109.5 -37t38.5 -100
t-38.5 -100t-109.5 -37z" />
    <glyph glyph-name="uni1E2A" unicode="&#x1e2a;" horiz-adv-x="1497" 
d="M146 0v1480h267v-604h671v604h267v-1480h-267v639h-671v-639h-267zM750 -428q-114 0 -192 35.5t-120 98.5t-49 148h164q9 -71 55.5 -109.5t141.5 -38.5t141 38.5t54 109.5h164q-7 -85 -49 -148.5t-119 -98.5t-191 -35z" />
    <glyph glyph-name="uni1E2B" unicode="&#x1e2b;" horiz-adv-x="1192" 
d="M130 0v1616h263v-639h13q60 64 139.5 97.5t174.5 33.5q99 0 179 -40.5t126.5 -131.5t46.5 -241v-695h-263v678q0 114 -49 157.5t-131 43.5q-41 0 -84 -11t-82.5 -35.5t-69.5 -61.5v-771h-263zM603 -444q-160 0 -249 79.5t-93 215.5h163q4 -77 48 -117t131 -40t130.5 40
t46.5 117h163q-4 -137 -92 -216t-248 -79z" />
    <glyph glyph-name="uni1E2E" unicode="&#x1e2e;" horiz-adv-x="559" 
d="M146 0v1480h267v-1480h-267zM147 1940l179 232h305l-219 -232h-265zM529 1625q-72 0 -109.5 33.5t-37.5 92.5q0 60 37.5 93.5t109.5 33.5t109.5 -33.5t37.5 -93.5q0 -59 -37.5 -92.5t-109.5 -33.5zM31 1625q-72 0 -109.5 33.5t-37.5 92.5q0 60 37.5 93.5t109.5 33.5
t109.5 -33.5t37.5 -93.5q0 -59 -37.5 -92.5t-109.5 -33.5z" />
    <glyph glyph-name="uni1E2F" unicode="&#x1e2f;" horiz-adv-x="524" 
d="M130 0v1091h263v-1091h-263zM497 1281q-71 0 -109.5 37t-38.5 102t38.5 102.5t109.5 37.5t109.5 -37.5t38.5 -102.5t-38.5 -102t-109.5 -37zM27 1281q-71 0 -109.5 37t-38.5 102t38.5 102.5t109.5 37.5t109.5 -37.5t38.5 -102.5t-38.5 -102t-109.5 -37zM142 1685l180 296
h278l-220 -296h-238z" />
    <glyph glyph-name="uni1E36" unicode="&#x1e36;" horiz-adv-x="1121" 
d="M146 0v1480h267v-1255h698v-225h-965zM629 -394q-81 0 -123.5 33.5t-42.5 92.5q0 60 42.5 94t123.5 34q82 0 124 -34t42 -94q0 -59 -42 -92.5t-124 -33.5z" />
    <glyph glyph-name="uni1E37" unicode="&#x1e37;" horiz-adv-x="523" 
d="M130 0v1616h263v-1616h-263zM261 -414q-71 0 -109.5 37t-38.5 100t38.5 100t109.5 37t109.5 -37t38.5 -100t-38.5 -100t-109.5 -37z" />
    <glyph glyph-name="uni1E3A" unicode="&#x1e3a;" horiz-adv-x="1121" 
d="M146 0v1480h267v-1255h698v-225h-965zM283 -343v162h692v-162h-692z" />
    <glyph glyph-name="uni1E3B" unicode="&#x1e3b;" horiz-adv-x="523" 
d="M130 0v1616h263v-1616h-263zM-63 -356v161h648v-161h-648z" />
    <glyph glyph-name="uni1E42" unicode="&#x1e42;" horiz-adv-x="1836" 
d="M150 0v1480h324l467 -1039h-37l458 1039h324v-1480h-250v1246h58l-464 -1035h-224l-475 1035h69v-1246h-250zM934 -394q-81 0 -123.5 33.5t-42.5 92.5q0 60 42.5 94t123.5 34q82 0 124 -34t42 -94q0 -59 -42 -92.5t-124 -33.5z" />
    <glyph glyph-name="uni1E43" unicode="&#x1e43;" horiz-adv-x="1766" 
d="M130 0v1091h218l18 -116h13q60 66 138.5 99.5t171.5 33.5q95 0 170 -40t118 -129.5t43 -236.5v-702h-257v680q0 113 -43.5 156.5t-115.5 43.5q-37 0 -76 -11.5t-74 -36.5t-61 -64v-768h-263zM1383 0v680q0 113 -46 156.5t-119 43.5q-38 0 -79 -12t-78 -39.5t-64 -73.5
l-56 179q76 95 169.5 134.5t184.5 39.5q101 0 180 -40.5t124.5 -131.5t45.5 -242v-694h-262zM892 -414q-71 0 -109.5 37t-38.5 100t38.5 100t109.5 37t109.5 -37t38.5 -100t-38.5 -100t-109.5 -37z" />
    <glyph glyph-name="uni1E44" unicode="&#x1e44;" horiz-adv-x="1517" 
d="M146 0v1480h270l753 -1154h-50v1154h252v-1480h-270l-753 1154h50v-1154h-252zM759 1625q-81 0 -123.5 33.5t-42.5 92.5q0 60 42.5 93.5t123.5 33.5q82 0 124 -33.5t42 -93.5q0 -59 -42 -92.5t-124 -33.5z" />
    <glyph glyph-name="uni1E45" unicode="&#x1e45;" horiz-adv-x="1192" 
d="M130 0v1091h218l18 -115h13q63 64 147 98t181 34q106 0 188.5 -41t129.5 -131.5t47 -241.5v-694h-263v679q0 113 -48 157t-132 44q-40 0 -83 -11t-83 -35t-70 -63v-771h-263zM602 1277q-84 0 -125.5 38t-41.5 105q0 68 41.5 105.5t125.5 37.5q85 0 126 -37.5t41 -105.5
q0 -67 -41 -105t-126 -38z" />
    <glyph glyph-name="uni1E46" unicode="&#x1e46;" horiz-adv-x="1517" 
d="M146 0v1480h270l753 -1154h-50v1154h252v-1480h-270l-753 1154h50v-1154h-252zM759 -394q-81 0 -123.5 33.5t-42.5 92.5q0 60 42.5 94t123.5 34q82 0 124 -34t42 -94q0 -59 -42 -92.5t-124 -33.5z" />
    <glyph glyph-name="uni1E47" unicode="&#x1e47;" horiz-adv-x="1192" 
d="M130 0v1091h218l18 -115h13q63 64 147 98t181 34q106 0 188.5 -41t129.5 -131.5t47 -241.5v-694h-263v679q0 113 -48 157t-132 44q-40 0 -83 -11t-83 -35t-70 -63v-771h-263zM602 -414q-71 0 -109.5 37t-38.5 100t38.5 100t109.5 37t109.5 -37t38.5 -100t-38.5 -100
t-109.5 -37z" />
    <glyph glyph-name="uni1E48" unicode="&#x1e48;" horiz-adv-x="1517" 
d="M146 0v1480h270l753 -1154h-50v1154h252v-1480h-270l-753 1154h50v-1154h-252zM413 -343v162h692v-162h-692z" />
    <glyph glyph-name="uni1E49" unicode="&#x1e49;" horiz-adv-x="1192" 
d="M130 0v1091h218l18 -115h13q63 64 147 98t181 34q106 0 188.5 -41t129.5 -131.5t47 -241.5v-694h-263v679q0 113 -48 157t-132 44q-40 0 -83 -11t-83 -35t-70 -63v-771h-263zM278 -356v161h648v-161h-648z" />
    <glyph glyph-name="uni1E4C" unicode="&#x1e4c;" horiz-adv-x="1519" 
d="M759 -19q-201 0 -351 81t-233.5 249t-83.5 429t83.5 429t233.5 249t351 81q202 0 352 -81t233 -249.5t83 -428.5t-83 -428.5t-233.5 -249.5t-351.5 -81zM759 200q122 0 210 53t135.5 170.5t47.5 310.5q0 199 -48 319t-136 173.5t-209 53.5q-120 0 -208.5 -52.5
t-136.5 -170t-48 -311.5q0 -200 48 -320t136 -173t209 -53zM626 1940l179 232h305l-220 -232h-264zM925 1636q-52 0 -96 13t-86 28q-38 14 -76 24.5t-78 10.5q-59 0 -102.5 -17t-87.5 -53v158q37 35 83.5 52t110.5 17q52 0 96.5 -12.5t85.5 -28.5q39 -13 76.5 -24.5
t77.5 -11.5q59 0 103 17.5t87 53.5v-158q-37 -35 -83.5 -52t-110.5 -17z" />
    <glyph glyph-name="uni1E4D" unicode="&#x1e4d;" horiz-adv-x="1171" 
d="M586 -20q-155 0 -269 61t-176.5 185.5t-62.5 316.5q0 193 61 318t175 186t272 61t272 -61t174.5 -186t60.5 -317q0 -191 -62 -316.5t-176 -186.5t-269 -61zM586 182q76 0 130 33t83 111.5t29 215.5q0 139 -29 218.5t-83.5 112.5t-129.5 33q-76 0 -130.5 -33t-83.5 -111.5
t-29 -215.5q0 -139 29 -218.5t83.5 -112.5t130.5 -33zM739 1306q-47 0 -88.5 15.5t-80.5 32.5q-36 16 -70.5 28.5t-70.5 12.5q-53 0 -96 -19.5t-86 -62.5v170q71 74 186 74q47 0 89 -15t80 -33q37 -15 71.5 -28t69.5 -13q54 0 97 20t85 62v-170q-71 -74 -186 -74zM466 1657
l180 296h278l-220 -296h-238z" />
    <glyph glyph-name="uni1E4E" unicode="&#x1e4e;" horiz-adv-x="1519" 
d="M759 -19q-201 0 -351 81t-233.5 249t-83.5 429t83.5 429t233.5 249t351 81q202 0 352 -81t233 -249.5t83 -428.5t-83 -428.5t-233.5 -249.5t-351.5 -81zM759 200q122 0 210 53t135.5 170.5t47.5 310.5q0 199 -48 319t-136 173.5t-209 53.5q-120 0 -208.5 -52.5
t-136.5 -170t-48 -311.5q0 -200 48 -320t136 -173t209 -53zM925 1636q-52 0 -96 13t-86 28q-38 14 -76 24.5t-78 10.5q-59 0 -102.5 -17t-87.5 -53v158q37 35 83.5 52t110.5 17q52 0 96.5 -12.5t85.5 -28.5q39 -13 76.5 -24.5t77.5 -11.5q59 0 103 17.5t87 53.5v-158
q-37 -35 -83.5 -52t-110.5 -17zM1008 1947q-72 0 -109.5 33.5t-37.5 92.5q0 60 37.5 93.5t109.5 33.5t109.5 -33.5t37.5 -93.5q0 -59 -37.5 -92.5t-109.5 -33.5zM510 1947q-72 0 -109.5 33.5t-37.5 92.5q0 60 37.5 93.5t109.5 33.5t109.5 -33.5t37.5 -93.5
q0 -59 -37.5 -92.5t-109.5 -33.5z" />
    <glyph glyph-name="uni1E4F" unicode="&#x1e4f;" horiz-adv-x="1171" 
d="M586 -20q-155 0 -269 61t-176.5 185.5t-62.5 316.5q0 193 61 318t175 186t272 61t272 -61t174.5 -186t60.5 -317q0 -191 -62 -316.5t-176 -186.5t-269 -61zM586 182q76 0 130 33t83 111.5t29 215.5q0 139 -29 218.5t-83.5 112.5t-129.5 33q-76 0 -130.5 -33t-83.5 -111.5
t-29 -215.5q0 -139 29 -218.5t83.5 -112.5t130.5 -33zM739 1306q-47 0 -88.5 15.5t-80.5 32.5q-36 16 -70.5 28.5t-70.5 12.5q-53 0 -96 -19.5t-86 -62.5v170q71 74 186 74q47 0 89 -15t80 -33q37 -15 71.5 -28t69.5 -13q54 0 97 20t85 62v-170q-71 -74 -186 -74zM821 1642
q-71 0 -109.5 37t-38.5 102t38.5 102.5t109.5 37.5t109.5 -37.5t38.5 -102.5t-38.5 -102t-109.5 -37zM351 1642q-71 0 -109.5 37t-38.5 102t38.5 102.5t109.5 37.5t109.5 -37.5t38.5 -102.5t-38.5 -102t-109.5 -37z" />
    <glyph glyph-name="uni1E50" unicode="&#x1e50;" horiz-adv-x="1519" 
d="M759 -19q-201 0 -351 81t-233.5 249t-83.5 429t83.5 429t233.5 249t351 81q202 0 352 -81t233 -249.5t83 -428.5t-83 -428.5t-233.5 -249.5t-351.5 -81zM759 200q122 0 210 53t135.5 170.5t47.5 310.5q0 199 -48 319t-136 173.5t-209 53.5q-120 0 -208.5 -52.5
t-136.5 -170t-48 -311.5q0 -200 48 -320t136 -173t209 -53zM628 1940l-220 232h304l179 -232h-263zM413 1662v162h692v-162h-692z" />
    <glyph glyph-name="uni1E51" unicode="&#x1e51;" horiz-adv-x="1171" 
d="M586 -20q-155 0 -269 61t-176.5 185.5t-62.5 316.5q0 193 61 318t175 186t272 61t272 -61t174.5 -186t60.5 -317q0 -191 -62 -316.5t-176 -186.5t-269 -61zM586 182q76 0 130 33t83 111.5t29 215.5q0 139 -29 218.5t-83.5 112.5t-129.5 33q-76 0 -130.5 -33t-83.5 -111.5
t-29 -215.5q0 -139 29 -218.5t83.5 -112.5t130.5 -33zM247 1340v162h678v-162h-678zM467 1643l-220 296h278l180 -296h-238z" />
    <glyph glyph-name="uni1E52" unicode="&#x1e52;" horiz-adv-x="1519" 
d="M759 -19q-201 0 -351 81t-233.5 249t-83.5 429t83.5 429t233.5 249t351 81q202 0 352 -81t233 -249.5t83 -428.5t-83 -428.5t-233.5 -249.5t-351.5 -81zM759 200q122 0 210 53t135.5 170.5t47.5 310.5q0 199 -48 319t-136 173.5t-209 53.5q-120 0 -208.5 -52.5
t-136.5 -170t-48 -311.5q0 -200 48 -320t136 -173t209 -53zM626 1940l179 232h305l-219 -232h-265zM413 1662v162h692v-162h-692z" />
    <glyph glyph-name="uni1E53" unicode="&#x1e53;" horiz-adv-x="1171" 
d="M586 -20q-155 0 -269 61t-176.5 185.5t-62.5 316.5q0 193 61 318t175 186t272 61t272 -61t174.5 -186t60.5 -317q0 -191 -62 -316.5t-176 -186.5t-269 -61zM586 182q76 0 130 33t83 111.5t29 215.5q0 139 -29 218.5t-83.5 112.5t-129.5 33q-76 0 -130.5 -33t-83.5 -111.5
t-29 -215.5q0 -139 29 -218.5t83.5 -112.5t130.5 -33zM247 1340v162h678v-162h-678zM466 1643l180 296h278l-220 -296h-238z" />
    <glyph glyph-name="uni1E5A" unicode="&#x1e5a;" horiz-adv-x="1353" 
d="M146 0v1450q63 13 134 24t147.5 17t156.5 6q310 0 464.5 -112.5t154.5 -350.5q0 -154 -73.5 -258t-212 -156.5t-334.5 -52.5q-51 0 -91 2t-83 4v-573h-263zM1027 0l-492 688h289l499 -688h-296zM587 769q188 0 276 63.5t88 201.5q0 92 -36.5 150t-112 85.5t-192.5 27.5
q-60 0 -107.5 -5t-93.5 -13v-501q32 -3 59.5 -5t56 -3t62.5 -1zM709 -394q-81 0 -123.5 33.5t-42.5 92.5q0 60 42.5 94t123.5 34q82 0 124 -34t42 -94q0 -59 -42 -92.5t-124 -33.5z" />
    <glyph glyph-name="uni1E5B" unicode="&#x1e5b;" horiz-adv-x="779" 
d="M130 0v1091h216l21 -143h13q50 80 129 118t171 38q24 0 46.5 -2t40.5 -5v-239q-24 4 -50.5 5.5t-52.5 1.5q-49 0 -100 -13.5t-96 -40.5t-75 -68v-743h-263zM262 -414q-71 0 -109.5 37t-38.5 100t38.5 100t109.5 37t109.5 -37t38.5 -100t-38.5 -100t-109.5 -37z" />
    <glyph glyph-name="uni1E5E" unicode="&#x1e5e;" horiz-adv-x="1353" 
d="M146 0v1450q63 13 134 24t147.5 17t156.5 6q310 0 464.5 -112.5t154.5 -350.5q0 -154 -73.5 -258t-212 -156.5t-334.5 -52.5q-51 0 -91 2t-83 4v-573h-263zM1027 0l-492 688h289l499 -688h-296zM587 769q188 0 276 63.5t88 201.5q0 92 -36.5 150t-112 85.5t-192.5 27.5
q-60 0 -107.5 -5t-93.5 -13v-501q32 -3 59.5 -5t56 -3t62.5 -1zM363 -343v162h692v-162h-692z" />
    <glyph glyph-name="uni1E5F" unicode="&#x1e5f;" horiz-adv-x="779" 
d="M130 0v1091h216l21 -143h13q50 80 129 118t171 38q24 0 46.5 -2t40.5 -5v-239q-24 4 -50.5 5.5t-52.5 1.5q-49 0 -100 -13.5t-96 -40.5t-75 -68v-743h-263zM-62 -356v161h648v-161h-648z" />
    <glyph glyph-name="uni1E60" unicode="&#x1e60;" horiz-adv-x="1121" 
d="M489 -19q-101 0 -204 16t-192 46v220q62 -21 130.5 -35t136.5 -21.5t129 -7.5q161 0 232 54t71 153q0 85 -52.5 131.5t-190.5 81.5l-100 26q-192 49 -289.5 150.5t-97.5 267.5q0 204 146 320t438 116q95 0 183.5 -11.5t158.5 -32.5v-220q-73 23 -158 34.5t-170 11.5
q-121 0 -193.5 -25t-105 -70.5t-32.5 -108.5q0 -80 47.5 -125.5t171.5 -78.5l100 -26q141 -35 232.5 -91.5t135.5 -138t44 -193.5q0 -139 -68 -238t-195.5 -152t-307.5 -53zM571 1625q-81 0 -123.5 33.5t-42.5 92.5q0 60 42.5 93.5t123.5 33.5q82 0 124 -33.5t42 -93.5
q0 -59 -42 -92.5t-124 -33.5z" />
    <glyph glyph-name="uni1E61" unicode="&#x1e61;" horiz-adv-x="951" 
d="M430 -20q-90 0 -174 11.5t-159 34.5v197q80 -24 162.5 -36t167.5 -12q120 0 171 35.5t51 98.5q0 53 -28 81t-95 41l-167 32q-152 30 -220 106.5t-68 201.5q0 150 119.5 243.5t365.5 93.5q77 0 148.5 -8.5t131.5 -25.5v-197q-64 18 -132.5 27t-139.5 9q-96 0 -149.5 -18.5
t-75.5 -49.5t-22 -68q0 -45 27 -74.5t94 -43.5l166 -31q148 -29 219.5 -100.5t71.5 -207.5q0 -158 -120.5 -249t-344.5 -91zM480 1277q-84 0 -125.5 38t-41.5 105q0 68 41.5 105.5t125.5 37.5q85 0 126 -37.5t41 -105.5q0 -67 -41 -105t-126 -38z" />
    <glyph glyph-name="uni1E62" unicode="&#x1e62;" horiz-adv-x="1121" 
d="M489 -19q-101 0 -204 16t-192 46v220q62 -21 130.5 -35t136.5 -21.5t129 -7.5q161 0 232 54t71 153q0 85 -52.5 131.5t-190.5 81.5l-100 26q-192 49 -289.5 150.5t-97.5 267.5q0 204 146 320t438 116q95 0 183.5 -11.5t158.5 -32.5v-220q-73 23 -158 34.5t-170 11.5
q-121 0 -193.5 -25t-105 -70.5t-32.5 -108.5q0 -80 47.5 -125.5t171.5 -78.5l100 -26q141 -35 232.5 -91.5t135.5 -138t44 -193.5q0 -139 -68 -238t-195.5 -152t-307.5 -53zM571 -394q-81 0 -123.5 33.5t-42.5 92.5q0 60 42.5 94t123.5 34q82 0 124 -34t42 -94
q0 -59 -42 -92.5t-124 -33.5z" />
    <glyph glyph-name="uni1E63" unicode="&#x1e63;" horiz-adv-x="951" 
d="M430 -20q-90 0 -174 11.5t-159 34.5v197q80 -24 162.5 -36t167.5 -12q120 0 171 35.5t51 98.5q0 53 -28 81t-95 41l-167 32q-152 30 -220 106.5t-68 201.5q0 150 119.5 243.5t365.5 93.5q77 0 148.5 -8.5t131.5 -25.5v-197q-64 18 -132.5 27t-139.5 9q-96 0 -149.5 -18.5
t-75.5 -49.5t-22 -68q0 -45 27 -74.5t94 -43.5l166 -31q148 -29 219.5 -100.5t71.5 -207.5q0 -158 -120.5 -249t-344.5 -91zM480 -414q-71 0 -109.5 37t-38.5 100t38.5 100t109.5 37t109.5 -37t38.5 -100t-38.5 -100t-109.5 -37z" />
    <glyph glyph-name="uni1E64" unicode="&#x1e64;" horiz-adv-x="1121" 
d="M489 -19q-101 0 -204 16t-192 46v220q62 -21 130.5 -35t136.5 -21.5t129 -7.5q161 0 232 54t71 153q0 85 -52.5 131.5t-190.5 81.5l-100 26q-192 49 -289.5 150.5t-97.5 267.5q0 204 146 320t438 116q95 0 183.5 -11.5t158.5 -32.5v-220q-73 23 -158 34.5t-170 11.5
q-121 0 -193.5 -25t-105 -70.5t-32.5 -108.5q0 -80 47.5 -125.5t171.5 -78.5l100 -26q141 -35 232.5 -91.5t135.5 -138t44 -193.5q0 -139 -68 -238t-195.5 -152t-307.5 -53zM374 1856q-67 0 -102.5 28.5t-35.5 77.5q0 51 35.5 79.5t102.5 28.5q68 0 103 -28.5t35 -79.5
q0 -49 -35 -77.5t-103 -28.5zM451 1600l180 296h278l-220 -296h-238z" />
    <glyph glyph-name="uni1E65" unicode="&#x1e65;" horiz-adv-x="951" 
d="M430 -20q-90 0 -174 11.5t-159 34.5v197q80 -24 162.5 -36t167.5 -12q120 0 171 35.5t51 98.5q0 53 -28 81t-95 41l-167 32q-152 30 -220 106.5t-68 201.5q0 150 119.5 243.5t365.5 93.5q77 0 148.5 -8.5t131.5 -25.5v-197q-64 18 -132.5 27t-139.5 9q-96 0 -149.5 -18.5
t-75.5 -49.5t-22 -68q0 -45 27 -74.5t94 -43.5l166 -31q148 -29 219.5 -100.5t71.5 -207.5q0 -158 -120.5 -249t-344.5 -91zM332 1576q-67 0 -102.5 28.5t-35.5 78.5t35.5 78.5t102.5 28.5q68 0 103 -28.5t35 -78.5t-35 -78.5t-103 -28.5zM360 1240l221 376h280l-261 -376
h-240z" />
    <glyph glyph-name="uni1E66" unicode="&#x1e66;" horiz-adv-x="1121" 
d="M489 -19q-101 0 -204 16t-192 46v220q62 -21 130.5 -35t136.5 -21.5t129 -7.5q161 0 232 54t71 153q0 85 -52.5 131.5t-190.5 81.5l-100 26q-192 49 -289.5 150.5t-97.5 267.5q0 204 146 320t438 116q95 0 183.5 -11.5t158.5 -32.5v-220q-73 23 -158 34.5t-170 11.5
q-121 0 -193.5 -25t-105 -70.5t-32.5 -108.5q0 -80 47.5 -125.5t171.5 -78.5l100 -26q141 -35 232.5 -91.5t135.5 -138t44 -193.5q0 -139 -68 -238t-195.5 -152t-307.5 -53zM571 1917q-67 0 -102.5 28.5t-35.5 78.5q0 51 35.5 79.5t102.5 28.5q68 0 103 -28.5t35 -79.5
q0 -50 -35 -78.5t-103 -28.5zM457 1600l-252 296h206l182 -223h-44l182 223h206l-252 -296h-228z" />
    <glyph glyph-name="uni1E67" unicode="&#x1e67;" horiz-adv-x="951" 
d="M430 -20q-90 0 -174 11.5t-159 34.5v197q80 -24 162.5 -36t167.5 -12q120 0 171 35.5t51 98.5q0 53 -28 81t-95 41l-167 32q-152 30 -220 106.5t-68 201.5q0 150 119.5 243.5t365.5 93.5q77 0 148.5 -8.5t131.5 -25.5v-197q-64 18 -132.5 27t-139.5 9q-96 0 -149.5 -18.5
t-75.5 -49.5t-22 -68q0 -45 27 -74.5t94 -43.5l166 -31q148 -29 219.5 -100.5t71.5 -207.5q0 -158 -120.5 -249t-344.5 -91zM480 1637q-67 0 -102.5 28.5t-35.5 78.5t35.5 78.5t102.5 28.5q68 0 103 -28.5t35 -78.5t-35 -78.5t-103 -28.5zM370 1240l-231 376h193l169 -288
h-42l169 288h193l-231 -376h-220z" />
    <glyph glyph-name="uni1E68" unicode="&#x1e68;" horiz-adv-x="1121" 
d="M489 -19q-101 0 -204 16t-192 46v220q62 -21 130.5 -35t136.5 -21.5t129 -7.5q161 0 232 54t71 153q0 85 -52.5 131.5t-190.5 81.5l-100 26q-192 49 -289.5 150.5t-97.5 267.5q0 204 146 320t438 116q95 0 183.5 -11.5t158.5 -32.5v-220q-73 23 -158 34.5t-170 11.5
q-121 0 -193.5 -25t-105 -70.5t-32.5 -108.5q0 -80 47.5 -125.5t171.5 -78.5l100 -26q141 -35 232.5 -91.5t135.5 -138t44 -193.5q0 -139 -68 -238t-195.5 -152t-307.5 -53zM571 -394q-81 0 -123.5 33.5t-42.5 92.5q0 60 42.5 94t123.5 34q82 0 124 -34t42 -94
q0 -59 -42 -92.5t-124 -33.5zM571 1625q-81 0 -123.5 33.5t-42.5 92.5q0 60 42.5 93.5t123.5 33.5q82 0 124 -33.5t42 -93.5q0 -59 -42 -92.5t-124 -33.5z" />
    <glyph glyph-name="uni1E69" unicode="&#x1e69;" horiz-adv-x="951" 
d="M430 -20q-90 0 -174 11.5t-159 34.5v197q80 -24 162.5 -36t167.5 -12q120 0 171 35.5t51 98.5q0 53 -28 81t-95 41l-167 32q-152 30 -220 106.5t-68 201.5q0 150 119.5 243.5t365.5 93.5q77 0 148.5 -8.5t131.5 -25.5v-197q-64 18 -132.5 27t-139.5 9q-96 0 -149.5 -18.5
t-75.5 -49.5t-22 -68q0 -45 27 -74.5t94 -43.5l166 -31q148 -29 219.5 -100.5t71.5 -207.5q0 -158 -120.5 -249t-344.5 -91zM480 -414q-71 0 -109.5 37t-38.5 100t38.5 100t109.5 37t109.5 -37t38.5 -100t-38.5 -100t-109.5 -37zM480 1277q-84 0 -125.5 38t-41.5 105
q0 68 41.5 105.5t125.5 37.5q85 0 126 -37.5t41 -105.5q0 -67 -41 -105t-126 -38z" />
    <glyph glyph-name="uni1E6C" unicode="&#x1e6c;" horiz-adv-x="1247" 
d="M489 0v1255h-476v225h1220v-225h-476v-1255h-268zM624 -394q-81 0 -123.5 33.5t-42.5 92.5q0 60 42.5 94t123.5 34q82 0 124 -34t42 -94q0 -59 -42 -92.5t-124 -33.5z" />
    <glyph glyph-name="uni1E6D" unicode="&#x1e6d;" horiz-adv-x="810" 
d="M592 -20q-187 0 -288.5 94t-101.5 299v718l47 389h216v-1066q0 -121 47 -168t148 -47q28 0 57 3.5t64 10.5v-211q-42 -9 -91.5 -15.5t-97.5 -6.5zM15 882v209h756v-209h-756zM492 -414q-71 0 -109.5 37t-38.5 100t38.5 100t109.5 37t109.5 -37t38.5 -100t-38.5 -100
t-109.5 -37z" />
    <glyph glyph-name="uni1E6E" unicode="&#x1e6e;" horiz-adv-x="1247" 
d="M489 0v1255h-476v225h1220v-225h-476v-1255h-268zM278 -343v162h692v-162h-692z" />
    <glyph glyph-name="uni1E6F" unicode="&#x1e6f;" horiz-adv-x="810" 
d="M592 -20q-187 0 -288.5 94t-101.5 299v718l47 389h216v-1066q0 -121 47 -168t148 -47q28 0 57 3.5t64 10.5v-211q-42 -9 -91.5 -15.5t-97.5 -6.5zM15 882v209h756v-209h-756zM168 -356v161h648v-161h-648z" />
    <glyph glyph-name="uni1E78" unicode="&#x1e78;" horiz-adv-x="1467" 
d="M737 -19q-207 0 -339 66.5t-195.5 202.5t-63.5 344v886h268v-912q0 -192 81 -278.5t249 -86.5t248.5 86.5t80.5 278.5v912h263v-886q0 -208 -63 -344t-194 -202.5t-335 -66.5zM604 1940l179 232h305l-220 -232h-264zM903 1636q-52 0 -96 13t-86 28q-38 14 -76 24.5
t-78 10.5q-59 0 -102.5 -17t-87.5 -53v158q37 35 83.5 52t110.5 17q52 0 96.5 -12.5t85.5 -28.5q39 -13 76.5 -24.5t77.5 -11.5q59 0 103 17.5t87 53.5v-158q-37 -35 -83.5 -52t-110.5 -17z" />
    <glyph glyph-name="uni1E79" unicode="&#x1e79;" horiz-adv-x="1183" 
d="M487 -19q-107 0 -189.5 41t-129.5 131.5t-47 240.5v697h262v-681q0 -113 48.5 -157t126.5 -44q39 0 81.5 11.5t81.5 36t69 61.5v773h263v-1091h-218l-18 113h-12q-64 -65 -146 -98.5t-172 -33.5zM740 1306q-47 0 -88.5 15.5t-80.5 32.5q-36 16 -70.5 28.5t-70.5 12.5
q-53 0 -96 -19.5t-86 -62.5v170q71 74 186 74q47 0 89 -15t80 -33q37 -15 71.5 -28t69.5 -13q54 0 97 20t85 62v-170q-71 -74 -186 -74zM467 1657l180 296h278l-220 -296h-238z" />
    <glyph glyph-name="uni1E7A" unicode="&#x1e7a;" horiz-adv-x="1467" 
d="M737 -19q-207 0 -339 66.5t-195.5 202.5t-63.5 344v886h268v-912q0 -192 81 -278.5t249 -86.5t248.5 86.5t80.5 278.5v912h263v-886q0 -208 -63 -344t-194 -202.5t-335 -66.5zM391 1662v162h692v-162h-692zM986 1941q-72 0 -109.5 33.5t-37.5 92.5q0 60 37.5 93.5
t109.5 33.5t109.5 -33.5t37.5 -93.5q0 -59 -37.5 -92.5t-109.5 -33.5zM488 1941q-72 0 -109.5 33.5t-37.5 92.5q0 60 37.5 93.5t109.5 33.5t109.5 -33.5t37.5 -93.5q0 -59 -37.5 -92.5t-109.5 -33.5z" />
    <glyph glyph-name="uni1E7B" unicode="&#x1e7b;" horiz-adv-x="1183" 
d="M487 -19q-107 0 -189.5 41t-129.5 131.5t-47 240.5v697h262v-681q0 -113 48.5 -157t126.5 -44q39 0 81.5 11.5t81.5 36t69 61.5v773h263v-1091h-218l-18 113h-12q-64 -65 -146 -98.5t-172 -33.5zM248 1340v162h678v-162h-678zM822 1628q-71 0 -109.5 37t-38.5 102
t38.5 102.5t109.5 37.5t109.5 -37.5t38.5 -102.5t-38.5 -102t-109.5 -37zM352 1628q-71 0 -109.5 37t-38.5 102t38.5 102.5t109.5 37.5t109.5 -37.5t38.5 -102.5t-38.5 -102t-109.5 -37z" />
    <glyph glyph-name="Wgrave" unicode="&#x1e80;" horiz-adv-x="2221" 
d="M439 0l-400 1480h272l352 -1360h-67l372 1360h300l362 -1360h-61l358 1360h255l-400 -1480h-345l-356 1315h70l-367 -1315h-345zM992 1600l-220 296h278l180 -296h-238z" />
    <glyph glyph-name="wgrave" unicode="&#x1e81;" horiz-adv-x="1769" 
d="M352 0l-303 1091h251l222 -841h-16l237 841h295l234 -841h-20l227 841h241l-301 -1091h-295l-246 871h18l-249 -871h-295zM766 1240l-261 376h280l221 -376h-240z" />
    <glyph glyph-name="Wacute" unicode="&#x1e82;" horiz-adv-x="2221" 
d="M439 0l-400 1480h272l352 -1360h-67l372 1360h300l362 -1360h-61l358 1360h255l-400 -1480h-345l-356 1315h70l-367 -1315h-345zM991 1600l180 296h278l-220 -296h-238z" />
    <glyph glyph-name="wacute" unicode="&#x1e83;" horiz-adv-x="1769" 
d="M352 0l-303 1091h251l222 -841h-16l237 841h295l234 -841h-20l227 841h241l-301 -1091h-295l-246 871h18l-249 -871h-295zM766 1240l221 376h280l-261 -376h-240z" />
    <glyph glyph-name="Wdieresis" unicode="&#x1e84;" horiz-adv-x="2221" 
d="M439 0l-400 1480h272l352 -1360h-67l372 1360h300l362 -1360h-61l358 1360h255l-400 -1480h-345l-356 1315h70l-367 -1315h-345zM1360 1625q-72 0 -109.5 33.5t-37.5 92.5q0 60 37.5 93.5t109.5 33.5t109.5 -33.5t37.5 -93.5q0 -59 -37.5 -92.5t-109.5 -33.5zM862 1625
q-72 0 -109.5 33.5t-37.5 92.5q0 60 37.5 93.5t109.5 33.5t109.5 -33.5t37.5 -93.5q0 -59 -37.5 -92.5t-109.5 -33.5z" />
    <glyph glyph-name="wdieresis" unicode="&#x1e85;" horiz-adv-x="1769" 
d="M352 0l-303 1091h251l222 -841h-16l237 841h295l234 -841h-20l227 841h241l-301 -1091h-295l-246 871h18l-249 -871h-295zM1121 1281q-71 0 -109.5 37t-38.5 102t38.5 102.5t109.5 37.5t109.5 -37.5t38.5 -102.5t-38.5 -102t-109.5 -37zM651 1281q-71 0 -109.5 37
t-38.5 102t38.5 102.5t109.5 37.5t109.5 -37.5t38.5 -102.5t-38.5 -102t-109.5 -37z" />
    <glyph glyph-name="uni1E8E" unicode="&#x1e8e;" horiz-adv-x="1247" 
d="M491 0v746l55 -197l-591 931h287l428 -678h-79l423 678h267l-578 -931l56 194v-743h-268zM624 1625q-81 0 -123.5 33.5t-42.5 92.5q0 60 42.5 93.5t123.5 33.5q82 0 124 -33.5t42 -93.5q0 -59 -42 -92.5t-124 -33.5z" />
    <glyph glyph-name="uni1E8F" unicode="&#x1e8f;" horiz-adv-x="1128" 
d="M311 -440l160 440l89 204l303 887h260l-553 -1531h-259zM398 0l-393 1091h275l364 -1091h-246zM564 1277q-84 0 -125.5 38t-41.5 105q0 68 41.5 105.5t125.5 37.5q85 0 126 -37.5t41 -105.5q0 -67 -41 -105t-126 -38z" />
    <glyph glyph-name="uni1E92" unicode="&#x1e92;" horiz-adv-x="1209" 
d="M60 0v147l766 1163l6 -54h-761v224h1067v-147l-766 -1163l-6 54h783v-224h-1089zM603 -394q-81 0 -123.5 33.5t-42.5 92.5q0 60 42.5 94t123.5 34q82 0 124 -34t42 -94q0 -59 -42 -92.5t-124 -33.5z" />
    <glyph glyph-name="uni1E93" unicode="&#x1e93;" horiz-adv-x="980" 
d="M64 0v165l566 767v-50h-555v209h842v-166l-565 -767v51h576v-209h-864zM497 -414q-71 0 -109.5 37t-38.5 100t38.5 100t109.5 37t109.5 -37t38.5 -100t-38.5 -100t-109.5 -37z" />
    <glyph glyph-name="uni1E97" unicode="&#x1e97;" horiz-adv-x="810" 
d="M592 -20q-187 0 -288.5 94t-101.5 299v718l47 389h216v-1066q0 -121 47 -168t148 -47q28 0 57 3.5t64 10.5v-211q-42 -9 -91.5 -15.5t-97.5 -6.5zM15 882v209h756v-209h-756zM569 1583q-71 0 -109.5 37t-38.5 102t38.5 102.5t109.5 37.5t109.5 -37.5t38.5 -102.5
t-38.5 -102t-109.5 -37zM99 1583q-71 0 -109.5 37t-38.5 102t38.5 102.5t109.5 37.5t109.5 -37.5t38.5 -102.5t-38.5 -102t-109.5 -37z" />
    <glyph glyph-name="uni1E9E" unicode="&#x1e9e;" horiz-adv-x="1482" 
d="M1292 1372v-145l-414 -477l-15 72q29 4 56 5.5t58 1.5q129 0 228.5 -45.5t156.5 -135t57 -220.5q0 -136 -61.5 -236t-180.5 -155.5t-291 -55.5q-88 0 -171.5 15.5t-159.5 43.5v220q54 -20 109.5 -33.5t108.5 -20.5t101 -7q144 0 217 64t73 177q0 106 -72 166.5t-222 60.5
q-54 0 -103 -3.5t-105 -12.5v145l451 537l-12 -109q-67 36 -145 52t-175 16q-203 0 -297.5 -85.5t-94.5 -233.5v-973h-267v941q0 177 70.5 302t215 190.5t366.5 65.5q163 0 289 -34t229 -93z" />
    <glyph glyph-name="uni1EA0" unicode="&#x1ea0;" horiz-adv-x="1419" 
d="M19 0l497 1480h387l497 -1480h-265l-443 1361h31l-442 -1361h-262zM333 425l58 215h636l58 -215h-752zM710 -394q-81 0 -123.5 33.5t-42.5 92.5q0 60 42.5 94t123.5 34q82 0 124 -34t42 -94q0 -59 -42 -92.5t-124 -33.5z" />
    <glyph glyph-name="uni1EA1" unicode="&#x1ea1;" horiz-adv-x="1086" 
d="M419 -19q-163 0 -254.5 84.5t-91.5 224.5q0 150 102.5 234.5t330.5 101.5l252 24l28 -152l-255 -23q-105 -10 -151 -50t-46 -110q0 -71 42 -109t124 -38q54 0 109 21t100 70v429q0 83 -26.5 130.5t-84 67t-149.5 19.5q-62 0 -141 -11t-154 -34v201q77 23 168.5 35
t171.5 12q161 0 265.5 -40.5t155.5 -136t51 -259.5v-672h-217l-19 113h-13q-50 -67 -128.5 -99.5t-169.5 -32.5zM546 -414q-71 0 -109.5 37t-38.5 100t38.5 100t109.5 37t109.5 -37t38.5 -100t-38.5 -100t-109.5 -37z" />
    <glyph glyph-name="uni1EA2" unicode="&#x1ea2;" horiz-adv-x="1419" 
d="M19 0l497 1480h387l497 -1480h-265l-443 1361h31l-442 -1361h-262zM333 425l58 215h636l58 -215h-752zM639 1600q3 50 38 74t69 39q25 11 42.5 22t17.5 29q0 20 -25 30.5t-87 10.5q-48 0 -95.5 -6.5t-98.5 -21.5v106q42 13 100 20.5t113 7.5q123 0 180 -33.5t57 -94.5
q0 -47 -31 -71t-66 -42q-27 -14 -49.5 -29.5t-25.5 -40.5h-139z" />
    <glyph glyph-name="uni1EA3" unicode="&#x1ea3;" horiz-adv-x="1086" 
d="M419 -19q-163 0 -254.5 84.5t-91.5 224.5q0 150 102.5 234.5t330.5 101.5l252 24l28 -152l-255 -23q-105 -10 -151 -50t-46 -110q0 -71 42 -109t124 -38q54 0 109 21t100 70v429q0 83 -26.5 130.5t-84 67t-149.5 19.5q-62 0 -141 -11t-154 -34v201q77 23 168.5 35
t171.5 12q161 0 265.5 -40.5t155.5 -136t51 -259.5v-672h-217l-19 113h-13q-50 -67 -128.5 -99.5t-169.5 -32.5zM470 1240q2 55 25.5 87t53 52.5t52 39t22.5 45.5q0 28 -25 41.5t-80 13.5q-37 0 -79.5 -5.5t-83.5 -18.5v108q37 12 87 18.5t93 6.5q119 0 175.5 -37.5
t56.5 -110.5q0 -52 -22.5 -80.5t-53 -49t-55 -44.5t-28.5 -66h-138z" />
    <glyph glyph-name="uni1EA4" unicode="&#x1ea4;" horiz-adv-x="1419" 
d="M19 0l497 1480h387l497 -1480h-265l-443 1361h31l-442 -1361h-262zM333 425l58 215h636l58 -215h-752zM343 1600l252 272h228l252 -272h-206l-182 207h44l-182 -207h-206zM951 1812l132 252h187l-170 -252h-149z" />
    <glyph glyph-name="uni1EA5" unicode="&#x1ea5;" horiz-adv-x="1086" 
d="M419 -19q-163 0 -254.5 84.5t-91.5 224.5q0 150 102.5 234.5t330.5 101.5l252 24l28 -152l-255 -23q-105 -10 -151 -50t-46 -110q0 -71 42 -109t124 -38q54 0 109 21t100 70v429q0 83 -26.5 130.5t-84 67t-149.5 19.5q-62 0 -141 -11t-154 -34v201q77 23 168.5 35
t171.5 12q161 0 265.5 -40.5t155.5 -136t51 -259.5v-672h-217l-19 113h-13q-50 -67 -128.5 -99.5t-169.5 -32.5zM201 1240l229 376h220l229 -376h-193l-167 287h42l-167 -287h-193zM762 1597l180 271h228l-220 -271h-188z" />
    <glyph glyph-name="uni1EA6" unicode="&#x1ea6;" horiz-adv-x="1419" 
d="M19 0l497 1480h387l497 -1480h-265l-443 1361h31l-442 -1361h-262zM333 425l58 215h636l58 -215h-752zM346 1600l252 272h228l252 -272h-206l-182 207h44l-182 -207h-206zM985 1812l-169 252h186l132 -252h-149z" />
    <glyph glyph-name="uni1EA7" unicode="&#x1ea7;" horiz-adv-x="1086" 
d="M419 -19q-163 0 -254.5 84.5t-91.5 224.5q0 150 102.5 234.5t330.5 101.5l252 24l28 -152l-255 -23q-105 -10 -151 -50t-46 -110q0 -71 42 -109t124 -38q54 0 109 21t100 70v429q0 83 -26.5 130.5t-84 67t-149.5 19.5q-62 0 -141 -11t-154 -34v201q77 23 168.5 35
t171.5 12q161 0 265.5 -40.5t155.5 -136t51 -259.5v-672h-217l-19 113h-13q-50 -67 -128.5 -99.5t-169.5 -32.5zM201 1240l229 376h220l230 -376h-194l-167 287h42l-167 -287h-193zM793 1597l-220 271h227l180 -271h-187z" />
    <glyph glyph-name="uni1EA8" unicode="&#x1ea8;" horiz-adv-x="1419" 
d="M19 0l497 1480h387l497 -1480h-265l-443 1361h31l-442 -1361h-262zM333 425l58 215h636l58 -215h-752zM343 1600l252 272h228l252 -272h-206l-182 207h44l-182 -207h-206zM951 1812q2 39 27.5 60.5t58 34.5t57 25t24.5 32q0 18 -25.5 28t-87.5 10q-47 0 -94.5 -5.5
t-98.5 -20.5v93q42 13 100 20.5t112 7.5q124 0 181 -31t57 -87q0 -38 -25 -59.5t-58 -36t-59.5 -30t-29.5 -41.5h-139z" />
    <glyph glyph-name="uni1EA9" unicode="&#x1ea9;" horiz-adv-x="1086" 
d="M419 -19q-163 0 -254.5 84.5t-91.5 224.5q0 150 102.5 234.5t330.5 101.5l252 24l28 -152l-255 -23q-105 -10 -151 -50t-46 -110q0 -71 42 -109t124 -38q54 0 109 21t100 70v429q0 83 -26.5 130.5t-84 67t-149.5 19.5q-62 0 -141 -11t-154 -34v201q77 23 168.5 35
t171.5 12q161 0 265.5 -40.5t155.5 -136t51 -259.5v-672h-217l-19 113h-13q-50 -67 -128.5 -99.5t-169.5 -32.5zM201 1240l229 376h220l229 -376h-193l-167 287h42l-167 -287h-193zM764 1597q3 41 27.5 63.5t54.5 35.5t53 24t23 30q0 18 -24 28.5t-83 10.5q-46 0 -93.5 -6
t-91.5 -20v92q39 13 95.5 20t108.5 7q118 0 172.5 -29.5t54.5 -87.5q0 -36 -23.5 -56.5t-55 -34t-57 -30.5t-29.5 -47h-132z" />
    <glyph glyph-name="uni1EAA" unicode="&#x1eaa;" horiz-adv-x="1419" 
d="M19 0l497 1480h387l497 -1480h-265l-443 1361h31l-442 -1361h-262zM333 425l58 215h636l58 -215h-752zM343 1600l252 272h228l252 -272h-206l-182 207h44l-182 -207h-206zM870 1915q-63 0 -118 16.5t-105.5 33t-100.5 16.5q-55 0 -101 -16t-102 -53v123q49 36 97.5 49.5
t107.5 13.5q63 0 118 -16.5t105.5 -33t100.5 -16.5q56 0 102 16t101 52v-123q-48 -35 -96.5 -48.5t-108.5 -13.5z" />
    <glyph glyph-name="uni1EAB" unicode="&#x1eab;" horiz-adv-x="1086" 
d="M419 -19q-163 0 -254.5 84.5t-91.5 224.5q0 150 102.5 234.5t330.5 101.5l252 24l28 -152l-255 -23q-105 -10 -151 -50t-46 -110q0 -71 42 -109t124 -38q54 0 109 21t100 70v429q0 83 -26.5 130.5t-84 67t-149.5 19.5q-62 0 -141 -11t-154 -34v201q77 23 168.5 35
t171.5 12q161 0 265.5 -40.5t155.5 -136t51 -259.5v-672h-217l-19 113h-13q-50 -67 -128.5 -99.5t-169.5 -32.5zM184 1241l242 332h228l242 -332h-202l-176 261h44l-176 -261h-202zM701 1632q-64 0 -117.5 18t-104.5 35.5t-105 17.5q-56 0 -99.5 -16.5t-86.5 -49.5v140
q37 32 82.5 48t108.5 16q64 0 118 -17.5t104.5 -35.5t104.5 -18q57 0 100.5 16t85.5 49v-140q-36 -31 -82 -47t-109 -16z" />
    <glyph glyph-name="uni1EAC" unicode="&#x1eac;" horiz-adv-x="1419" 
d="M19 0l497 1480h387l497 -1480h-265l-443 1361h31l-442 -1361h-262zM333 425l58 215h636l58 -215h-752zM710 -394q-81 0 -123.5 33.5t-42.5 92.5q0 60 42.5 94t123.5 34q82 0 124 -34t42 -94q0 -59 -42 -92.5t-124 -33.5zM343 1600l252 296h228l252 -296h-206l-182 222h44
l-182 -222h-206z" />
    <glyph glyph-name="uni1EAD" unicode="&#x1ead;" horiz-adv-x="1086" 
d="M419 -19q-163 0 -254.5 84.5t-91.5 224.5q0 150 102.5 234.5t330.5 101.5l252 24l28 -152l-255 -23q-105 -10 -151 -50t-46 -110q0 -71 42 -109t124 -38q54 0 109 21t100 70v429q0 83 -26.5 130.5t-84 67t-149.5 19.5q-62 0 -141 -11t-154 -34v201q77 23 168.5 35
t171.5 12q161 0 265.5 -40.5t155.5 -136t51 -259.5v-672h-217l-19 113h-13q-50 -67 -128.5 -99.5t-169.5 -32.5zM546 -414q-71 0 -109.5 37t-38.5 100t38.5 100t109.5 37t109.5 -37t38.5 -100t-38.5 -100t-109.5 -37zM201 1240l229 376h220l229 -376h-193l-167 287h42
l-167 -287h-193z" />
    <glyph glyph-name="uni1EAE" unicode="&#x1eae;" horiz-adv-x="1419" 
d="M19 0l497 1480h387l497 -1480h-265l-443 1361h31l-442 -1361h-262zM333 425l58 215h636l58 -215h-752zM709 1605q-162 0 -246.5 69.5t-99.5 184.5h145q12 -66 55.5 -101.5t145.5 -35.5q104 0 147 35.5t60 101.5h139q-14 -115 -99 -184.5t-247 -69.5zM634 1836l132 243
h187l-169 -243h-150z" />
    <glyph glyph-name="uni1EAF" unicode="&#x1eaf;" horiz-adv-x="1086" 
d="M419 -19q-163 0 -254.5 84.5t-91.5 224.5q0 150 102.5 234.5t330.5 101.5l252 24l28 -152l-255 -23q-105 -10 -151 -50t-46 -110q0 -71 42 -109t124 -38q54 0 109 21t100 70v429q0 83 -26.5 130.5t-84 67t-149.5 19.5q-62 0 -141 -11t-154 -34v201q77 23 168.5 35
t171.5 12q161 0 265.5 -40.5t155.5 -136t51 -259.5v-672h-217l-19 113h-13q-50 -67 -128.5 -99.5t-169.5 -32.5zM541 1252q-109 0 -184.5 38.5t-117.5 109t-50 166.5h164q11 -88 56 -134.5t132 -46.5q88 0 132 46.5t54 134.5h164q-8 -97 -50 -167.5t-117 -108.5t-183 -38z
M445 1597l180 271h228l-220 -271h-188z" />
    <glyph glyph-name="uni1EB0" unicode="&#x1eb0;" horiz-adv-x="1419" 
d="M19 0l497 1480h387l497 -1480h-265l-443 1361h31l-442 -1361h-262zM333 425l58 215h636l58 -215h-752zM709 1605q-163 0 -247 69.5t-99 184.5h139q17 -66 60.5 -101.5t146.5 -35.5t146 35.5t55 101.5h145q-14 -115 -99.5 -184.5t-246.5 -69.5zM634 1836l-169 243h187
l132 -243h-150z" />
    <glyph glyph-name="uni1EB1" unicode="&#x1eb1;" horiz-adv-x="1086" 
d="M419 -19q-163 0 -254.5 84.5t-91.5 224.5q0 150 102.5 234.5t330.5 101.5l252 24l28 -152l-255 -23q-105 -10 -151 -50t-46 -110q0 -71 42 -109t124 -38q54 0 109 21t100 70v429q0 83 -26.5 130.5t-84 67t-149.5 19.5q-62 0 -141 -11t-154 -34v201q77 23 168.5 35
t171.5 12q161 0 265.5 -40.5t155.5 -136t51 -259.5v-672h-217l-19 113h-13q-50 -67 -128.5 -99.5t-169.5 -32.5zM541 1252q-109 0 -184.5 38.5t-117.5 109t-50 166.5h164q11 -88 56 -134.5t132 -46.5q88 0 132 46.5t54 134.5h164q-8 -97 -50 -167.5t-117 -108.5t-183 -38z
M447 1597l-220 271h228l180 -271h-188z" />
    <glyph glyph-name="uni1EB2" unicode="&#x1eb2;" horiz-adv-x="1419" 
d="M19 0l497 1480h387l497 -1480h-265l-443 1361h31l-442 -1361h-262zM333 425l58 215h636l58 -215h-752zM708 1605q-162 0 -246 69.5t-99 184.5h145q12 -66 54.5 -101.5t145.5 -35.5t147 35.5t61 101.5h139q-14 -115 -99.5 -184.5t-247.5 -69.5zM639 1836q3 39 28.5 61
t58 35t56.5 25t24 32q0 18 -25 28t-87 10q-48 0 -95.5 -6t-98.5 -20v93q42 13 100 20t113 7q123 0 180 -30.5t57 -86.5q0 -38 -24.5 -59.5t-57.5 -36t-59.5 -30t-30.5 -42.5h-139z" />
    <glyph glyph-name="uni1EB3" unicode="&#x1eb3;" horiz-adv-x="1086" 
d="M419 -19q-163 0 -254.5 84.5t-91.5 224.5q0 150 102.5 234.5t330.5 101.5l252 24l28 -152l-255 -23q-105 -10 -151 -50t-46 -110q0 -71 42 -109t124 -38q54 0 109 21t100 70v429q0 83 -26.5 130.5t-84 67t-149.5 19.5q-62 0 -141 -11t-154 -34v201q77 23 168.5 35
t171.5 12q161 0 265.5 -40.5t155.5 -136t51 -259.5v-672h-217l-19 113h-13q-50 -67 -128.5 -99.5t-169.5 -32.5zM541 1252q-109 0 -184.5 38.5t-117.5 109t-50 166.5h164q11 -88 56 -134.5t132 -46.5q88 0 132 46.5t54 134.5h164q-8 -97 -50 -167.5t-117 -108.5t-183 -38z
M470 1597q3 39 28.5 61t58 35t56.5 25t24 32q0 18 -25 28t-87 10q-48 0 -95.5 -6t-98.5 -20v93q42 13 100 20t113 7q123 0 180 -30.5t57 -86.5q0 -38 -24.5 -60t-57.5 -36t-59.5 -29.5t-30.5 -42.5h-139z" />
    <glyph glyph-name="uni1EB4" unicode="&#x1eb4;" horiz-adv-x="1419" 
d="M19 0l497 1480h387l497 -1480h-265l-443 1361h31l-442 -1361h-262zM333 425l58 215h636l58 -215h-752zM708 1605q-162 0 -246 69.5t-99 184.5h145q12 -66 54.5 -101.5t145.5 -35.5t146.5 35.5t55.5 101.5h145q-14 -115 -99.5 -184.5t-247.5 -69.5zM857 1915
q-57 0 -108 16.5t-98 33t-92 16.5q-53 0 -97 -16t-99 -53v123q49 36 95 49.5t103 13.5t108 -16.5t98 -33t92 -16.5q53 0 97.5 16t98.5 52v-123q-48 -35 -94.5 -48.5t-103.5 -13.5z" />
    <glyph glyph-name="uni1EB5" unicode="&#x1eb5;" horiz-adv-x="1086" 
d="M419 -19q-163 0 -254.5 84.5t-91.5 224.5q0 150 102.5 234.5t330.5 101.5l252 24l28 -152l-255 -23q-105 -10 -151 -50t-46 -110q0 -71 42 -109t124 -38q54 0 109 21t100 70v429q0 83 -26.5 130.5t-84 67t-149.5 19.5q-62 0 -141 -11t-154 -34v201q77 23 168.5 35
t171.5 12q161 0 265.5 -40.5t155.5 -136t51 -259.5v-672h-217l-19 113h-13q-50 -67 -128.5 -99.5t-169.5 -32.5zM541 1252q-109 0 -184.5 38.5t-117.5 109t-50 166.5h164q11 -88 56 -134.5t132 -46.5q88 0 132 46.5t54 134.5h164q-8 -97 -50 -167.5t-117 -108.5t-183 -38z
M705 1632q-65 0 -120 17.5t-107 35t-107 17.5q-59 0 -103.5 -16t-87.5 -49v140q37 33 84 48.5t111 15.5q65 0 120 -17.5t107 -35.5t107 -18q59 0 103.5 16.5t87.5 48.5v-139q-37 -33 -83.5 -48.5t-111.5 -15.5z" />
    <glyph glyph-name="uni1EB6" unicode="&#x1eb6;" horiz-adv-x="1419" 
d="M19 0l497 1480h387l497 -1480h-265l-443 1361h31l-442 -1361h-262zM333 425l58 215h636l58 -215h-752zM710 -394q-81 0 -123.5 33.5t-42.5 92.5q0 60 42.5 94t123.5 34q82 0 124 -34t42 -94q0 -59 -42 -92.5t-124 -33.5zM710 1605q-113 0 -189.5 34.5t-119 97
t-52.5 146.5h164q12 -70 58 -107t139 -37q94 0 139 37t56 107h164q-10 -84 -52 -146.5t-118.5 -97t-188.5 -34.5z" />
    <glyph glyph-name="uni1EB7" unicode="&#x1eb7;" horiz-adv-x="1086" 
d="M419 -19q-163 0 -254.5 84.5t-91.5 224.5q0 150 102.5 234.5t330.5 101.5l252 24l28 -152l-255 -23q-105 -10 -151 -50t-46 -110q0 -71 42 -109t124 -38q54 0 109 21t100 70v429q0 83 -26.5 130.5t-84 67t-149.5 19.5q-62 0 -141 -11t-154 -34v201q77 23 168.5 35
t171.5 12q161 0 265.5 -40.5t155.5 -136t51 -259.5v-672h-217l-19 113h-13q-50 -67 -128.5 -99.5t-169.5 -32.5zM546 -414q-71 0 -109.5 37t-38.5 100t38.5 100t109.5 37t109.5 -37t38.5 -100t-38.5 -100t-109.5 -37zM541 1250q-155 0 -244.5 88t-97.5 254h163
q8 -101 51.5 -152t127.5 -51q85 0 128 51t49 152h163q-8 -166 -96.5 -254t-243.5 -88z" />
    <glyph glyph-name="uni1EB8" unicode="&#x1eb8;" horiz-adv-x="1223" 
d="M146 0v1480h995v-217h-731v-1046h741v-217h-1005zM307 649v217h734v-217h-734zM667 -394q-81 0 -123.5 33.5t-42.5 92.5q0 60 42.5 94t123.5 34q82 0 124 -34t42 -94q0 -59 -42 -92.5t-124 -33.5z" />
    <glyph glyph-name="uni1EB9" unicode="&#x1eb9;" horiz-adv-x="1081" 
d="M648 -20q-193 0 -319.5 58.5t-188.5 183.5t-62 324q0 185 57.5 310t165.5 188.5t261 63.5q147 0 248.5 -63.5t153.5 -190.5t52 -316v-71h-790v158h590l-46 -22q0 124 -24 197t-71 104.5t-116 31.5t-118 -31t-74.5 -104t-25.5 -197v-102q0 -118 33.5 -188.5t108.5 -101
t201 -30.5q63 0 132 10t142 28v-201q-84 -21 -159.5 -30t-150.5 -9zM557 -414q-71 0 -109.5 37t-38.5 100t38.5 100t109.5 37t109.5 -37t38.5 -100t-38.5 -100t-109.5 -37z" />
    <glyph glyph-name="uni1EBA" unicode="&#x1eba;" horiz-adv-x="1223" 
d="M146 0v1480h995v-217h-731v-1046h741v-217h-1005zM307 649v217h734v-217h-734zM596 1600q3 50 38 74t69 39q25 11 42.5 22t17.5 29q0 20 -25 30.5t-87 10.5q-48 0 -95.5 -6.5t-98.5 -21.5v106q42 13 100 20.5t113 7.5q123 0 180 -33.5t57 -94.5q0 -47 -31 -71t-66 -42
q-27 -14 -49.5 -29.5t-25.5 -40.5h-139z" />
    <glyph glyph-name="uni1EBB" unicode="&#x1ebb;" horiz-adv-x="1081" 
d="M648 -20q-193 0 -319.5 58.5t-188.5 183.5t-62 324q0 185 57.5 310t165.5 188.5t261 63.5q147 0 248.5 -63.5t153.5 -190.5t52 -316v-71h-790v158h590l-46 -22q0 124 -24 197t-71 104.5t-116 31.5t-118 -31t-74.5 -104t-25.5 -197v-102q0 -118 33.5 -188.5t108.5 -101
t201 -30.5q63 0 132 10t142 28v-201q-84 -21 -159.5 -30t-150.5 -9zM488 1240q2 55 25.5 87t53 52.5t52 39t22.5 45.5q0 28 -25 41.5t-80 13.5q-37 0 -79.5 -5.5t-83.5 -18.5v108q37 12 87 18.5t93 6.5q119 0 175.5 -37.5t56.5 -110.5q0 -52 -22.5 -80.5t-53 -49t-55 -44.5
t-28.5 -66h-138z" />
    <glyph glyph-name="uni1EBC" unicode="&#x1ebc;" horiz-adv-x="1223" 
d="M146 0v1480h995v-217h-731v-1046h741v-217h-1005zM307 649v217h734v-217h-734zM832 1636q-52 0 -96 13t-86 28q-38 14 -76 24.5t-78 10.5q-59 0 -102.5 -17t-87.5 -53v158q37 35 83.5 52t110.5 17q52 0 96.5 -12.5t85.5 -28.5q39 -13 76.5 -24.5t77.5 -11.5
q59 0 103 17.5t87 53.5v-158q-37 -35 -83.5 -52t-110.5 -17z" />
    <glyph glyph-name="uni1EBD" unicode="&#x1ebd;" horiz-adv-x="1081" 
d="M648 -20q-193 0 -319.5 58.5t-188.5 183.5t-62 324q0 185 57.5 310t165.5 188.5t261 63.5q147 0 248.5 -63.5t153.5 -190.5t52 -316v-71h-790v158h590l-46 -22q0 124 -24 197t-71 104.5t-116 31.5t-118 -31t-74.5 -104t-25.5 -197v-102q0 -118 33.5 -188.5t108.5 -101
t201 -30.5q63 0 132 10t142 28v-201q-84 -21 -159.5 -30t-150.5 -9zM710 1306q-47 0 -88.5 15.5t-80.5 32.5q-36 16 -70.5 28.5t-70.5 12.5q-53 0 -96 -19.5t-86 -62.5v170q71 74 186 74q47 0 89 -15t80 -33q37 -15 71.5 -28t69.5 -13q54 0 97 20t85 62v-170
q-71 -74 -186 -74z" />
    <glyph glyph-name="uni1EBE" unicode="&#x1ebe;" horiz-adv-x="1223" 
d="M146 0v1480h995v-217h-731v-1046h741v-217h-1005zM307 649v217h734v-217h-734zM300 1600l252 272h228l252 -272h-206l-182 207h44l-182 -207h-206zM908 1812l132 252h187l-170 -252h-149z" />
    <glyph glyph-name="uni1EBF" unicode="&#x1ebf;" horiz-adv-x="1081" 
d="M648 -20q-193 0 -319.5 58.5t-188.5 183.5t-62 324q0 185 57.5 310t165.5 188.5t261 63.5q147 0 248.5 -63.5t153.5 -190.5t52 -316v-71h-790v158h590l-46 -22q0 124 -24 197t-71 104.5t-116 31.5t-118 -31t-74.5 -104t-25.5 -197v-102q0 -118 33.5 -188.5t108.5 -101
t201 -30.5q63 0 132 10t142 28v-201q-84 -21 -159.5 -30t-150.5 -9zM218 1240l229 376h220l229 -376h-193l-167 287h42l-167 -287h-193zM779 1597l180 271h228l-220 -271h-188z" />
    <glyph glyph-name="uni1EC0" unicode="&#x1ec0;" horiz-adv-x="1223" 
d="M146 0v1480h995v-217h-731v-1046h741v-217h-1005zM307 649v217h734v-217h-734zM303 1600l252 272h228l252 -272h-206l-182 207h44l-182 -207h-206zM942 1812l-169 252h186l132 -252h-149z" />
    <glyph glyph-name="uni1EC1" unicode="&#x1ec1;" horiz-adv-x="1081" 
d="M648 -20q-193 0 -319.5 58.5t-188.5 183.5t-62 324q0 185 57.5 310t165.5 188.5t261 63.5q147 0 248.5 -63.5t153.5 -190.5t52 -316v-71h-790v158h590l-46 -22q0 124 -24 197t-71 104.5t-116 31.5t-118 -31t-74.5 -104t-25.5 -197v-102q0 -118 33.5 -188.5t108.5 -101
t201 -30.5q63 0 132 10t142 28v-201q-84 -21 -159.5 -30t-150.5 -9zM218 1240l229 376h220l230 -376h-194l-167 287h42l-167 -287h-193zM810 1597l-220 271h227l180 -271h-187z" />
    <glyph glyph-name="uni1EC2" unicode="&#x1ec2;" horiz-adv-x="1223" 
d="M146 0v1480h995v-217h-731v-1046h741v-217h-1005zM307 649v217h734v-217h-734zM300 1600l252 272h228l252 -272h-206l-182 207h44l-182 -207h-206zM908 1812q2 39 27.5 60.5t58 34.5t57 25t24.5 32q0 18 -25.5 28t-87.5 10q-47 0 -94.5 -5.5t-98.5 -20.5v93
q42 13 100 20.5t112 7.5q124 0 181 -31t57 -87q0 -38 -25 -59.5t-58 -36t-59.5 -30t-29.5 -41.5h-139z" />
    <glyph glyph-name="uni1EC3" unicode="&#x1ec3;" horiz-adv-x="1081" 
d="M648 -20q-193 0 -319.5 58.5t-188.5 183.5t-62 324q0 185 57.5 310t165.5 188.5t261 63.5q147 0 248.5 -63.5t153.5 -190.5t52 -316v-71h-790v158h590l-46 -22q0 124 -24 197t-71 104.5t-116 31.5t-118 -31t-74.5 -104t-25.5 -197v-102q0 -118 33.5 -188.5t108.5 -101
t201 -30.5q63 0 132 10t142 28v-201q-84 -21 -159.5 -30t-150.5 -9zM218 1240l229 376h220l229 -376h-193l-167 287h42l-167 -287h-193zM781 1597q3 41 27.5 63.5t54.5 35.5t53 24t23 30q0 18 -24 28.5t-83 10.5q-46 0 -93.5 -6t-91.5 -20v92q39 13 95.5 20t108.5 7
q118 0 172.5 -29.5t54.5 -87.5q0 -36 -23.5 -56.5t-55 -34t-57 -30.5t-29.5 -47h-132z" />
    <glyph glyph-name="uni1EC4" unicode="&#x1ec4;" horiz-adv-x="1223" 
d="M146 0v1480h995v-217h-731v-1046h741v-217h-1005zM307 649v217h734v-217h-734zM300 1600l252 272h228l252 -272h-206l-182 207h44l-182 -207h-206zM827 1915q-63 0 -118 16.5t-105.5 33t-100.5 16.5q-55 0 -101 -16t-102 -53v123q49 36 97.5 49.5t107.5 13.5
q63 0 118 -16.5t105.5 -33t100.5 -16.5q56 0 102 16t101 52v-123q-48 -35 -96.5 -48.5t-108.5 -13.5z" />
    <glyph glyph-name="uni1EC5" unicode="&#x1ec5;" horiz-adv-x="1081" 
d="M648 -20q-193 0 -319.5 58.5t-188.5 183.5t-62 324q0 185 57.5 310t165.5 188.5t261 63.5q147 0 248.5 -63.5t153.5 -190.5t52 -316v-71h-790v158h590l-46 -22q0 124 -24 197t-71 104.5t-116 31.5t-118 -31t-74.5 -104t-25.5 -197v-102q0 -118 33.5 -188.5t108.5 -101
t201 -30.5q63 0 132 10t142 28v-201q-84 -21 -159.5 -30t-150.5 -9zM201 1241l242 332h228l242 -332h-202l-176 261h44l-176 -261h-202zM718 1632q-64 0 -117.5 18t-104.5 35.5t-105 17.5q-56 0 -99.5 -16.5t-86.5 -49.5v140q37 32 82.5 48t108.5 16q64 0 118 -17.5
t104.5 -35.5t104.5 -18q57 0 100.5 16t85.5 49v-140q-36 -31 -82 -47t-109 -16z" />
    <glyph glyph-name="uni1EC6" unicode="&#x1ec6;" horiz-adv-x="1223" 
d="M146 0v1480h995v-217h-731v-1046h741v-217h-1005zM307 649v217h734v-217h-734zM667 -394q-81 0 -123.5 33.5t-42.5 92.5q0 60 42.5 94t123.5 34q82 0 124 -34t42 -94q0 -59 -42 -92.5t-124 -33.5zM300 1600l252 296h228l252 -296h-206l-182 222h44l-182 -222h-206z" />
    <glyph glyph-name="uni1EC7" unicode="&#x1ec7;" horiz-adv-x="1081" 
d="M648 -20q-193 0 -319.5 58.5t-188.5 183.5t-62 324q0 185 57.5 310t165.5 188.5t261 63.5q147 0 248.5 -63.5t153.5 -190.5t52 -316v-71h-790v158h590l-46 -22q0 124 -24 197t-71 104.5t-116 31.5t-118 -31t-74.5 -104t-25.5 -197v-102q0 -118 33.5 -188.5t108.5 -101
t201 -30.5q63 0 132 10t142 28v-201q-84 -21 -159.5 -30t-150.5 -9zM557 -414q-71 0 -109.5 37t-38.5 100t38.5 100t109.5 37t109.5 -37t38.5 -100t-38.5 -100t-109.5 -37zM218 1240l229 376h220l229 -376h-193l-167 287h42l-167 -287h-193z" />
    <glyph glyph-name="uni1EC8" unicode="&#x1ec8;" horiz-adv-x="559" 
d="M146 0v1480h267v-1480h-267zM210 1600q3 50 38 74t69 39q25 11 42.5 22t17.5 29q0 20 -25 30.5t-87 10.5q-48 0 -95.5 -6.5t-98.5 -21.5v106q42 13 100 20.5t113 7.5q123 0 180 -33.5t57 -94.5q0 -47 -31 -71t-66 -42q-27 -14 -49.5 -29.5t-25.5 -40.5h-139z" />
    <glyph glyph-name="uni1EC9" unicode="&#x1ec9;" horiz-adv-x="524" 
d="M130 0v1091h263v-1091h-263zM193 1240q2 55 25.5 87t53 52.5t52 39t22.5 45.5q0 28 -25 41.5t-80 13.5q-37 0 -79.5 -5.5t-83.5 -18.5v108q37 12 87 18.5t93 6.5q119 0 175.5 -37.5t56.5 -110.5q0 -52 -22.5 -80.5t-53 -49t-55 -44.5t-28.5 -66h-138z" />
    <glyph glyph-name="uni1ECA" unicode="&#x1eca;" horiz-adv-x="559" 
d="M146 0v1480h267v-1480h-267zM279 -394q-81 0 -123.5 33.5t-42.5 92.5q0 60 42.5 94t123.5 34q82 0 124 -34t42 -94q0 -59 -42 -92.5t-124 -33.5z" />
    <glyph glyph-name="uni1ECB" unicode="&#x1ecb;" horiz-adv-x="524" 
d="M130 0v1091h263v-1091h-263zM262 1277q-84 0 -125.5 38t-41.5 105q0 68 41.5 105.5t125.5 37.5q85 0 126 -37.5t41 -105.5q0 -67 -41 -105t-126 -38zM262 -414q-71 0 -109.5 37t-38.5 100t38.5 100t109.5 37t109.5 -37t38.5 -100t-38.5 -100t-109.5 -37z" />
    <glyph glyph-name="uni1ECC" unicode="&#x1ecc;" horiz-adv-x="1519" 
d="M759 -19q-201 0 -351 81t-233.5 249t-83.5 429t83.5 429t233.5 249t351 81q202 0 352 -81t233 -249.5t83 -428.5t-83 -428.5t-233.5 -249.5t-351.5 -81zM759 200q122 0 210 53t135.5 170.5t47.5 310.5q0 199 -48 319t-136 173.5t-209 53.5q-120 0 -208.5 -52.5
t-136.5 -170t-48 -311.5q0 -200 48 -320t136 -173t209 -53zM759 -394q-81 0 -123.5 33.5t-42.5 92.5q0 60 42.5 94t123.5 34q82 0 124 -34t42 -94q0 -59 -42 -92.5t-124 -33.5z" />
    <glyph glyph-name="uni1ECD" unicode="&#x1ecd;" horiz-adv-x="1171" 
d="M586 -20q-155 0 -269 61t-176.5 185.5t-62.5 316.5q0 193 61 318t175 186t272 61t272 -61t174.5 -186t60.5 -317q0 -191 -62 -316.5t-176 -186.5t-269 -61zM586 182q76 0 130 33t83 111.5t29 215.5q0 139 -29 218.5t-83.5 112.5t-129.5 33q-76 0 -130.5 -33t-83.5 -111.5
t-29 -215.5q0 -139 29 -218.5t83.5 -112.5t130.5 -33zM586 -414q-71 0 -109.5 37t-38.5 100t38.5 100t109.5 37t109.5 -37t38.5 -100t-38.5 -100t-109.5 -37z" />
    <glyph glyph-name="uni1ECE" unicode="&#x1ece;" horiz-adv-x="1519" 
d="M759 -19q-201 0 -351 81t-233.5 249t-83.5 429t83.5 429t233.5 249t351 81q202 0 352 -81t233 -249.5t83 -428.5t-83 -428.5t-233.5 -249.5t-351.5 -81zM759 200q122 0 210 53t135.5 170.5t47.5 310.5q0 199 -48 319t-136 173.5t-209 53.5q-120 0 -208.5 -52.5
t-136.5 -170t-48 -311.5q0 -200 48 -320t136 -173t209 -53zM689 1600q3 50 38 74t69 39q25 11 42.5 22t17.5 29q0 20 -25 30.5t-87 10.5q-48 0 -95.5 -6.5t-98.5 -21.5v106q42 13 100 20.5t113 7.5q123 0 180 -33.5t57 -94.5q0 -47 -31 -71t-66 -42q-27 -14 -49.5 -29.5
t-25.5 -40.5h-139z" />
    <glyph glyph-name="uni1ECF" unicode="&#x1ecf;" horiz-adv-x="1171" 
d="M586 -20q-155 0 -269 61t-176.5 185.5t-62.5 316.5q0 193 61 318t175 186t272 61t272 -61t174.5 -186t60.5 -317q0 -191 -62 -316.5t-176 -186.5t-269 -61zM586 182q76 0 130 33t83 111.5t29 215.5q0 139 -29 218.5t-83.5 112.5t-129.5 33q-76 0 -130.5 -33t-83.5 -111.5
t-29 -215.5q0 -139 29 -218.5t83.5 -112.5t130.5 -33zM517 1240q2 55 25.5 87t53 52.5t52 39t22.5 45.5q0 28 -25 41.5t-80 13.5q-37 0 -79.5 -5.5t-83.5 -18.5v108q37 12 87 18.5t93 6.5q119 0 175.5 -37.5t56.5 -110.5q0 -52 -22.5 -80.5t-53 -49t-55 -44.5t-28.5 -66
h-138z" />
    <glyph glyph-name="uni1ED0" unicode="&#x1ed0;" horiz-adv-x="1519" 
d="M759 -19q-201 0 -351 81t-233.5 249t-83.5 429t83.5 429t233.5 249t351 81q202 0 352 -81t233 -249.5t83 -428.5t-83 -428.5t-233.5 -249.5t-351.5 -81zM759 200q122 0 210 53t135.5 170.5t47.5 310.5q0 199 -48 319t-136 173.5t-209 53.5q-120 0 -208.5 -52.5
t-136.5 -170t-48 -311.5q0 -200 48 -320t136 -173t209 -53zM393 1600l252 272h228l252 -272h-206l-182 207h44l-182 -207h-206zM1001 1812l132 252h187l-170 -252h-149z" />
    <glyph glyph-name="uni1ED1" unicode="&#x1ed1;" horiz-adv-x="1171" 
d="M586 -20q-155 0 -269 61t-176.5 185.5t-62.5 316.5q0 193 61 318t175 186t272 61t272 -61t174.5 -186t60.5 -317q0 -191 -62 -316.5t-176 -186.5t-269 -61zM586 182q76 0 130 33t83 111.5t29 215.5q0 139 -29 218.5t-83.5 112.5t-129.5 33q-76 0 -130.5 -33t-83.5 -111.5
t-29 -215.5q0 -139 29 -218.5t83.5 -112.5t130.5 -33zM247 1240l229 376h220l229 -376h-193l-167 287h42l-167 -287h-193zM808 1597l180 271h228l-220 -271h-188z" />
    <glyph glyph-name="uni1ED2" unicode="&#x1ed2;" horiz-adv-x="1519" 
d="M759 -19q-201 0 -351 81t-233.5 249t-83.5 429t83.5 429t233.5 249t351 81q202 0 352 -81t233 -249.5t83 -428.5t-83 -428.5t-233.5 -249.5t-351.5 -81zM759 200q122 0 210 53t135.5 170.5t47.5 310.5q0 199 -48 319t-136 173.5t-209 53.5q-120 0 -208.5 -52.5
t-136.5 -170t-48 -311.5q0 -200 48 -320t136 -173t209 -53zM396 1600l252 272h228l252 -272h-206l-182 207h44l-182 -207h-206zM1035 1812l-169 252h186l132 -252h-149z" />
    <glyph glyph-name="uni1ED3" unicode="&#x1ed3;" horiz-adv-x="1171" 
d="M586 -20q-155 0 -269 61t-176.5 185.5t-62.5 316.5q0 193 61 318t175 186t272 61t272 -61t174.5 -186t60.5 -317q0 -191 -62 -316.5t-176 -186.5t-269 -61zM586 182q76 0 130 33t83 111.5t29 215.5q0 139 -29 218.5t-83.5 112.5t-129.5 33q-76 0 -130.5 -33t-83.5 -111.5
t-29 -215.5q0 -139 29 -218.5t83.5 -112.5t130.5 -33zM247 1240l229 376h220l230 -376h-194l-167 287h42l-167 -287h-193zM839 1597l-220 271h227l180 -271h-187z" />
    <glyph glyph-name="uni1ED4" unicode="&#x1ed4;" horiz-adv-x="1519" 
d="M759 -19q-201 0 -351 81t-233.5 249t-83.5 429t83.5 429t233.5 249t351 81q202 0 352 -81t233 -249.5t83 -428.5t-83 -428.5t-233.5 -249.5t-351.5 -81zM759 200q122 0 210 53t135.5 170.5t47.5 310.5q0 199 -48 319t-136 173.5t-209 53.5q-120 0 -208.5 -52.5
t-136.5 -170t-48 -311.5q0 -200 48 -320t136 -173t209 -53zM393 1600l252 272h228l252 -272h-206l-182 207h44l-182 -207h-206zM1001 1812q2 39 27.5 60.5t58 34.5t57 25t24.5 32q0 18 -25.5 28t-87.5 10q-47 0 -94.5 -5.5t-98.5 -20.5v93q42 13 100 20.5t112 7.5
q124 0 181 -31t57 -87q0 -38 -25 -59.5t-58 -36t-59.5 -30t-29.5 -41.5h-139z" />
    <glyph glyph-name="uni1ED5" unicode="&#x1ed5;" horiz-adv-x="1171" 
d="M586 -20q-155 0 -269 61t-176.5 185.5t-62.5 316.5q0 193 61 318t175 186t272 61t272 -61t174.5 -186t60.5 -317q0 -191 -62 -316.5t-176 -186.5t-269 -61zM586 182q76 0 130 33t83 111.5t29 215.5q0 139 -29 218.5t-83.5 112.5t-129.5 33q-76 0 -130.5 -33t-83.5 -111.5
t-29 -215.5q0 -139 29 -218.5t83.5 -112.5t130.5 -33zM247 1240l229 376h220l229 -376h-193l-167 287h42l-167 -287h-193zM810 1597q3 41 27.5 63.5t54.5 35.5t53 24t23 30q0 18 -24 28.5t-83 10.5q-46 0 -93.5 -6t-91.5 -20v92q39 13 95.5 20t108.5 7q118 0 172.5 -29.5
t54.5 -87.5q0 -36 -23.5 -56.5t-55 -34t-57 -30.5t-29.5 -47h-132z" />
    <glyph glyph-name="uni1ED6" unicode="&#x1ed6;" horiz-adv-x="1519" 
d="M759 -19q-201 0 -351 81t-233.5 249t-83.5 429t83.5 429t233.5 249t351 81q202 0 352 -81t233 -249.5t83 -428.5t-83 -428.5t-233.5 -249.5t-351.5 -81zM759 200q122 0 210 53t135.5 170.5t47.5 310.5q0 199 -48 319t-136 173.5t-209 53.5q-120 0 -208.5 -52.5
t-136.5 -170t-48 -311.5q0 -200 48 -320t136 -173t209 -53zM393 1600l252 272h228l252 -272h-206l-182 207h44l-182 -207h-206zM920 1915q-63 0 -118 16.5t-105.5 33t-100.5 16.5q-55 0 -101 -16t-102 -53v123q49 36 97.5 49.5t107.5 13.5q63 0 118 -16.5t105.5 -33
t100.5 -16.5q56 0 102 16t101 52v-123q-48 -35 -96.5 -48.5t-108.5 -13.5z" />
    </font>
</defs>
</svg>
