<?xml version="1.0" standalone="no"?>
<!DOCTYPE svg PUBLIC "-//W3C//DTD SVG 1.1//EN" "http://www.w3.org/Graphics/SVG/1.1/DTD/svg11.dtd" >
<svg xmlns="http://www.w3.org/2000/svg" xmlns:xlink="http://www.w3.org/1999/xlink" version="1.1">
<metadata>
Created by FontForge 20170731 at Wed Jun 24 20:56:00 2020
 By Aleksey,,,
Copyright 2020 The Encode Project Authors (https://github.com/thundernixon/Encode-Sans), with Reserved Font Name 'Encode Sans'.
</metadata>
<defs>
<font id="EncodeSans-Medium" horiz-adv-x="0" >
  <font-face 
    font-family="Encode Sans Medium"
    font-weight="500"
    font-stretch="normal"
    units-per-em="2000"
    panose-1="0 0 0 0 0 0 0 0 0 0"
    ascent="1600"
    descent="-400"
    x-height="1088"
    cap-height="1480"
    bbox="-335 -476 2688 2157"
    underline-thickness="50"
    underline-position="-175"
    unicode-range="U+000D-FB02"
  />
<missing-glyph horiz-adv-x="1214" 
d="M607 -10q-114 0 -214.5 5.5t-216.5 20.5v1438q99 21 216.5 30.5t214.5 9.5t214.5 -9.5t216.5 -30.5v-1438q-116 -15 -216.5 -20.5t-214.5 -5.5zM607 1428q-85 0 -174 -7t-189 -21v-1322q65 -10 153.5 -16t209.5 -6t210 6t153 16v1322q-184 28 -363 28zM941 49l-335 635
l-35 64l-349 659l54 26l330 -623l35 -62l357 -674zM271 49l-57 25l357 674l35 62l330 623l54 -26l-349 -659l-35 -64z" />
    <glyph glyph-name=".notdef" horiz-adv-x="1214" 
d="M607 -10q-114 0 -214.5 5.5t-216.5 20.5v1438q99 21 216.5 30.5t214.5 9.5t214.5 -9.5t216.5 -30.5v-1438q-116 -15 -216.5 -20.5t-214.5 -5.5zM607 1428q-85 0 -174 -7t-189 -21v-1322q65 -10 153.5 -16t209.5 -6t210 6t153 16v1322q-184 28 -363 28zM941 49l-335 635
l-35 64l-349 659l54 26l330 -623l35 -62l357 -674zM271 49l-57 25l357 674l35 62l330 623l54 -26l-349 -659l-35 -64z" />
    <glyph glyph-name=".null" 
 />
    <glyph glyph-name="nonmarkingreturn" horiz-adv-x="666" 
 />
    <glyph glyph-name="NULL" 
 />
    <glyph glyph-name="NULL" 
 />
    <glyph glyph-name="CR" unicode="&#xd;" horiz-adv-x="493" 
 />
    <glyph glyph-name="space" unicode=" " horiz-adv-x="493" 
 />
    <glyph glyph-name="exclam" unicode="!" horiz-adv-x="530" 
d="M201 401l-47 531v548h222v-548l-45 -531h-130zM265 -14q-64 0 -103.5 35.5t-39.5 95.5t39 95.5t104 35.5q66 0 104.5 -36t38.5 -95t-39 -95t-104 -36z" />
    <glyph glyph-name="quotedbl" unicode="&#x22;" horiz-adv-x="803" 
d="M155 894l-43 722h212l-42 -722h-127zM522 894l-43 722h212l-42 -722h-127z" />
    <glyph glyph-name="numbersign" unicode="#" horiz-adv-x="1187" 
d="M629 0l154 1480h166l-154 -1480h-166zM100 437v165h987v-165h-987zM237 0l154 1480h167l-154 -1480h-167zM100 878v165h987v-165h-987z" />
    <glyph glyph-name="dollar" unicode="$" horiz-adv-x="1090" 
d="M470 -19q-90 0 -188.5 15t-186.5 44v178q62 -21 128 -34t129 -20t118 -7q118 0 193 27.5t110.5 81.5t35.5 132q0 100 -60 153.5t-209 91.5l-90 23q-190 49 -286 148.5t-96 262.5q0 197 140 309.5t420 112.5q87 0 172 -11t154 -31v-178q-74 22 -156 33t-160 11
q-127 0 -205.5 -28t-115 -81t-36.5 -126q0 -95 54.5 -148t192.5 -90l90 -23q139 -35 228.5 -90.5t132.5 -135.5t43 -189q0 -136 -64.5 -232.5t-188 -147.5t-299.5 -51zM448 -240v272l196 6v-278h-196zM448 1456v264h196v-264h-196z" />
    <glyph glyph-name="percent" unicode="%" horiz-adv-x="1922" 
d="M545 0l655 1480h177l-654 -1480h-178zM457 573q-106 0 -187 48t-126.5 150.5t-45.5 264.5q0 163 45 265t126 150t188 48q106 0 187 -48t126.5 -150t45.5 -265q0 -162 -46 -264.5t-126.5 -150.5t-186.5 -48zM457 713q55 0 98 29.5t67 100t24 192.5t-24 193t-67 101t-98 30
q-56 0 -98.5 -30t-66.5 -100.5t-24 -191.5t24 -192t66.5 -101.5t98.5 -30.5zM1466 -18q-106 0 -187 48t-126.5 150t-45.5 265q0 162 45 264.5t126 150.5t188 48q106 0 187 -48t126.5 -150.5t45.5 -264.5q0 -163 -46 -265t-126.5 -150t-186.5 -48zM1466 122q55 0 97.5 29.5
t66.5 100t24 192.5t-24 193t-66.5 101t-97.5 30q-56 0 -98.5 -30t-66.5 -100.5t-24 -191.5q0 -122 24 -193t66.5 -101t98.5 -30z" />
    <glyph glyph-name="ampersand" unicode="&#x26;" horiz-adv-x="1529" 
d="M1428 -20l-820 599q-129 94 -201 173.5t-101 155t-29 158.5q0 205 137.5 319t417.5 114q71 0 133.5 -7t116.5 -19v-178q-55 14 -115.5 21t-122.5 7q-127 0 -205 -30.5t-113.5 -88.5t-35.5 -141q0 -58 18.5 -107t66 -101.5t133.5 -119.5l821 -599zM683 -18
q-184 0 -307.5 53t-185.5 148t-62 221q0 95 34.5 173.5t97.5 136.5t148 93l110 -96q-88 -46 -133 -117t-45 -168q0 -86 40 -150.5t120.5 -100.5t203.5 -36q127 0 220 42t144 133t51 238q0 63 -10.5 132t-29.5 134h174q19 -65 28.5 -133t9.5 -131q0 -188 -72.5 -315.5
t-208.5 -192t-327 -64.5z" />
    <glyph glyph-name="quotesingle" unicode="'" horiz-adv-x="436" 
d="M155 894l-43 722h212l-42 -722h-127z" />
    <glyph glyph-name="parenleft" unicode="(" horiz-adv-x="676" 
d="M460 -440q-179 217 -260 477t-81 551t81 551.5t260 476.5h222q-123 -154 -200 -318.5t-112.5 -341.5t-35.5 -368t35.5 -368t112.5 -341.5t200 -318.5h-222z" />
    <glyph glyph-name="parenright" unicode=")" horiz-adv-x="676" 
d="M-6 -440q124 154 200.5 318.5t112.5 341.5t36 368t-36 368t-112.5 341.5t-200.5 318.5h222q180 -216 261 -476.5t81 -551.5t-81 -551t-261 -477h-222z" />
    <glyph glyph-name="asterisk" unicode="*" horiz-adv-x="945" 
d="M551 1169l136 -143l98 -135l-119 -86l-98 135l-95 179l-95 -179l-99 -135l-119 86l99 135l136 143l-192 35l-173 56l46 139l171 -56l179 -86l-27 197v162h147v-162l-27 -197l179 86l172 56l45 -139l-172 -56z" />
    <glyph glyph-name="plus" unicode="+" horiz-adv-x="1083" 
d="M455 345v333h-316v164h316v333h173v-333h316v-164h-316v-333h-173z" />
    <glyph glyph-name="comma" unicode="," horiz-adv-x="490" 
d="M149 -324q39 98 61 182t22 170l41 -42h-28q-64 0 -103.5 37.5t-39.5 99.5q0 63 38 99.5t102 36.5q70 0 108 -44t38 -135q0 -109 -33 -213.5t-85 -190.5h-121z" />
    <glyph glyph-name="hyphen" unicode="-" horiz-adv-x="860" 
d="M139 477v174h582v-174h-582z" />
    <glyph glyph-name="period" unicode="." horiz-adv-x="490" 
d="M245 -14q-64 0 -103.5 36.5t-39.5 99.5t39 100t104 37q66 0 104.5 -37.5t38.5 -99.5q0 -61 -39 -98.5t-104 -37.5z" />
    <glyph glyph-name="slash" unicode="/" horiz-adv-x="669" 
d="M0 -240l463 1856h206l-463 -1856h-206z" />
    <glyph glyph-name="zero" unicode="0" horiz-adv-x="1276" 
d="M638 -19q-163 0 -281.5 76.5t-183 243.5t-64.5 439t64 439t182.5 243.5t282.5 76.5t283 -76.5t183 -243.5t64 -439t-65 -439t-183.5 -243.5t-281.5 -76.5zM638 159q98 0 169.5 52t110.5 178.5t39 348.5q0 224 -39 351t-110.5 179.5t-169.5 52.5t-169.5 -52t-110.5 -178.5
t-39 -348.5q0 -224 39 -351t110.5 -179.5t169.5 -52.5z" />
    <glyph glyph-name="one" unicode="1" horiz-adv-x="762" 
d="M381 0v1340l77 -61l-433 -306v204l433 308h136v-1485h-213z" />
    <glyph glyph-name="two" unicode="2" horiz-adv-x="1013" 
d="M56 0v115l419 548q70 90 111.5 161.5t60 132t18.5 118.5q0 131 -74 189.5t-229 58.5q-87 0 -169.5 -15t-153.5 -43v178q43 16 100 29t119.5 20t123.5 7q239 0 366.5 -97t127.5 -308q0 -78 -21 -153.5t-69.5 -160.5t-130.5 -191l-362 -467l-12 57h672v-179h-897z" />
    <glyph glyph-name="three" unicode="3" horiz-adv-x="1035" 
d="M415 -19q-96 0 -189 14t-177 41v166q86 -27 179.5 -41.5t179.5 -14.5q181 0 269 68.5t88 199.5q0 124 -83 192.5t-267 68.5h-189v167h118q188 0 278.5 67.5t90.5 191.5q0 114 -75.5 173.5t-228.5 59.5q-83 0 -166.5 -14t-161.5 -42v166q47 17 105 29.5t120 19t122 6.5
q241 0 365.5 -100t124.5 -282q0 -140 -83.5 -235t-229.5 -126l1 20q175 -23 268 -118.5t93 -254.5q0 -132 -61.5 -226.5t-184.5 -145t-306 -50.5z" />
    <glyph glyph-name="four" unicode="4" horiz-adv-x="1209" 
d="M45 339v117l556 1024h208l-554 -1025l-27 53h943v-169h-1126zM774 0v508l24 472h169v-980h-193z" />
    <glyph glyph-name="five" unicode="5" horiz-adv-x="1046" 
d="M442 -19q-97 0 -190.5 15t-175.5 42v166q84 -26 178 -41t182 -15q180 0 267 69t87 204q0 88 -43.5 147t-147 92t-284.5 43l-187 11l50 766h754v-168h-652l94 89l-41 -608l-130 84l187 -11q213 -12 346.5 -64t195 -145.5t61.5 -231.5q0 -216 -140 -330t-411 -114z" />
    <glyph glyph-name="six" unicode="6" horiz-adv-x="1181" 
d="M653 -19q-119 0 -217 39t-169 123.5t-109.5 220t-38.5 328.5q0 277 76 455.5t222 265t356 86.5q75 0 147 -10t132 -34v-170q-61 24 -131.5 35t-139.5 11q-151 0 -252 -61t-151.5 -190.5t-50.5 -334.5v-81q0 -150 23 -251t66 -160.5t103.5 -85t135.5 -25.5q78 0 140 29
t97 90.5t35 159.5t-37.5 160.5t-105.5 92t-160 29.5q-58 0 -119.5 -14t-118 -45t-98.5 -80v163q62 64 163.5 100t210.5 36q134 0 238 -47t163.5 -143.5t59.5 -245.5q0 -144 -59 -243.5t-165 -151t-246 -51.5z" />
    <glyph glyph-name="seven" unicode="7" horiz-adv-x="965" 
d="M165 0l537 1366l66 -65h-756v179h895v-115l-522 -1365h-220z" />
    <glyph glyph-name="eight" unicode="8" horiz-adv-x="1276" 
d="M645 -19q-184 0 -307 47.5t-184 135t-61 206.5q0 140 84.5 242.5t235.5 151.5l150 -59q-133 -40 -200.5 -123.5t-67.5 -189.5q0 -123 88 -189.5t263 -66.5q166 0 250 63t84 177q0 74 -33 125.5t-112.5 89.5t-218.5 72q-176 43 -280.5 105t-150.5 146t-46 191
q0 119 58.5 207.5t171.5 137.5t277 49q230 0 359.5 -100t129.5 -274q0 -85 -31 -157.5t-96 -130t-165 -96.5l-139 60q130 57 187 129t57 177q0 115 -79 176t-226 61q-151 0 -225.5 -63t-74.5 -168q0 -72 31 -124.5t110.5 -93t223.5 -76.5q176 -45 280 -104.5t148.5 -139.5
t44.5 -186q0 -120 -61 -212t-180.5 -144t-294.5 -52z" />
    <glyph glyph-name="nine" unicode="9" horiz-adv-x="1181" 
d="M528 1499q119 0 217 -39t169 -123.5t109.5 -220t38.5 -328.5q0 -277 -76 -455.5t-222 -265t-356 -86.5q-75 0 -147 10t-132 34v170q61 -24 131.5 -35t139.5 -11q151 0 252 61t151.5 190.5t50.5 334.5v81q0 150 -23 251t-66 160.5t-103.5 85t-135.5 25.5q-78 0 -140 -29
t-97 -90.5t-35 -159.5t37.5 -160.5t105.5 -92t160 -29.5q58 0 119.5 14t118 45t98.5 80v-163q-62 -64 -163.5 -100t-210.5 -36q-134 0 -238 47t-163.5 143.5t-59.5 245.5q0 144 59 243.5t165 151t246 51.5z" />
    <glyph glyph-name="colon" unicode=":" horiz-adv-x="490" 
d="M245 -14q-64 0 -103.5 36.5t-39.5 99.5t39 100t104 37q66 0 104.5 -37.5t38.5 -99.5q0 -61 -39 -98.5t-104 -37.5zM245 829q-64 0 -103.5 36.5t-39.5 99.5t39 100t104 37q66 0 104.5 -37.5t38.5 -99.5q0 -61 -39 -98.5t-104 -37.5z" />
    <glyph glyph-name="semicolon" unicode=";" horiz-adv-x="490" 
d="M149 -324q39 98 61 182t22 170l41 -42h-28q-64 0 -103.5 37.5t-39.5 99.5q0 63 38 99.5t102 36.5q70 0 108 -44t38 -135q0 -109 -33 -213.5t-85 -190.5h-121zM245 829q-64 0 -103.5 36.5t-39.5 99.5t39 100t104 37q66 0 104.5 -37.5t38.5 -99.5q0 -61 -39 -98.5
t-104 -37.5z" />
    <glyph glyph-name="less" unicode="&#x3c;" horiz-adv-x="1083" 
d="M944 335l-805 329v192l805 329v-170l-677 -269v30l677 -271v-170z" />
    <glyph glyph-name="equal" unicode="=" horiz-adv-x="1083" 
d="M139 882v165h805v-165h-805zM139 473v165h805v-165h-805z" />
    <glyph glyph-name="greater" unicode="&#x3e;" horiz-adv-x="1083" 
d="M139 335v170l677 271v-30l-677 269v170l805 -329v-192z" />
    <glyph glyph-name="question" unicode="?" horiz-adv-x="931" 
d="M352 391l-36 395q135 38 212 82.5t109 101.5t32 130q0 112 -76 171t-230 59q-82 0 -165 -14t-161 -42v170q47 17 104.5 29.5t120 19t122.5 6.5q241 0 365.5 -100.5t124.5 -283.5q0 -106 -39 -186.5t-122 -140.5t-213 -107l-18 -290h-130zM417 -14q-64 0 -103.5 35.5
t-39.5 95.5t39 95.5t104 35.5q66 0 105 -36t39 -95q0 -58 -39 -94.5t-105 -36.5z" />
    <glyph glyph-name="at" unicode="@" horiz-adv-x="1970" 
d="M1032 -460q-302 0 -510 103t-315.5 319.5t-107.5 557.5q0 339 105.5 555.5t305 319.5t482.5 103q284 0 480.5 -100.5t297.5 -304t101 -513.5q0 -218 -50.5 -349.5t-138 -190t-198.5 -58.5q-99 0 -163.5 38.5t-95.5 107.5h-14q-46 -74 -128.5 -110t-178.5 -36
q-157 0 -247 80.5t-90 221.5q0 145 97.5 226t309.5 100l279 30l18 -125l-280 -30q-112 -11 -163.5 -55t-51.5 -125q0 -84 49 -126t139 -42q61 0 127 26t115 87v450q0 90 -28.5 140.5t-87.5 71t-148 20.5q-62 0 -139.5 -12.5t-152.5 -38.5l1 164q72 25 158.5 38.5t163.5 13.5
q146 0 243 -38t146 -126.5t49 -240.5v-420q0 -78 29 -112t85 -34q52 0 95.5 39.5t69.5 136.5t26 269q0 208 -45 356.5t-135.5 243t-226.5 138.5t-317 44q-179 0 -315.5 -46t-227.5 -145t-137.5 -257t-46.5 -383q0 -227 47 -386.5t142.5 -259t239.5 -145.5t338 -46
q107 0 207.5 14t206.5 42v-146q-95 -26 -200 -40.5t-214 -14.5z" />
    <glyph glyph-name="A" unicode="A" horiz-adv-x="1382" 
d="M24 0l515 1480h304l515 -1480h-212l-471 1383h29l-470 -1383h-210zM319 454l48 173h647l48 -173h-743z" />
    <glyph glyph-name="B" unicode="B" horiz-adv-x="1281" 
d="M539 -14q-60 0 -124 3t-129 8.5t-128 13.5v1442q63 13 132 23t143.5 15t151.5 5q206 0 336 -44t191 -132.5t61 -222.5q0 -85 -31 -156t-96 -119.5t-166 -65.5l2 14q164 -20 248.5 -114.5t84.5 -249.5q0 -101 -37 -180t-117 -132t-209 -80.5t-313 -27.5zM588 148
q162 0 255 29.5t133 88t40 148.5q0 134 -84.5 198t-270.5 64h-321v165h292q123 0 197.5 27.5t108.5 82t34 136.5q0 132 -83 189.5t-281 57.5q-73 0 -131 -5t-111 -15v-1154q56 -7 109.5 -9.5t112.5 -2.5z" />
    <glyph glyph-name="C" unicode="C" horiz-adv-x="1177" 
d="M800 -19q-163 0 -292.5 41.5t-221 131.5t-139.5 234t-48 349q0 264 85 432.5t245.5 249t386.5 80.5q85 0 164 -10t155 -31v-180q-76 21 -151.5 31t-155.5 10q-166 0 -278.5 -56.5t-170.5 -183.5t-58 -338q0 -218 58.5 -344.5t169 -181t268.5 -54.5q80 0 156.5 12.5
t161.5 40.5v-180q-73 -25 -158 -39t-177 -14z" />
    <glyph glyph-name="D" unicode="D" horiz-adv-x="1431" 
d="M525 -13q-57 0 -116.5 2.5t-121.5 7t-129 12.5v1444q63 13 132.5 22.5t140.5 14.5t139 5q378 0 570 -184.5t192 -570.5q0 -262 -90 -428.5t-269.5 -245.5t-447.5 -79zM573 164q181 0 301 58.5t180 185.5t60 333q0 204 -59 331.5t-177.5 187t-296.5 59.5
q-49 0 -103.5 -4.5t-107.5 -13.5v-1126q49 -5 97.5 -8t105.5 -3z" />
    <glyph glyph-name="E" unicode="E" horiz-adv-x="1193" 
d="M158 0v1480h954v-175h-744v-1130h754v-175h-964zM288 671v175h725v-175h-725z" />
    <glyph glyph-name="F" unicode="F" horiz-adv-x="1152" 
d="M158 0v1480h948v-177h-736v-1303h-212zM300 651v177h707v-177h-707z" />
    <glyph glyph-name="G" unicode="G" horiz-adv-x="1371" 
d="M885 -14q-260 0 -434.5 79.5t-263 245.5t-88.5 426q0 265 91 433t261.5 248.5t407.5 80.5q85 0 167.5 -10.5t164.5 -31.5v-180q-86 23 -163.5 32.5t-153.5 9.5q-177 0 -300.5 -57t-188.5 -185t-65 -341q0 -203 61.5 -329t183.5 -184t305 -58q68 0 130 5.5t115 14.5
l-87 -83v618h199v-704q-94 -15 -176 -22.5t-166 -7.5z" />
    <glyph glyph-name="H" unicode="H" horiz-adv-x="1470" 
d="M158 0v1480h212v-627h729v627h213v-1480h-213v664h-729v-664h-212z" />
    <glyph glyph-name="I" unicode="I" horiz-adv-x="528" 
d="M158 0v1480h212v-1480h-212z" />
    <glyph glyph-name="J" unicode="J" horiz-adv-x="528" 
d="M125 -346l-138 93q62 85 99.5 165t55 171.5t17.5 209.5v1187h211v-1201q0 -122 -24.5 -225t-78.5 -200t-142 -200z" />
    <glyph glyph-name="K" unicode="K" horiz-adv-x="1265" 
d="M1060 0l-562 756l527 724h228l-545 -748l3 58l584 -790h-235zM158 0v1480h212v-1480h-212zM338 664v189h251v-189h-251z" />
    <glyph glyph-name="L" unicode="L" horiz-adv-x="1095" 
d="M158 0v1480h212v-1299h714v-181h-926z" />
    <glyph glyph-name="M" unicode="M" horiz-adv-x="1796" 
d="M162 0v1480h255l503 -1097h-36l495 1097h255v-1480h-199v1295h52l-497 -1087h-184l-505 1087h60v-1295h-199z" />
    <glyph glyph-name="N" unicode="N" horiz-adv-x="1492" 
d="M158 0v1480h216l804 -1228h-44v1228h200v-1480h-216l-804 1228h44v-1228h-200z" />
    <glyph glyph-name="O" unicode="O" horiz-adv-x="1477" 
d="M738 -19q-192 0 -336 79.5t-223.5 247.5t-79.5 432t80 432t223.5 247.5t335.5 79.5q193 0 337 -80t223.5 -247.5t79.5 -431.5t-80 -431.5t-224 -247.5t-336 -80zM738 158q129 0 223.5 56.5t146 183t51.5 336.5q0 217 -52 345.5t-146.5 185.5t-222.5 57t-222.5 -56
t-146.5 -182.5t-52 -337.5q0 -217 52 -346t146.5 -185.5t222.5 -56.5z" />
    <glyph glyph-name="P" unicode="P" horiz-adv-x="1258" 
d="M158 0v1457q96 18 194 28.5t207 10.5q304 0 459.5 -123.5t155.5 -389.5q0 -252 -153.5 -383.5t-471.5 -131.5q-47 0 -89.5 2t-89.5 6v-476h-212zM552 634q217 0 315 84t98 262q0 184 -96 267t-294 83q-58 0 -107.5 -4t-97.5 -12v-669q45 -6 88.5 -8.5t93.5 -2.5z" />
    <glyph glyph-name="Q" unicode="Q" horiz-adv-x="1477" 
d="M1321 -256q-284 37 -491 95t-348 140.5t-225.5 192.5t-121 250t-36.5 314q0 266 80 434.5t223.5 248.5t335.5 80t336 -79t224 -246.5t80 -433.5q0 -237 -68.5 -402.5t-204 -252t-336.5 -86.5q-32 0 -64.5 2t-66.5 6l54 56q100 -41 211 -70t225.5 -48t226.5 -30zM738 158
q129 0 223.5 56.5t146 183t51.5 336.5q0 217 -52 345.5t-146.5 185.5t-222.5 57t-222.5 -56t-146.5 -182.5t-52 -337.5q0 -218 51.5 -346.5t146 -185t223.5 -56.5z" />
    <glyph glyph-name="R" unicode="R" horiz-adv-x="1329" 
d="M158 0v1453q60 12 126 22t138.5 15.5t150.5 5.5q301 0 449.5 -109t148.5 -341q0 -150 -71.5 -251.5t-208 -153t-334.5 -51.5q-56 0 -100 2.5t-90 5.5v-598h-209zM1050 0l-508 692h233l513 -692h-238zM560 755q214 0 312 70.5t98 219.5q0 102 -40 165.5t-123.5 93
t-215.5 29.5q-68 0 -120.5 -5t-103.5 -14v-550q35 -3 64.5 -5.5t60 -3t68.5 -0.5z" />
    <glyph glyph-name="S" unicode="S" horiz-adv-x="1090" 
d="M475 -19q-95 0 -193.5 15.5t-186.5 45.5v178q62 -21 128 -35t130 -21t123 -7q173 0 253 62t80 179q0 100 -60 153.5t-209 91.5l-90 23q-190 49 -286 148.5t-96 262.5q0 197 139 309.5t415 112.5q91 0 177 -11.5t155 -32.5v-178q-74 23 -156.5 34.5t-166.5 11.5
q-124 0 -201 -28t-113 -81t-36 -126q0 -95 54.5 -148t192.5 -90l90 -23q139 -35 228.5 -90.5t132.5 -135.5t43 -189q0 -136 -64.5 -232.5t-187 -147.5t-295.5 -51z" />
    <glyph glyph-name="T" unicode="T" horiz-adv-x="1209" 
d="M498 0v1299h-484v181h1182v-181h-485v-1299h-213z" />
    <glyph glyph-name="U" unicode="U" horiz-adv-x="1441" 
d="M723 -19q-197 0 -324 64.5t-187.5 196t-60.5 334.5v904h212v-926q0 -206 87.5 -300t272.5 -94t272 94t87 300v926h208v-904q0 -203 -60 -334.5t-185.5 -196t-321.5 -64.5z" />
    <glyph glyph-name="V" unicode="V" horiz-adv-x="1350" 
d="M520 0l-512 1480h223l473 -1388h-47l476 1388h209l-512 -1480h-310z" />
    <glyph glyph-name="W" unicode="W" horiz-adv-x="2166" 
d="M457 0l-410 1480h217l370 -1382h-53l386 1382h243l379 -1382h-49l375 1382h203l-409 -1480h-275l-375 1348h55l-382 -1348h-275z" />
    <glyph glyph-name="X" unicode="X" horiz-adv-x="1308" 
d="M1069 0l-417 601l-124 157l-506 722h240l392 -562l124 -157l531 -761h-240zM-2 0l530 758l126 160l393 562h234l-503 -719l-126 -160l-418 -601h-236z" />
    <glyph glyph-name="Y" unicode="Y" horiz-adv-x="1209" 
d="M500 0v735l44 -157l-582 902h230l451 -701h-66l445 701h215l-570 -902l45 155v-733h-212z" />
    <glyph glyph-name="Z" unicode="Z" horiz-adv-x="1179" 
d="M61 0v118l799 1228l9 -45h-797v179h1035v-118l-799 -1228l-8 45h818v-179h-1057z" />
    <glyph glyph-name="bracketleft" unicode="[" horiz-adv-x="676" 
d="M178 -440v2056h533v-169h-324v-1718h320v-169h-529z" />
    <glyph glyph-name="backslash" unicode="\" horiz-adv-x="671" 
d="M464 -240l-464 1856h208l463 -1856h-207z" />
    <glyph glyph-name="bracketright" unicode="]" horiz-adv-x="676" 
d="M-31 -440v169h321v1718h-324v169h532v-2056h-529z" />
    <glyph glyph-name="asciicircum" unicode="^" horiz-adv-x="1187" 
d="M86 740l401 740h211l402 -740h-208l-337 633h77l-337 -633h-209z" />
    <glyph glyph-name="underscore" unicode="_" horiz-adv-x="1149" 
d="M91 -169v169h967v-169h-967z" />
    <glyph glyph-name="grave" unicode="`" horiz-adv-x="1079" 
d="M504 1247l-250 369h224l218 -369h-192z" />
    <glyph glyph-name="a" unicode="a" horiz-adv-x="1057" 
d="M420 -18q-158 0 -247.5 81t-89.5 221q0 145 98 227t314 101l273 27l21 -127l-276 -28q-118 -12 -169.5 -56.5t-51.5 -124.5q0 -81 47.5 -124.5t139.5 -43.5q64 0 128 26t115 87v456q0 92 -29 143t-89 72t-153 21q-62 0 -140 -11t-154 -36v164q73 24 161 36t165 12
q149 0 247.5 -38.5t147 -128.5t48.5 -246v-692h-173l-15 117h-12q-52 -67 -132.5 -101t-173.5 -34z" />
    <glyph glyph-name="b" unicode="b" horiz-adv-x="1160" 
d="M502 -19q-90 0 -184.5 13t-176.5 39v1583h209v-638h11q49 57 124 92t171 35q114 0 209 -54t152 -172.5t57 -313.5q0 -293 -144 -438.5t-428 -145.5zM519 145q169 0 256 94t87 308q0 149 -35.5 232t-98 116.5t-142.5 33.5q-66 0 -129 -26t-107 -81v-655q33 -9 77.5 -15.5
t91.5 -6.5z" />
    <glyph glyph-name="c" unicode="c" horiz-adv-x="902" 
d="M594 -20q-163 0 -276.5 60t-172.5 184t-59 319q0 196 63.5 320t185.5 183t297 59q60 0 118 -7t111 -20v-172q-53 13 -103.5 19.5t-100.5 6.5q-120 0 -199 -38t-117.5 -122.5t-38.5 -225.5q0 -144 36.5 -230t108.5 -124t178 -38q52 0 108.5 10t127.5 31v-171
q-62 -21 -130 -32.5t-137 -11.5z" />
    <glyph glyph-name="d" unicode="d" horiz-adv-x="1160" 
d="M520 -19q-119 0 -217.5 54t-157.5 172.5t-59 314.5q0 194 64 323.5t189.5 194.5t309.5 65q42 0 84 -3.5t77 -8.5v523h209v-1616h-177l-13 117h-12q-48 -60 -123.5 -98t-173.5 -38zM574 156q66 0 129 28t107 88v651q-33 8 -76.5 12.5t-86.5 4.5q-173 0 -261 -93t-88 -308
q0 -148 35 -231.5t97.5 -117.5t143.5 -34z" />
    <glyph glyph-name="e" unicode="e" horiz-adv-x="1054" 
d="M627 -20q-180 0 -300.5 58t-180.5 182.5t-60 323.5q0 188 55.5 312.5t158.5 186.5t246 62q140 0 237.5 -62t148 -187.5t50.5 -316.5v-60h-780v132h623l-40 -22q0 138 -28 220t-82 117.5t-131 35.5t-132.5 -35t-85.5 -117t-30 -221v-78q0 -135 37 -215.5t116 -115.5
t205 -35q62 0 130 10.5t142 30.5v-164q-81 -22 -154 -32t-145 -10z" />
    <glyph glyph-name="f" unicode="f" horiz-adv-x="743" 
d="M217 0v1225q0 133 48 224.5t142.5 139t233.5 47.5q38 0 76 -3t75 -9v-170q-32 6 -63 8.5t-63 2.5q-123 0 -182.5 -53.5t-59.5 -176.5v-1235h-207zM21 919v169h728v-169h-728z" />
    <glyph glyph-name="g" unicode="g" horiz-adv-x="1160" 
d="M492 -460q-79 0 -167.5 12t-166.5 35v170q87 -26 167.5 -38.5t152.5 -12.5q171 0 251.5 71t80.5 243v95h-11q-48 -57 -123 -92t-172 -35q-112 0 -207 53.5t-153 171t-58 309.5q0 290 144.5 436.5t427.5 146.5q60 0 123.5 -6.5t124.5 -18t113 -28.5v-997
q0 -274 -131.5 -394.5t-395.5 -120.5zM574 163q65 0 128.5 26t107.5 81v650q-33 9 -77.5 14.5t-91.5 5.5q-167 0 -255 -93t-88 -306q0 -148 35.5 -230t97.5 -115t143 -33z" />
    <glyph glyph-name="h" unicode="h" horiz-adv-x="1163" 
d="M141 0v1616h209v-646h11q63 67 145.5 101t179.5 34q99 0 177.5 -39t124 -126t45.5 -233v-707h-209v695q0 128 -56 176.5t-149 48.5q-46 0 -95 -12.5t-94.5 -40.5t-79.5 -74v-793h-209z" />
    <glyph glyph-name="i" unicode="i" horiz-adv-x="492" 
d="M141 0v1088h209v-1088h-209zM246 1300q-68 0 -103 32t-35 88q0 58 35 90t103 32q69 0 103.5 -32t34.5 -90q0 -56 -34.5 -88t-103.5 -32z" />
    <glyph glyph-name="j" unicode="j" horiz-adv-x="492" 
d="M106 -466l-136 92q61 84 99 166t55 174t17 206v916h209v-906q0 -128 -24.5 -236.5t-78 -208.5t-141.5 -203zM244 1304q-68 0 -103 32t-35 88q0 58 35 90t103 32q69 0 103.5 -32t34.5 -90q0 -56 -34.5 -88t-103.5 -32z" />
    <glyph glyph-name="k" unicode="k" horiz-adv-x="1081" 
d="M875 0l-421 558l391 530h228l-404 -555v56l438 -589h-232zM328 472v171h208v-171h-208zM141 0v1616h209v-1616h-209z" />
    <glyph glyph-name="l" unicode="l" horiz-adv-x="491" 
d="M141 0v1616h209v-1616h-209z" />
    <glyph glyph-name="m" unicode="m" horiz-adv-x="1729" 
d="M141 0v1088h174l15 -120h12q61 68 140.5 102.5t170.5 34.5q93 0 166 -38.5t115 -124.5t42 -230v-712h-205v696q0 128 -49.5 177t-131.5 49q-41 0 -85 -13.5t-84 -42.5t-71 -76v-790h-209zM1390 0v696q0 128 -52 177t-134 49q-42 0 -88.5 -14t-90 -47t-74.5 -89l-48 153
q78 99 172.5 139.5t184.5 40.5q98 0 174.5 -39t120 -126.5t43.5 -233.5v-706h-208z" />
    <glyph glyph-name="n" unicode="n" horiz-adv-x="1163" 
d="M141 0v1088h174l15 -119h12q64 66 150.5 101t183.5 35q104 0 184.5 -39t126.5 -126.5t46 -233.5v-706h-209v695q0 128 -55 177.5t-150 49.5q-44 0 -93 -13t-95 -41t-81 -74v-794h-209z" />
    <glyph glyph-name="o" unicode="o" horiz-adv-x="1140" 
d="M570 -20q-147 0 -255.5 60t-168.5 184t-60 318q0 195 59 319t167.5 184t257.5 60t257.5 -60t167.5 -184t59 -318q0 -193 -59.5 -318t-168.5 -185t-256 -60zM570 145q84 0 145 36.5t94 123t33 236.5q0 152 -33 239t-94 123.5t-145 36.5t-145 -36t-94 -122.5t-33 -236.5
q0 -152 32.5 -239t94 -124t145.5 -37z" />
    <glyph glyph-name="p" unicode="p" horiz-adv-x="1160" 
d="M141 -440v1528h177l14 -119h11q48 61 124 98.5t173 37.5q118 0 216.5 -53t158 -171.5t59.5 -316.5q0 -194 -64 -323.5t-189.5 -194.5t-309.5 -65q-41 0 -83 3.5t-78 8.5v-433h-209zM513 146q174 0 261.5 93.5t87.5 307.5q0 149 -35.5 232t-98 117t-142.5 34
q-65 0 -128.5 -27.5t-107.5 -88.5v-651q33 -8 77 -12.5t86 -4.5z" />
    <glyph glyph-name="q" unicode="q" horiz-adv-x="1160" 
d="M810 -440v548h-11q-48 -57 -123 -92t-172 -35q-114 0 -209 53.5t-152 172t-57 313.5q0 294 144 439.5t428 145.5q60 0 123.5 -6.5t124.5 -18t113 -28.5v-1492h-209zM574 156q65 0 128.5 26.5t107.5 81.5v656q-33 9 -77.5 14.5t-92.5 5.5q-166 0 -254 -93t-88 -309
q0 -149 35.5 -232t98 -116.5t142.5 -33.5z" />
    <glyph glyph-name="r" unicode="r" horiz-adv-x="750" 
d="M141 0v1088h173l17 -144h11q53 78 135 117t174 39q24 0 46 -2t41 -6v-191q-24 4 -48.5 5.5t-49.5 1.5q-52 0 -106.5 -15.5t-102.5 -46.5t-81 -77v-769h-209z" />
    <glyph glyph-name="s" unicode="s" horiz-adv-x="925" 
d="M419 -20q-85 0 -164 11.5t-152 33.5v161q80 -23 157.5 -34.5t157.5 -11.5q131 0 188.5 42t57.5 118q0 64 -33 97.5t-113 50.5l-156 31q-151 31 -216.5 105.5t-65.5 195.5q0 143 112.5 234t344.5 91q72 0 140 -8.5t127 -24.5v-161q-65 18 -129 26t-133 8
q-100 0 -157.5 -21.5t-82 -57.5t-24.5 -81q0 -55 31.5 -91t110.5 -54l156 -30q149 -30 217.5 -101.5t68.5 -199.5q0 -152 -113.5 -240.5t-329.5 -88.5z" />
    <glyph glyph-name="t" unicode="t" horiz-adv-x="778" 
d="M578 -19q-176 0 -272.5 89.5t-96.5 284.5v733l36 392h173v-1091q0 -129 52 -180.5t158 -51.5q30 0 60 4t67 12v-172q-41 -9 -86.5 -14.5t-90.5 -5.5zM13 919v169h729v-169h-729z" />
    <glyph glyph-name="u" unicode="u" horiz-adv-x="1153" 
d="M486 -18q-103 0 -183.5 38.5t-126.5 125.5t-46 232v710h209v-698q0 -127 55.5 -176t144.5 -49q44 0 92 13t93 41t80 73v796h208v-1088h-174l-14 116h-11q-66 -67 -150 -100.5t-177 -33.5z" />
    <glyph glyph-name="v" unicode="v" horiz-adv-x="1091" 
d="M413 0l-403 1088h221l331 -931h-21l331 931h208l-402 -1088h-265z" />
    <glyph glyph-name="w" unicode="w" horiz-adv-x="1729" 
d="M366 0l-311 1088h201l248 -896h-16l261 896h239l260 -896h-19l251 896h194l-309 -1088h-239l-268 917h17l-270 -917h-239z" />
    <glyph glyph-name="x" unicode="x" horiz-adv-x="1045" 
d="M804 0l-283 401l-122 147l-383 540h234l275 -389l120 -148l393 -551h-234zM9 0l390 548l126 151l275 389h227l-382 -537l-124 -150l-284 -401h-228z" />
    <glyph glyph-name="y" unicode="y" horiz-adv-x="1091" 
d="M308 -440l164 440l69 157l331 931h208l-566 -1528h-206zM413 0l-403 1088h221l379 -1088h-197z" />
    <glyph glyph-name="z" unicode="z" horiz-adv-x="948" 
d="M63 0v131l591 832v-44h-579v169h808v-131l-591 -832v44h603v-169h-832z" />
    <glyph glyph-name="braceleft" unicode="{" horiz-adv-x="716" 
d="M601 -460q-190 0 -286.5 91t-96.5 270v485q0 79 -40 117.5t-114 38.5h-36v168h36q74 0 114 38.5t40 117.5v409q0 179 96.5 270t286.5 91q42 0 81 -3t69 -9v-160h-122q-101 0 -151.5 -44.5t-50.5 -146.5v-399q0 -119 -56.5 -184t-186.5 -77v26q130 -11 186.5 -76.5
t56.5 -185.5v-474q0 -101 50.5 -146t151.5 -45h122v-160q-30 -5 -69 -8.5t-81 -3.5z" />
    <glyph glyph-name="bar" unicode="|" horiz-adv-x="507" 
d="M158 -440v2056h191v-2056h-191z" />
    <glyph glyph-name="braceright" unicode="}" horiz-adv-x="716" 
d="M116 -460q-43 0 -81.5 3.5t-68.5 8.5v160h122q101 0 151.5 45t50.5 146v474q0 120 57 185.5t185 76.5v-26q-128 12 -185 77t-57 184v399q0 102 -50.5 146.5t-151.5 44.5h-122v160q30 6 68.5 9t81.5 3q190 0 286 -91t96 -270v-409q0 -79 40 -117.5t115 -38.5h36v-168h-36
q-75 0 -115 -38.5t-40 -117.5v-485q0 -179 -96 -270t-286 -91z" />
    <glyph glyph-name="asciitilde" unicode="~" horiz-adv-x="1083" 
d="M727 617q-56 0 -107 20t-99 43q-44 20 -85 37t-82 17q-63 0 -114.5 -26.5t-100.5 -82.5v176q80 95 217 95q57 0 108 -20t99 -43q43 -20 84 -37t82 -17q64 0 115.5 26.5t99.5 82.5v-177q-79 -94 -217 -94z" />
    <glyph glyph-name="uni00A0" unicode="&#xa0;" horiz-adv-x="493" 
 />
    <glyph glyph-name="exclamdown" unicode="&#xa1;" horiz-adv-x="530" 
d="M201 677h130l45 -526v-531h-222v531zM265 1102q65 0 104 -37t39 -99q0 -61 -38.5 -99t-104.5 -38q-65 0 -104 37.5t-39 99.5q0 63 39.5 99.5t103.5 36.5z" />
    <glyph glyph-name="cent" unicode="&#xa2;" horiz-adv-x="907" 
d="M594 -20q-164 0 -277 60t-172 184t-59 319q0 196 63.5 320t185.5 183t297 59q61 0 118 -7t111 -20v-172q-53 13 -104 19.5t-102 6.5q-120 0 -198.5 -38t-116.5 -122.5t-38 -225.5q0 -144 36.5 -230t108.5 -124t178 -38q52 0 108.5 10t127.5 31v-171q-62 -21 -130 -32.5
t-137 -11.5zM486 -240v264h181v-264h-181zM486 1064v264h181v-264h-181z" />
    <glyph glyph-name="sterling" unicode="&#xa3;" horiz-adv-x="1290" 
d="M289 68v963q0 234 142 351t422 117q87 0 172 -11t155 -31v-178q-75 22 -156.5 33t-159.5 11q-128 0 -209.5 -28.5t-120.5 -91.5t-39 -165v-970h-206zM76 0v174h1145v-174h-1145zM76 670v160h922v-160h-922z" />
    <glyph glyph-name="currency" unicode="&#xa4;" horiz-adv-x="1187" 
d="M369 885l-163 134l-109 104l112 112l105 -108l134 -164zM817 885l-79 78l135 164l105 108l112 -112l-109 -104zM977 245l-105 108l-128 156l79 80l158 -128l107 -104zM210 245l-112 112l108 104l157 128l79 -80l-127 -156zM593 389q-100 0 -177 44t-121 123t-44 184
q0 104 44 182.5t121 122.5t177 44t177.5 -44t121 -122.5t43.5 -182.5q0 -105 -43.5 -184t-121 -123t-177.5 -44zM593 515q93 0 151.5 59t58.5 166q0 98 -54.5 161.5t-153.5 63.5q-93 0 -152 -59.5t-59 -165.5t59 -165.5t150 -59.5z" />
    <glyph glyph-name="yen" unicode="&#xa5;" horiz-adv-x="1240" 
d="M515 0v735l45 -157l-580 902h230l449 -701h-67l448 701h215l-573 -902l45 155v-733h-212zM199 287v134h844v-134h-844zM199 627v134h844v-134h-844z" />
    <glyph glyph-name="brokenbar" unicode="&#xa6;" horiz-adv-x="507" 
d="M158 836v780h191v-780h-191zM158 -440v780h191v-780h-191z" />
    <glyph glyph-name="section" unicode="&#xa7;" horiz-adv-x="1044" 
d="M449 -20q-77 0 -155 10.5t-150 31.5v154q81 -23 155 -33t150 -10q93 0 149.5 19t81.5 55t25 86q0 65 -33.5 99t-112.5 51l-177 36q-137 30 -204.5 102.5t-67.5 193.5q0 79 38.5 141t106.5 104l116 -81q-43 -33 -64 -71t-21 -82q0 -61 35 -102t122 -60l177 -36
q145 -31 212 -99t67 -183q0 -150 -113.5 -238t-336.5 -88zM785 456l-121 83q49 32 71 69t22 85q0 68 -36.5 106.5t-123.5 57.5l-177 36q-143 31 -211 100.5t-68 179.5q0 95 48.5 168t151 114.5t262.5 41.5q68 0 133 -7t124 -22v-154q-65 17 -123 23.5t-121 6.5
q-108 0 -169 -21.5t-87 -58t-26 -80.5q0 -57 32.5 -93t110.5 -53l181 -35q142 -30 208.5 -101t66.5 -194q0 -84 -39.5 -146.5t-108.5 -105.5z" />
    <glyph glyph-name="dieresis" unicode="&#xa8;" horiz-adv-x="1079" 
d="M825 1303q-58 0 -91 31.5t-33 85.5q0 56 33 87.5t91 31.5q59 0 91.5 -31.5t32.5 -87.5q0 -54 -32.5 -85.5t-91.5 -31.5zM375 1303q-59 0 -91.5 31.5t-32.5 85.5q0 56 32.5 87.5t91.5 31.5q58 0 91 -31.5t33 -87.5q0 -54 -33 -85.5t-91 -31.5z" />
    <glyph glyph-name="copyright" unicode="&#xa9;" horiz-adv-x="1690" 
d="M845 -22q-224 0 -392 95t-261 266.5t-93 400.5t93 400.5t261 266.5t392 95t392 -95t261 -266.5t93 -400.5t-93 -400.5t-261 -266.5t-392 -95zM893 324q-184 0 -296 105t-112 304q0 196 113 303.5t316 107.5q53 0 99.5 -6t92.5 -20v-138q-46 12 -88.5 17.5t-91.5 5.5
q-137 0 -208 -66t-71 -201q0 -137 69.5 -204t191.5 -67q43 0 90.5 7.5t107.5 27.5v-139q-46 -18 -99.5 -27.5t-113.5 -9.5zM845 103q190 0 328.5 78.5t214 221.5t75.5 337t-75.5 337t-214 221.5t-328.5 78.5t-328.5 -78.5t-214 -221.5t-75.5 -337t75.5 -337t214 -221.5
t328.5 -78.5z" />
    <glyph glyph-name="ordfeminine" unicode="&#xaa;" horiz-adv-x="889" 
d="M343 594q-134 0 -208.5 67.5t-74.5 178.5q0 119 81 184.5t263 79.5l231 20l21 -107l-227 -19q-94 -9 -135.5 -42.5t-41.5 -93.5q0 -63 39 -96.5t115 -33.5q49 0 98.5 19.5t88.5 62.5v362q0 64 -22.5 101.5t-72 53t-129.5 15.5q-54 0 -118.5 -9t-126.5 -29v149
q64 19 137.5 29t140.5 10q130 0 215.5 -32t127 -107t41.5 -203v-544h-162l-14 94h-11q-43 -54 -110.5 -82t-145.5 -28z" />
    <glyph glyph-name="guillemotleft" unicode="&#xab;" horiz-adv-x="1074" 
d="M356 136l-252 428l252 428h215l-253 -428l253 -428h-215zM795 136l-252 428l252 428h215l-253 -428l253 -428h-215z" />
    <glyph glyph-name="logicalnot" unicode="&#xac;" horiz-adv-x="1333" 
d="M1030 195v483h-891v164h1064v-647h-173z" />
    <glyph glyph-name="uni00AD" unicode="&#xad;" horiz-adv-x="860" 
d="M139 477v174h582v-174h-582z" />
    <glyph glyph-name="registered" unicode="&#xae;" horiz-adv-x="1482" 
d="M741 268q-181 0 -318.5 77.5t-214.5 216t-77 320.5t77 321t214.5 217t318.5 78t318.5 -78t214.5 -217t77 -321t-77 -320.5t-214.5 -216t-318.5 -77.5zM891 600l-150 218l101 26l167 -244h-118zM741 369q152 0 265.5 63.5t175.5 179t62 270.5q0 156 -62 271.5
t-175.5 179.5t-265.5 64t-265 -64t-175 -179.5t-62 -271.5q0 -155 62 -270.5t175 -179t265 -63.5zM528 600v592h202q125 0 188 -49t63 -143q0 -93 -62 -141.5t-189 -48.5h-95l-2 -210h-105zM635 900h112q131 0 131 100q0 102 -131 102h-112v-202z" />
    <glyph glyph-name="macron" unicode="&#xaf;" horiz-adv-x="1079" 
d="M276 1355v133h648v-133h-648z" />
    <glyph glyph-name="degree" unicode="&#xb0;" horiz-adv-x="977" 
d="M488 789q-103 0 -184 45.5t-127 126t-46 182.5q0 103 46 183t127 126t184 46q104 0 184.5 -46t127 -126t46.5 -183q0 -102 -46.5 -182.5t-127 -126t-184.5 -45.5zM489 921q94 0 155 60t61 162q0 104 -61 163t-155 59t-155.5 -59t-61.5 -163q0 -102 61.5 -162t155.5 -60z
" />
    <glyph glyph-name="plusminus" unicode="&#xb1;" horiz-adv-x="1083" 
d="M455 348v321h-316v165h316v321h173v-321h316v-165h-316v-321h-173zM139 0v165h805v-165h-805z" />
    <glyph glyph-name="uni00B2" unicode="&#xb2;" horiz-adv-x="808" 
d="M87 616v91l290 363q71 87 101.5 148t30.5 116q0 82 -50 119t-158 37q-61 0 -119 -10.5t-107 -28.5v140q49 19 114.5 28.5t133.5 9.5q173 0 264.5 -66.5t91.5 -212.5q0 -79 -36 -156t-121 -180l-242 -300l-5 44h450v-142h-638z" />
    <glyph glyph-name="uni00B3" unicode="&#xb3;" horiz-adv-x="808" 
d="M330 603q-67 0 -133.5 9.5t-126.5 26.5v133q62 -20 128.5 -29.5t124.5 -9.5q123 0 181.5 43t58.5 125q0 77 -54 119t-174 42h-147v132h103q120 0 178.5 42t58.5 117q0 72 -51.5 109t-156.5 37q-56 0 -116 -9t-113 -30v132q49 18 116 27.5t131 9.5q175 0 264.5 -68
t89.5 -194q0 -93 -56 -155.5t-153 -83.5v13q117 -16 179.5 -80.5t62.5 -170.5q0 -135 -99 -211t-296 -76z" />
    <glyph glyph-name="acute" unicode="&#xb4;" horiz-adv-x="1079" 
d="M504 1247l218 369h224l-250 -369h-192z" />
    <glyph glyph-name="uni00B5" unicode="&#xb5;" horiz-adv-x="1153" 
d="M524 -18q-89 0 -155.5 38.5t-102.5 125.5t-36 232v183h109v-171q0 -127 55.5 -176t144.5 -49q44 0 92 13t93 41t80 73v796h208v-1088h-174l-14 116h-11q-59 -67 -133.5 -100.5t-155.5 -33.5zM130 -440v1527h209v-1527h-209z" />
    <glyph glyph-name="paragraph" unicode="&#xb6;" horiz-adv-x="1258" 
d="M657 0v474q-30 -3 -59 -4.5t-63 -1.5q-230 0 -340.5 131.5t-110.5 383.5q0 266 113.5 389.5t341.5 123.5q73 0 143 -4t132 -12v-1480h-157zM944 0v1480h156v-1480h-156z" />
    <glyph glyph-name="periodcentered" unicode="&#xb7;" horiz-adv-x="490" 
d="M245 423q-64 0 -103.5 36.5t-39.5 99.5t39 100t104 37q66 0 104.5 -37.5t38.5 -99.5q0 -61 -39 -98.5t-104 -37.5z" />
    <glyph glyph-name="cedilla" unicode="&#xb8;" horiz-adv-x="1079" 
d="M601 -424q-46 0 -91.5 9t-81.5 25v94q42 -19 86 -27.5t80 -8.5q55 0 82 19.5t27 60.5q0 81 -110 81h-40v191h110v-154l-50 38q102 0 155 -43t53 -121q0 -76 -55.5 -120t-164.5 -44z" />
    <glyph glyph-name="uni00B9" unicode="&#xb9;" horiz-adv-x="808" 
d="M361 640v873l60 -49l-284 -195v156l284 195h111v-980h-171zM137 616v142h607v-142h-607z" />
    <glyph glyph-name="ordmasculine" unicode="&#xba;" horiz-adv-x="963" 
d="M482 594q-192 0 -304 112.5t-112 339.5q0 229 112 339.5t304 110.5t303.5 -111.5t111.5 -338.5q0 -151 -50.5 -251t-143.5 -150.5t-221 -50.5zM482 744q67 0 116 28.5t76 94.5t27 179q0 114 -27 179.5t-76 93t-116 27.5t-116.5 -27.5t-76.5 -93t-27 -179.5
q0 -113 27 -179t76.5 -94.5t116.5 -28.5z" />
    <glyph glyph-name="guillemotright" unicode="&#xbb;" horiz-adv-x="1074" 
d="M64 136l252 428l-252 428h214l253 -428l-253 -428h-214zM503 136l252 428l-252 428h214l253 -428l-253 -428h-214z" />
    <glyph glyph-name="onequarter" unicode="&#xbc;" horiz-adv-x="1922" 
d="M361 640v873l60 -49l-284 -195v156l284 195h111v-980h-171zM137 616v142h607v-142h-607zM473 -136l797 1752h178l-797 -1752h-178zM1142 85v93l345 686h162l-344 -686l-19 40h611v-133h-755zM1612 -136v354l31 308h121v-662h-152z" />
    <glyph glyph-name="onehalf" unicode="&#xbd;" horiz-adv-x="1922" 
d="M361 640v873l60 -49l-284 -195v156l284 195h111v-980h-171zM137 616v142h607v-142h-607zM473 -136l797 1752h178l-797 -1752h-178zM1200 -136v91l290 363q71 87 101.5 148t30.5 116q0 82 -50 119t-158 37q-61 0 -119 -10.5t-107 -28.5v140q49 19 114.5 28.5t133.5 9.5
q173 0 264.5 -66.5t91.5 -212.5q-1 -79 -36.5 -156t-120.5 -180l-242 -300l-5 44h450v-142h-638z" />
    <glyph glyph-name="threequarters" unicode="&#xbe;" horiz-adv-x="1922" 
d="M330 603q-67 0 -133.5 9.5t-126.5 26.5v133q62 -20 128.5 -29.5t124.5 -9.5q123 0 181.5 43t58.5 125q0 77 -54 119t-174 42h-147v132h103q120 0 178.5 42t58.5 117q0 72 -51.5 109t-156.5 37q-56 0 -116 -9t-113 -30v132q49 18 116 27.5t131 9.5q175 0 264.5 -68
t89.5 -194q0 -93 -56 -155.5t-153 -83.5v13q117 -16 179.5 -80.5t62.5 -170.5q0 -135 -99 -211t-296 -76zM473 -136l797 1752h178l-797 -1752h-178zM1142 85v93l345 686h162l-344 -686l-19 40h611v-133h-755zM1612 -136v354l31 308h121v-662h-152z" />
    <glyph glyph-name="questiondown" unicode="&#xbf;" horiz-adv-x="931" 
d="M578 696l37 -394q-136 -38 -213 -82.5t-108.5 -100t-31.5 -126.5q0 -108 76 -166t230 -58q82 0 165.5 14t160.5 41v-170q-47 -17 -105 -29t-120 -18.5t-122 -6.5q-241 0 -365.5 99.5t-124.5 278.5q0 104 39 183t121.5 139t213.5 107l17 289h130zM513 1102q65 0 104 -35.5
t39 -95.5q0 -59 -38.5 -95t-104.5 -36q-65 0 -104 36.5t-39 94.5t39 94.5t104 36.5z" />
    <glyph glyph-name="Agrave" unicode="&#xc0;" horiz-adv-x="1382" 
d="M24 0l515 1480h304l515 -1480h-212l-471 1383h29l-470 -1383h-210zM319 454l48 173h647l48 -173h-743zM596 1604l-211 290h222l179 -290h-190z" />
    <glyph glyph-name="Aacute" unicode="&#xc1;" horiz-adv-x="1382" 
d="M24 0l515 1480h304l515 -1480h-212l-471 1383h29l-470 -1383h-210zM319 454l48 173h647l48 -173h-743zM596 1604l178 290h223l-212 -290h-189z" />
    <glyph glyph-name="Acircumflex" unicode="&#xc2;" horiz-adv-x="1382" 
d="M24 0l515 1480h304l515 -1480h-212l-471 1383h29l-470 -1383h-210zM319 454l48 173h647l48 -173h-743zM350 1604l248 290h186l248 -290h-171l-190 228h40l-190 -228h-171z" />
    <glyph glyph-name="Atilde" unicode="&#xc3;" horiz-adv-x="1382" 
d="M24 0l515 1480h304l515 -1480h-212l-471 1383h29l-470 -1383h-210zM319 454l48 173h647l48 -173h-743zM851 1653q-50 0 -92.5 13t-83.5 28q-36 14 -72 24.5t-75 10.5q-56 0 -98 -17.5t-82 -52.5v132q34 34 78 50.5t105 16.5q50 0 93 -12.5t83 -28.5q37 -13 73 -24t74 -11
q56 0 98 17.5t82 52.5v-132q-34 -33 -78 -50t-105 -17z" />
    <glyph glyph-name="Adieresis" unicode="&#xc4;" horiz-adv-x="1382" 
d="M24 0l515 1480h304l515 -1480h-212l-471 1383h29l-470 -1383h-210zM319 454l48 173h647l48 -173h-743zM932 1643q-60 0 -92 29t-32 79q0 51 32 80.5t92 29.5q59 0 91 -29.5t32 -80.5q0 -50 -32 -79t-91 -29zM450 1643q-59 0 -91 29t-32 79q0 51 32 80.5t91 29.5
q60 0 92 -29.5t32 -80.5q0 -50 -32 -79t-92 -29z" />
    <glyph glyph-name="Aring" unicode="&#xc5;" horiz-adv-x="1382" 
d="M24 0l515 1480h304l515 -1480h-212l-471 1383h29l-470 -1383h-210zM319 454l48 173h647l48 -173h-743zM691 1595q-87 0 -144 56t-57 142t57 142t144 56q88 0 144.5 -56t56.5 -142t-56.5 -142t-144.5 -56zM691 1681q48 0 79 30t31 82q0 53 -31 82.5t-79 29.5t-79 -29.5
t-31 -82.5q0 -52 31 -82t79 -30z" />
    <glyph glyph-name="AE" unicode="&#xc6;" horiz-adv-x="1896" 
d="M24 0l522 1480h402l-1 -175h-258l-454 -1305h-211zM323 453l48 175h610v-175h-658zM951 0l-103 1480h966v-175h-748l82 -1130h676v-175h-873zM1015 671v175h700v-175h-700z" />
    <glyph glyph-name="Ccedilla" unicode="&#xc7;" horiz-adv-x="1177" 
d="M800 -19q-163 0 -292.5 41.5t-221 131.5t-139.5 234t-48 349q0 264 85 432.5t245.5 249t386.5 80.5q85 0 164 -10t155 -31v-180q-76 21 -151.5 31t-155.5 10q-166 0 -278.5 -56.5t-170.5 -183.5t-58 -338q0 -218 58.5 -344.5t169 -181t268.5 -54.5q80 0 156.5 12.5
t161.5 40.5v-180q-73 -25 -158 -39t-177 -14zM718 -424q-52 0 -102.5 9.5t-93.5 25.5v94q51 -20 97.5 -28.5t89.5 -8.5q61 0 94 19t33 61q0 43 -33.5 62t-95.5 19h-43v191h110v-154l-44 39q107 0 165.5 -41.5t58.5 -121.5q0 -79 -60.5 -122.5t-175.5 -43.5z" />
    <glyph glyph-name="Egrave" unicode="&#xc8;" horiz-adv-x="1193" 
d="M158 0v1480h954v-175h-744v-1130h754v-175h-964zM288 671v175h725v-175h-725zM562 1604l-211 290h222l179 -290h-190z" />
    <glyph glyph-name="Eacute" unicode="&#xc9;" horiz-adv-x="1193" 
d="M158 0v1480h954v-175h-744v-1130h754v-175h-964zM288 671v175h725v-175h-725zM562 1604l178 290h223l-212 -290h-189z" />
    <glyph glyph-name="Ecircumflex" unicode="&#xca;" horiz-adv-x="1193" 
d="M158 0v1480h954v-175h-744v-1130h754v-175h-964zM288 671v175h725v-175h-725zM316 1604l248 290h186l248 -290h-171l-190 228h40l-190 -228h-171z" />
    <glyph glyph-name="Edieresis" unicode="&#xcb;" horiz-adv-x="1193" 
d="M158 0v1480h954v-175h-744v-1130h754v-175h-964zM288 671v175h725v-175h-725zM898 1643q-60 0 -92 29t-32 79q0 51 32 80.5t92 29.5q59 0 91 -29.5t32 -80.5q0 -50 -32 -79t-91 -29zM416 1643q-59 0 -91 29t-32 79q0 51 32 80.5t91 29.5q60 0 92 -29.5t32 -80.5
q0 -50 -32 -79t-92 -29z" />
    <glyph glyph-name="Igrave" unicode="&#xcc;" horiz-adv-x="528" 
d="M158 0v1480h212v-1480h-212zM169 1604l-211 290h222l179 -290h-190z" />
    <glyph glyph-name="Iacute" unicode="&#xcd;" horiz-adv-x="528" 
d="M158 0v1480h212v-1480h-212zM169 1604l178 290h223l-212 -290h-189z" />
    <glyph glyph-name="Icircumflex" unicode="&#xce;" horiz-adv-x="528" 
d="M158 0v1480h212v-1480h-212zM-77 1604l248 290h186l248 -290h-171l-190 228h40l-190 -228h-171z" />
    <glyph glyph-name="Idieresis" unicode="&#xcf;" horiz-adv-x="528" 
d="M158 0v1480h212v-1480h-212zM505 1643q-60 0 -92 29t-32 79q0 51 32 80.5t92 29.5q59 0 91 -29.5t32 -80.5q0 -50 -32 -79t-91 -29zM23 1643q-59 0 -91 29t-32 79q0 51 32 80.5t91 29.5q60 0 92 -29.5t32 -80.5q0 -50 -32 -79t-92 -29z" />
    <glyph glyph-name="Eth" unicode="&#xd0;" horiz-adv-x="1431" 
d="M3 691v142h680v-142h-680zM525 -13q-57 0 -116.5 2.5t-121.5 7t-129 12.5v1444q63 13 132.5 22.5t140.5 14.5t139 5q378 0 570 -184.5t192 -570.5q0 -262 -90 -428.5t-269.5 -245.5t-447.5 -79zM573 164q181 0 301 58.5t180 185.5t60 333q0 204 -59 331.5t-177.5 187
t-296.5 59.5q-49 0 -103.5 -4.5t-107.5 -13.5v-1126q49 -5 97.5 -8t105.5 -3z" />
    <glyph glyph-name="Ntilde" unicode="&#xd1;" horiz-adv-x="1492" 
d="M158 0v1480h216l804 -1228h-44v1228h200v-1480h-216l-804 1228h44v-1228h-200zM906 1653q-50 0 -92.5 13t-83.5 28q-36 14 -72 24.5t-75 10.5q-56 0 -98 -17.5t-82 -52.5v132q34 34 78 50.5t105 16.5q50 0 93 -12.5t83 -28.5q37 -13 73 -24t74 -11q56 0 98 17.5t82 52.5
v-132q-34 -33 -78 -50t-105 -17z" />
    <glyph glyph-name="Ograve" unicode="&#xd2;" horiz-adv-x="1477" 
d="M738 -19q-192 0 -336 79.5t-223.5 247.5t-79.5 432t80 432t223.5 247.5t335.5 79.5q193 0 337 -80t223.5 -247.5t79.5 -431.5t-80 -431.5t-224 -247.5t-336 -80zM738 158q129 0 223.5 56.5t146 183t51.5 336.5q0 217 -52 345.5t-146.5 185.5t-222.5 57t-222.5 -56
t-146.5 -182.5t-52 -337.5q0 -217 52 -346t146.5 -185.5t222.5 -56.5zM643 1604l-211 290h222l179 -290h-190z" />
    <glyph glyph-name="Oacute" unicode="&#xd3;" horiz-adv-x="1477" 
d="M738 -19q-192 0 -336 79.5t-223.5 247.5t-79.5 432t80 432t223.5 247.5t335.5 79.5q193 0 337 -80t223.5 -247.5t79.5 -431.5t-80 -431.5t-224 -247.5t-336 -80zM738 158q129 0 223.5 56.5t146 183t51.5 336.5q0 217 -52 345.5t-146.5 185.5t-222.5 57t-222.5 -56
t-146.5 -182.5t-52 -337.5q0 -217 52 -346t146.5 -185.5t222.5 -56.5zM643 1604l178 290h223l-212 -290h-189z" />
    <glyph glyph-name="Ocircumflex" unicode="&#xd4;" horiz-adv-x="1477" 
d="M738 -19q-192 0 -336 79.5t-223.5 247.5t-79.5 432t80 432t223.5 247.5t335.5 79.5q193 0 337 -80t223.5 -247.5t79.5 -431.5t-80 -431.5t-224 -247.5t-336 -80zM738 158q129 0 223.5 56.5t146 183t51.5 336.5q0 217 -52 345.5t-146.5 185.5t-222.5 57t-222.5 -56
t-146.5 -182.5t-52 -337.5q0 -217 52 -346t146.5 -185.5t222.5 -56.5zM397 1604l248 290h186l248 -290h-171l-190 228h40l-190 -228h-171z" />
    <glyph glyph-name="Otilde" unicode="&#xd5;" horiz-adv-x="1477" 
d="M738 -19q-192 0 -336 79.5t-223.5 247.5t-79.5 432t80 432t223.5 247.5t335.5 79.5q193 0 337 -80t223.5 -247.5t79.5 -431.5t-80 -431.5t-224 -247.5t-336 -80zM738 158q129 0 223.5 56.5t146 183t51.5 336.5q0 217 -52 345.5t-146.5 185.5t-222.5 57t-222.5 -56
t-146.5 -182.5t-52 -337.5q0 -217 52 -346t146.5 -185.5t222.5 -56.5zM898 1653q-50 0 -92.5 13t-83.5 28q-36 14 -72 24.5t-75 10.5q-56 0 -98 -17.5t-82 -52.5v132q34 34 78 50.5t105 16.5q50 0 93 -12.5t83 -28.5q37 -13 73 -24t74 -11q56 0 98 17.5t82 52.5v-132
q-34 -33 -78 -50t-105 -17z" />
    <glyph glyph-name="Odieresis" unicode="&#xd6;" horiz-adv-x="1477" 
d="M738 -19q-192 0 -336 79.5t-223.5 247.5t-79.5 432t80 432t223.5 247.5t335.5 79.5q193 0 337 -80t223.5 -247.5t79.5 -431.5t-80 -431.5t-224 -247.5t-336 -80zM738 158q129 0 223.5 56.5t146 183t51.5 336.5q0 217 -52 345.5t-146.5 185.5t-222.5 57t-222.5 -56
t-146.5 -182.5t-52 -337.5q0 -217 52 -346t146.5 -185.5t222.5 -56.5zM979 1643q-60 0 -92 29t-32 79q0 51 32 80.5t92 29.5q59 0 91 -29.5t32 -80.5q0 -50 -32 -79t-91 -29zM497 1643q-59 0 -91 29t-32 79q0 51 32 80.5t91 29.5q60 0 92 -29.5t32 -80.5q0 -50 -32 -79
t-92 -29z" />
    <glyph glyph-name="multiply" unicode="&#xd7;" horiz-adv-x="1012" 
d="M224 362l-116 116l282 282l-282 282l116 116l282 -282l282 282l116 -116l-282 -282l282 -282l-116 -116l-282 282z" />
    <glyph glyph-name="Oslash" unicode="&#xd8;" horiz-adv-x="1477" 
d="M258 -1h-157l1115 1482h157zM738 -19q-192 0 -336 79.5t-223.5 247.5t-79.5 432t80 432t223.5 247.5t335.5 79.5q193 0 337 -80t223.5 -247.5t79.5 -431.5t-80 -431.5t-224 -247.5t-336 -80zM738 158q129 0 223.5 56.5t146 183t51.5 336.5q0 217 -52 345.5t-146.5 185.5
t-222.5 57t-222.5 -56t-146.5 -182.5t-52 -337.5q0 -217 52 -346t146.5 -185.5t222.5 -56.5z" />
    <glyph glyph-name="Ugrave" unicode="&#xd9;" horiz-adv-x="1441" 
d="M723 -19q-197 0 -324 64.5t-187.5 196t-60.5 334.5v904h212v-926q0 -206 87.5 -300t272.5 -94t272 94t87 300v926h208v-904q0 -203 -60 -334.5t-185.5 -196t-321.5 -64.5zM628 1604l-211 290h222l179 -290h-190z" />
    <glyph glyph-name="Uacute" unicode="&#xda;" horiz-adv-x="1441" 
d="M723 -19q-197 0 -324 64.5t-187.5 196t-60.5 334.5v904h212v-926q0 -206 87.5 -300t272.5 -94t272 94t87 300v926h208v-904q0 -203 -60 -334.5t-185.5 -196t-321.5 -64.5zM628 1604l178 290h223l-212 -290h-189z" />
    <glyph glyph-name="Ucircumflex" unicode="&#xdb;" horiz-adv-x="1441" 
d="M723 -19q-197 0 -324 64.5t-187.5 196t-60.5 334.5v904h212v-926q0 -206 87.5 -300t272.5 -94t272 94t87 300v926h208v-904q0 -203 -60 -334.5t-185.5 -196t-321.5 -64.5zM382 1604l248 290h186l248 -290h-171l-190 228h40l-190 -228h-171z" />
    <glyph glyph-name="Udieresis" unicode="&#xdc;" horiz-adv-x="1441" 
d="M723 -19q-197 0 -324 64.5t-187.5 196t-60.5 334.5v904h212v-926q0 -206 87.5 -300t272.5 -94t272 94t87 300v926h208v-904q0 -203 -60 -334.5t-185.5 -196t-321.5 -64.5zM964 1643q-60 0 -92 29t-32 79q0 51 32 80.5t92 29.5q59 0 91 -29.5t32 -80.5q0 -50 -32 -79
t-91 -29zM482 1643q-59 0 -91 29t-32 79q0 51 32 80.5t91 29.5q60 0 92 -29.5t32 -80.5q0 -50 -32 -79t-92 -29z" />
    <glyph glyph-name="Yacute" unicode="&#xdd;" horiz-adv-x="1209" 
d="M500 0v735l44 -157l-582 902h230l451 -701h-66l445 701h215l-570 -902l45 155v-733h-212zM510 1604l178 290h223l-212 -290h-189z" />
    <glyph glyph-name="Thorn" unicode="&#xde;" horiz-adv-x="1268" 
d="M158 0v1481h212v-221q39 6 88 10t106 4q301 0 455.5 -123.5t154.5 -389.5q0 -252 -153 -383.5t-470 -131.5q-48 0 -91 2t-90 6v-254h-212zM552 412q217 0 315 84t98 262q0 184 -96 267t-294 83q-58 0 -107.5 -4t-97.5 -12v-669q45 -6 88.5 -8.5t93.5 -2.5z" />
    <glyph glyph-name="germandbls" unicode="&#xdf;" horiz-adv-x="1445" 
d="M930 -20q-77 0 -155.5 10t-150.5 31v161q51 -14 102.5 -23.5t102 -14t99.5 -4.5q139 0 198 42t59 118q0 64 -33.5 97.5t-113.5 50.5l-156 31q-150 30 -215.5 105t-65.5 195q0 143 110.5 231.5t334.5 88.5q20 0 45.5 -1t51.5 -3t48 -5l-117 -89q10 40 15.5 82t5.5 83
q0 117 -41 186.5t-113 100t-165 30.5q-113 0 -191.5 -40.5t-118.5 -127.5t-40 -227v-1088h-209v1089q0 179 65 301t187 184t294 62q142 0 252 -50t173 -156.5t63 -276.5q0 -57 -8.5 -115t-20.5 -105q-31 6 -67 9t-84 3q-104 0 -163.5 -21.5t-84.5 -57.5t-25 -81
q0 -55 32 -91t110 -54l157 -30q149 -31 217 -102t68 -199q0 -152 -115 -240.5t-337 -88.5zM21 916v172h285v-172h-285z" />
    <glyph glyph-name="agrave" unicode="&#xe0;" horiz-adv-x="1057" 
d="M420 -18q-158 0 -247.5 81t-89.5 221q0 145 98 227t314 101l273 27l21 -127l-276 -28q-118 -12 -169.5 -56.5t-51.5 -124.5q0 -81 47.5 -124.5t139.5 -43.5q64 0 128 26t115 87v456q0 92 -29 143t-89 72t-153 21q-62 0 -140 -11t-154 -36v164q73 24 161 36t165 12
q149 0 247.5 -38.5t147 -128.5t48.5 -246v-692h-173l-15 117h-12q-52 -67 -132.5 -101t-173.5 -34zM428 1247l-250 369h224l218 -369h-192z" />
    <glyph glyph-name="aacute" unicode="&#xe1;" horiz-adv-x="1057" 
d="M420 -18q-158 0 -247.5 81t-89.5 221q0 145 98 227t314 101l273 27l21 -127l-276 -28q-118 -12 -169.5 -56.5t-51.5 -124.5q0 -81 47.5 -124.5t139.5 -43.5q64 0 128 26t115 87v456q0 92 -29 143t-89 72t-153 21q-62 0 -140 -11t-154 -36v164q73 24 161 36t165 12
q149 0 247.5 -38.5t147 -128.5t48.5 -246v-692h-173l-15 117h-12q-52 -67 -132.5 -101t-173.5 -34zM428 1247l218 369h224l-250 -369h-192z" />
    <glyph glyph-name="acircumflex" unicode="&#xe2;" horiz-adv-x="1057" 
d="M420 -18q-158 0 -247.5 81t-89.5 221q0 145 98 227t314 101l273 27l21 -127l-276 -28q-118 -12 -169.5 -56.5t-51.5 -124.5q0 -81 47.5 -124.5t139.5 -43.5q64 0 128 26t115 87v456q0 92 -29 143t-89 72t-153 21q-62 0 -140 -11t-154 -36v164q73 24 161 36t165 12
q149 0 247.5 -38.5t147 -128.5t48.5 -246v-692h-173l-15 117h-12q-52 -67 -132.5 -101t-173.5 -34zM208 1247l226 369h180l226 -369h-159l-176 298h38l-176 -298h-159z" />
    <glyph glyph-name="atilde" unicode="&#xe3;" horiz-adv-x="1057" 
d="M420 -18q-158 0 -247.5 81t-89.5 221q0 145 98 227t314 101l273 27l21 -127l-276 -28q-118 -12 -169.5 -56.5t-51.5 -124.5q0 -81 47.5 -124.5t139.5 -43.5q64 0 128 26t115 87v456q0 92 -29 143t-89 72t-153 21q-62 0 -140 -11t-154 -36v164q73 24 161 36t165 12
q149 0 247.5 -38.5t147 -128.5t48.5 -246v-692h-173l-15 117h-12q-52 -67 -132.5 -101t-173.5 -34zM671 1327q-44 0 -84.5 14.5t-78.5 30.5q-34 16 -67.5 28t-67.5 12q-50 0 -91 -19t-82 -60v141q67 71 177 71q45 0 85.5 -15t77.5 -31q35 -15 68 -27.5t67 -12.5
q51 0 92 19.5t81 59.5v-141q-67 -70 -177 -70z" />
    <glyph glyph-name="adieresis" unicode="&#xe4;" horiz-adv-x="1057" 
d="M420 -18q-158 0 -247.5 81t-89.5 221q0 145 98 227t314 101l273 27l21 -127l-276 -28q-118 -12 -169.5 -56.5t-51.5 -124.5q0 -81 47.5 -124.5t139.5 -43.5q64 0 128 26t115 87v456q0 92 -29 143t-89 72t-153 21q-62 0 -140 -11t-154 -36v164q73 24 161 36t165 12
q149 0 247.5 -38.5t147 -128.5t48.5 -246v-692h-173l-15 117h-12q-52 -67 -132.5 -101t-173.5 -34zM749 1303q-58 0 -91 31.5t-33 85.5q0 56 33 87.5t91 31.5q59 0 91.5 -31.5t32.5 -87.5q0 -54 -32.5 -85.5t-91.5 -31.5zM299 1303q-59 0 -91.5 31.5t-32.5 85.5
q0 56 32.5 87.5t91.5 31.5q58 0 91 -31.5t33 -87.5q0 -54 -33 -85.5t-91 -31.5z" />
    <glyph glyph-name="aring" unicode="&#xe5;" horiz-adv-x="1057" 
d="M420 -18q-158 0 -247.5 81t-89.5 221q0 145 98 227t314 101l273 27l21 -127l-276 -28q-118 -12 -169.5 -56.5t-51.5 -124.5q0 -81 47.5 -124.5t139.5 -43.5q64 0 128 26t115 87v456q0 92 -29 143t-89 72t-153 21q-62 0 -140 -11t-154 -36v164q73 24 161 36t165 12
q149 0 247.5 -38.5t147 -128.5t48.5 -246v-692h-173l-15 117h-12q-52 -67 -132.5 -101t-173.5 -34zM524 1242q-87 0 -144 56t-57 142t57 142t144 56q88 0 144.5 -56t56.5 -142t-56.5 -142t-144.5 -56zM524 1328q48 0 79 30.5t31 81.5q0 53 -31 82.5t-79 29.5t-79 -29.5
t-31 -82.5q0 -51 31 -81.5t79 -30.5z" />
    <glyph glyph-name="ae" unicode="&#xe6;" horiz-adv-x="1676" 
d="M1252 -20q-177 0 -294.5 58t-176 183t-58.5 325l31 17q0 179 51 300t146.5 181.5t227.5 60.5q133 0 228 -61t146 -186t51 -318v-61h-721v132h564l-40 -26q0 141 -28 224t-81 118.5t-129 35.5t-130 -35.5t-83.5 -117.5t-29.5 -221v-78q0 -135 36.5 -215.5t114.5 -115.5
t201 -35q62 0 129.5 10.5t140.5 30.5v-164q-80 -22 -152.5 -32t-143.5 -10zM437 -18q-113 0 -192 36.5t-120.5 104t-41.5 162.5q0 96 43.5 169.5t139 115t250.5 41.5h254v-129h-239q-89 0 -141.5 -23t-75 -64t-22.5 -93q0 -81 48.5 -124t141.5 -43q76 0 151 36t137 130
l68 -110q-89 -120 -191.5 -164.5t-209.5 -44.5zM723 546v158q0 92 -29.5 143t-90 72t-152.5 21q-62 0 -139.5 -11t-153.5 -36v164q75 24 158.5 36t159.5 12q141 0 234.5 -39.5t140 -128.5t46.5 -238v-166z" />
    <glyph glyph-name="ccedilla" unicode="&#xe7;" horiz-adv-x="902" 
d="M594 -20q-163 0 -276.5 60t-172.5 184t-59 319q0 196 63.5 320t185.5 183t297 59q60 0 118 -7t111 -20v-172q-53 13 -103.5 19.5t-100.5 6.5q-120 0 -199 -38t-117.5 -122.5t-38.5 -225.5q0 -144 36.5 -230t108.5 -124t178 -38q52 0 108.5 10t127.5 31v-171
q-62 -21 -130 -32.5t-137 -11.5zM530 -424q-46 0 -91.5 9t-81.5 25v94q42 -19 86 -27.5t80 -8.5q55 0 82 19.5t27 60.5q0 81 -110 81h-40v191h110v-154l-50 38q102 0 155 -43t53 -121q0 -76 -55.5 -120t-164.5 -44z" />
    <glyph glyph-name="egrave" unicode="&#xe8;" horiz-adv-x="1054" 
d="M627 -20q-180 0 -300.5 58t-180.5 182.5t-60 323.5q0 188 55.5 312.5t158.5 186.5t246 62q140 0 237.5 -62t148 -187.5t50.5 -316.5v-60h-780v132h623l-40 -22q0 138 -28 220t-82 117.5t-131 35.5t-132.5 -35t-85.5 -117t-30 -221v-78q0 -135 37 -215.5t116 -115.5
t205 -35q62 0 130 10.5t142 30.5v-164q-81 -22 -154 -32t-145 -10zM447 1247l-250 369h224l218 -369h-192z" />
    <glyph glyph-name="eacute" unicode="&#xe9;" horiz-adv-x="1054" 
d="M627 -20q-180 0 -300.5 58t-180.5 182.5t-60 323.5q0 188 55.5 312.5t158.5 186.5t246 62q140 0 237.5 -62t148 -187.5t50.5 -316.5v-60h-780v132h623l-40 -22q0 138 -28 220t-82 117.5t-131 35.5t-132.5 -35t-85.5 -117t-30 -221v-78q0 -135 37 -215.5t116 -115.5
t205 -35q62 0 130 10.5t142 30.5v-164q-81 -22 -154 -32t-145 -10zM447 1247l218 369h224l-250 -369h-192z" />
    <glyph glyph-name="ecircumflex" unicode="&#xea;" horiz-adv-x="1054" 
d="M627 -20q-180 0 -300.5 58t-180.5 182.5t-60 323.5q0 188 55.5 312.5t158.5 186.5t246 62q140 0 237.5 -62t148 -187.5t50.5 -316.5v-60h-780v132h623l-40 -22q0 138 -28 220t-82 117.5t-131 35.5t-132.5 -35t-85.5 -117t-30 -221v-78q0 -135 37 -215.5t116 -115.5
t205 -35q62 0 130 10.5t142 30.5v-164q-81 -22 -154 -32t-145 -10zM227 1247l226 369h180l226 -369h-159l-176 298h38l-176 -298h-159z" />
    <glyph glyph-name="edieresis" unicode="&#xeb;" horiz-adv-x="1054" 
d="M627 -20q-180 0 -300.5 58t-180.5 182.5t-60 323.5q0 188 55.5 312.5t158.5 186.5t246 62q140 0 237.5 -62t148 -187.5t50.5 -316.5v-60h-780v132h623l-40 -22q0 138 -28 220t-82 117.5t-131 35.5t-132.5 -35t-85.5 -117t-30 -221v-78q0 -135 37 -215.5t116 -115.5
t205 -35q62 0 130 10.5t142 30.5v-164q-81 -22 -154 -32t-145 -10zM768 1303q-58 0 -91 31.5t-33 85.5q0 56 33 87.5t91 31.5q59 0 91.5 -31.5t32.5 -87.5q0 -54 -32.5 -85.5t-91.5 -31.5zM318 1303q-59 0 -91.5 31.5t-32.5 85.5q0 56 32.5 87.5t91.5 31.5q58 0 91 -31.5
t33 -87.5q0 -54 -33 -85.5t-91 -31.5z" />
    <glyph glyph-name="igrave" unicode="&#xec;" horiz-adv-x="492" 
d="M141 0v1088h209v-1088h-209zM150 1247l-250 369h224l218 -369h-192z" />
    <glyph glyph-name="iacute" unicode="&#xed;" horiz-adv-x="492" 
d="M141 0v1088h209v-1088h-209zM150 1247l218 369h224l-250 -369h-192z" />
    <glyph glyph-name="icircumflex" unicode="&#xee;" horiz-adv-x="492" 
d="M141 0v1088h209v-1088h-209zM-70 1247l226 369h180l226 -369h-159l-176 298h38l-176 -298h-159z" />
    <glyph glyph-name="idieresis" unicode="&#xef;" horiz-adv-x="492" 
d="M141 0v1088h209v-1088h-209zM471 1303q-58 0 -91 31.5t-33 85.5q0 56 33 87.5t91 31.5q59 0 91.5 -31.5t32.5 -87.5q0 -54 -32.5 -85.5t-91.5 -31.5zM21 1303q-59 0 -91.5 31.5t-32.5 85.5q0 56 32.5 87.5t91.5 31.5q58 0 91 -31.5t33 -87.5q0 -54 -33 -85.5t-91 -31.5z
" />
    <glyph glyph-name="eth" unicode="&#xf0;" horiz-adv-x="1140" 
d="M571 -20q-148 0 -257 59.5t-168.5 184t-59.5 318.5q0 195 59 318.5t164 182t245 58.5q94 0 178 -39.5t140 -141.5l-77 16q-37 122 -105.5 241t-169 230t-232.5 209h253q108 -80 201 -194.5t163 -251.5t109.5 -285t39.5 -295q0 -213 -59 -347.5t-167.5 -198.5t-256.5 -64z
M571 144q84 0 144.5 39t93.5 125.5t33 230.5q0 152 -33 239.5t-94 124.5t-145 37t-145.5 -36.5t-94 -123.5t-32.5 -236q0 -151 33 -238.5t94 -124.5t146 -37zM199 1211l-24 123l829 143l23 -123z" />
    <glyph glyph-name="ntilde" unicode="&#xf1;" horiz-adv-x="1163" 
d="M141 0v1088h174l15 -119h12q64 66 150.5 101t183.5 35q104 0 184.5 -39t126.5 -126.5t46 -233.5v-706h-209v695q0 128 -55 177.5t-150 49.5q-44 0 -93 -13t-95 -41t-81 -74v-794h-209zM735 1327q-44 0 -84.5 14.5t-78.5 30.5q-34 16 -67.5 28t-67.5 12q-50 0 -91 -19
t-82 -60v141q67 71 177 71q45 0 85.5 -15t77.5 -31q35 -15 68 -27.5t67 -12.5q51 0 92 19.5t81 59.5v-141q-67 -70 -177 -70z" />
    <glyph glyph-name="ograve" unicode="&#xf2;" horiz-adv-x="1140" 
d="M570 -20q-147 0 -255.5 60t-168.5 184t-60 318q0 195 59 319t167.5 184t257.5 60t257.5 -60t167.5 -184t59 -318q0 -193 -59.5 -318t-168.5 -185t-256 -60zM570 145q84 0 145 36.5t94 123t33 236.5q0 152 -33 239t-94 123.5t-145 36.5t-145 -36t-94 -122.5t-33 -236.5
q0 -152 32.5 -239t94 -124t145.5 -37zM474 1247l-250 369h224l218 -369h-192z" />
    <glyph glyph-name="oacute" unicode="&#xf3;" horiz-adv-x="1140" 
d="M570 -20q-147 0 -255.5 60t-168.5 184t-60 318q0 195 59 319t167.5 184t257.5 60t257.5 -60t167.5 -184t59 -318q0 -193 -59.5 -318t-168.5 -185t-256 -60zM570 145q84 0 145 36.5t94 123t33 236.5q0 152 -33 239t-94 123.5t-145 36.5t-145 -36t-94 -122.5t-33 -236.5
q0 -152 32.5 -239t94 -124t145.5 -37zM474 1247l218 369h224l-250 -369h-192z" />
    <glyph glyph-name="ocircumflex" unicode="&#xf4;" horiz-adv-x="1140" 
d="M570 -20q-147 0 -255.5 60t-168.5 184t-60 318q0 195 59 319t167.5 184t257.5 60t257.5 -60t167.5 -184t59 -318q0 -193 -59.5 -318t-168.5 -185t-256 -60zM570 145q84 0 145 36.5t94 123t33 236.5q0 152 -33 239t-94 123.5t-145 36.5t-145 -36t-94 -122.5t-33 -236.5
q0 -152 32.5 -239t94 -124t145.5 -37zM254 1247l226 369h180l226 -369h-159l-176 298h38l-176 -298h-159z" />
    <glyph glyph-name="otilde" unicode="&#xf5;" horiz-adv-x="1140" 
d="M570 -20q-147 0 -255.5 60t-168.5 184t-60 318q0 195 59 319t167.5 184t257.5 60t257.5 -60t167.5 -184t59 -318q0 -193 -59.5 -318t-168.5 -185t-256 -60zM570 145q84 0 145 36.5t94 123t33 236.5q0 152 -33 239t-94 123.5t-145 36.5t-145 -36t-94 -122.5t-33 -236.5
q0 -152 32.5 -239t94 -124t145.5 -37zM717 1327q-44 0 -84.5 14.5t-78.5 30.5q-34 16 -67.5 28t-67.5 12q-50 0 -91 -19t-82 -60v141q67 71 177 71q45 0 85.5 -15t77.5 -31q35 -15 68 -27.5t67 -12.5q51 0 92 19.5t81 59.5v-141q-67 -70 -177 -70z" />
    <glyph glyph-name="odieresis" unicode="&#xf6;" horiz-adv-x="1140" 
d="M570 -20q-147 0 -255.5 60t-168.5 184t-60 318q0 195 59 319t167.5 184t257.5 60t257.5 -60t167.5 -184t59 -318q0 -193 -59.5 -318t-168.5 -185t-256 -60zM570 145q84 0 145 36.5t94 123t33 236.5q0 152 -33 239t-94 123.5t-145 36.5t-145 -36t-94 -122.5t-33 -236.5
q0 -152 32.5 -239t94 -124t145.5 -37zM795 1303q-58 0 -91 31.5t-33 85.5q0 56 33 87.5t91 31.5q59 0 91.5 -31.5t32.5 -87.5q0 -54 -32.5 -85.5t-91.5 -31.5zM345 1303q-59 0 -91.5 31.5t-32.5 85.5q0 56 32.5 87.5t91.5 31.5q58 0 91 -31.5t33 -87.5q0 -54 -33 -85.5
t-91 -31.5z" />
    <glyph glyph-name="divide" unicode="&#xf7;" horiz-adv-x="1083" 
d="M139 678v164h805v-164h-805zM542 262q-60 0 -96.5 34t-36.5 92q0 59 36 93t97 34t97 -34.5t36 -92.5q0 -56 -36.5 -91t-96.5 -35zM542 1005q-60 0 -96.5 34t-36.5 92t36 92.5t97 34.5t97 -35t36 -92t-36.5 -91.5t-96.5 -34.5z" />
    <glyph glyph-name="oslash" unicode="&#xf8;" horiz-adv-x="1140" 
d="M935 953q57 -69 88 -171t31 -239q0 -193 -59.5 -318t-168.5 -185t-256 -60q-81 0 -149.5 19.5t-124.5 61.5l-49 -70h-146l103 145q-56 69 -87 170t-31 236q0 195 59 319t167.5 184t257.5 60q80 0 148.5 -19t123.5 -60l50 71h146zM570 943q-86 0 -148 -37t-95.5 -123.5
t-33.5 -237.5q0 -78 11.5 -136.5t32.5 -99.5l407 569q-33 35 -77 50t-97 15zM570 143q86 0 148 36.5t95.5 123.5t33.5 238q0 79 -11.5 139t-32.5 102l-408 -573q33 -36 77.5 -51t97.5 -15z" />
    <glyph glyph-name="ugrave" unicode="&#xf9;" horiz-adv-x="1153" 
d="M486 -18q-103 0 -183.5 38.5t-126.5 125.5t-46 232v710h209v-698q0 -127 55.5 -176t144.5 -49q44 0 92 13t93 41t80 73v796h208v-1088h-174l-14 116h-11q-66 -67 -150 -100.5t-177 -33.5zM476 1247l-250 369h224l218 -369h-192z" />
    <glyph glyph-name="uacute" unicode="&#xfa;" horiz-adv-x="1153" 
d="M486 -18q-103 0 -183.5 38.5t-126.5 125.5t-46 232v710h209v-698q0 -127 55.5 -176t144.5 -49q44 0 92 13t93 41t80 73v796h208v-1088h-174l-14 116h-11q-66 -67 -150 -100.5t-177 -33.5zM476 1247l218 369h224l-250 -369h-192z" />
    <glyph glyph-name="ucircumflex" unicode="&#xfb;" horiz-adv-x="1153" 
d="M486 -18q-103 0 -183.5 38.5t-126.5 125.5t-46 232v710h209v-698q0 -127 55.5 -176t144.5 -49q44 0 92 13t93 41t80 73v796h208v-1088h-174l-14 116h-11q-66 -67 -150 -100.5t-177 -33.5zM256 1247l226 369h180l226 -369h-159l-176 298h38l-176 -298h-159z" />
    <glyph glyph-name="udieresis" unicode="&#xfc;" horiz-adv-x="1153" 
d="M486 -18q-103 0 -183.5 38.5t-126.5 125.5t-46 232v710h209v-698q0 -127 55.5 -176t144.5 -49q44 0 92 13t93 41t80 73v796h208v-1088h-174l-14 116h-11q-66 -67 -150 -100.5t-177 -33.5zM797 1303q-58 0 -91 31.5t-33 85.5q0 56 33 87.5t91 31.5q59 0 91.5 -31.5
t32.5 -87.5q0 -54 -32.5 -85.5t-91.5 -31.5zM347 1303q-59 0 -91.5 31.5t-32.5 85.5q0 56 32.5 87.5t91.5 31.5q58 0 91 -31.5t33 -87.5q0 -54 -33 -85.5t-91 -31.5z" />
    <glyph glyph-name="yacute" unicode="&#xfd;" horiz-adv-x="1091" 
d="M308 -440l164 440l69 157l331 931h208l-566 -1528h-206zM413 0l-403 1088h221l379 -1088h-197zM450 1247l218 369h224l-250 -369h-192z" />
    <glyph glyph-name="thorn" unicode="&#xfe;" horiz-adv-x="1160" 
d="M141 -440v2056h209v-640h11q50 59 124.5 94t171.5 35q113 0 208 -54t152 -172.5t57 -314.5q0 -194 -64 -323.5t-189.5 -194.5t-309.5 -65q-41 0 -83 3.5t-78 8.5v-433h-209zM513 146q174 0 261.5 93.5t87.5 307.5q0 149 -35.5 232t-98 116.5t-141.5 33.5q-66 0 -130 -27
t-107 -85v-654q33 -8 77 -12.5t86 -4.5z" />
    <glyph glyph-name="ydieresis" unicode="&#xff;" horiz-adv-x="1091" 
d="M308 -440l164 440l69 157l331 931h208l-566 -1528h-206zM413 0l-403 1088h221l379 -1088h-197zM771 1303q-58 0 -91 31.5t-33 85.5q0 56 33 87.5t91 31.5q59 0 91.5 -31.5t32.5 -87.5q0 -54 -32.5 -85.5t-91.5 -31.5zM321 1303q-59 0 -91.5 31.5t-32.5 85.5
q0 56 32.5 87.5t91.5 31.5q58 0 91 -31.5t33 -87.5q0 -54 -33 -85.5t-91 -31.5z" />
    <glyph glyph-name="Amacron" unicode="&#x100;" horiz-adv-x="1382" 
d="M24 0l515 1480h304l515 -1480h-212l-471 1383h29l-470 -1383h-210zM319 454l48 173h647l48 -173h-743zM366 1679v133h650v-133h-650z" />
    <glyph glyph-name="amacron" unicode="&#x101;" horiz-adv-x="1057" 
d="M420 -18q-158 0 -247.5 81t-89.5 221q0 145 98 227t314 101l273 27l21 -127l-276 -28q-118 -12 -169.5 -56.5t-51.5 -124.5q0 -81 47.5 -124.5t139.5 -43.5q64 0 128 26t115 87v456q0 92 -29 143t-89 72t-153 21q-62 0 -140 -11t-154 -36v164q73 24 161 36t165 12
q149 0 247.5 -38.5t147 -128.5t48.5 -246v-692h-173l-15 117h-12q-52 -67 -132.5 -101t-173.5 -34zM200 1355v133h648v-133h-648z" />
    <glyph glyph-name="Abreve" unicode="&#x102;" horiz-adv-x="1382" 
d="M24 0l515 1480h304l515 -1480h-212l-471 1383h29l-470 -1383h-210zM319 454l48 173h647l48 -173h-743zM692 1611q-106 0 -178.5 33t-112.5 92.5t-48 140.5h134q12 -75 59 -113.5t146 -38.5q100 0 146 38.5t57 113.5h134q-8 -81 -47.5 -140.5t-111.5 -92.5t-178 -33z" />
    <glyph glyph-name="abreve" unicode="&#x103;" horiz-adv-x="1057" 
d="M420 -18q-158 0 -247.5 81t-89.5 221q0 145 98 227t314 101l273 27l21 -127l-276 -28q-118 -12 -169.5 -56.5t-51.5 -124.5q0 -81 47.5 -124.5t139.5 -43.5q64 0 128 26t115 87v456q0 92 -29 143t-89 72t-153 21q-62 0 -140 -11t-154 -36v164q73 24 161 36t165 12
q149 0 247.5 -38.5t147 -128.5t48.5 -246v-692h-173l-15 117h-12q-52 -67 -132.5 -101t-173.5 -34zM525 1257q-145 0 -228.5 86.5t-91.5 247.5h134q8 -108 53 -163t133 -55q89 0 133.5 55t50.5 163h134q-7 -161 -89.5 -247.5t-228.5 -86.5z" />
    <glyph glyph-name="Aogonek" unicode="&#x104;" horiz-adv-x="1382" 
d="M24 0l515 1480h304l515 -1480h-212l-471 1383h29l-470 -1383h-210zM319 454l48 173h647l48 -173h-743zM1266 -424q-124 0 -187 51t-63 140q0 57 27 108.5t88.5 97.5t166.5 88l60 -61q-84 -37 -131 -72.5t-65.5 -72t-18.5 -74.5q0 -53 36 -81.5t109 -28.5q35 0 71.5 8
t83.5 27v-94q-41 -17 -85 -26.5t-92 -9.5z" />
    <glyph glyph-name="aogonek" unicode="&#x105;" horiz-adv-x="1057" 
d="M420 -18q-158 0 -247.5 81t-89.5 221q0 145 98 227t314 101l273 27l21 -127l-276 -28q-118 -12 -169.5 -56.5t-51.5 -124.5q0 -81 47.5 -124.5t139.5 -43.5q64 0 128 26t115 87v456q0 92 -29 143t-89 72t-153 21q-62 0 -140 -11t-154 -36v164q73 24 161 36t165 12
q149 0 247.5 -38.5t147 -128.5t48.5 -246v-692l-163 -8l-25 125h-12q-52 -67 -132.5 -101t-173.5 -34zM834 -424q-111 0 -170.5 51.5t-59.5 139.5q0 58 25.5 109t83 97t153.5 88l60 -61q-73 -36 -115.5 -71.5t-61 -72t-18.5 -76.5q0 -51 32.5 -80t92.5 -29q33 0 68 9t72 28
v-95q-34 -16 -75 -26.5t-87 -10.5z" />
    <glyph glyph-name="Cacute" unicode="&#x106;" horiz-adv-x="1177" 
d="M800 -19q-163 0 -292.5 41.5t-221 131.5t-139.5 234t-48 349q0 264 85 432.5t245.5 249t386.5 80.5q85 0 164 -10t155 -31v-180q-76 21 -151.5 31t-155.5 10q-166 0 -278.5 -56.5t-170.5 -183.5t-58 -338q0 -218 58.5 -344.5t169 -181t268.5 -54.5q80 0 156.5 12.5
t161.5 40.5v-180q-73 -25 -158 -39t-177 -14zM622 1604l178 290h223l-212 -290h-189z" />
    <glyph glyph-name="cacute" unicode="&#x107;" horiz-adv-x="902" 
d="M594 -20q-163 0 -276.5 60t-172.5 184t-59 319q0 196 63.5 320t185.5 183t297 59q60 0 118 -7t111 -20v-172q-53 13 -103.5 19.5t-100.5 6.5q-120 0 -199 -38t-117.5 -122.5t-38.5 -225.5q0 -144 36.5 -230t108.5 -124t178 -38q52 0 108.5 10t127.5 31v-171
q-62 -21 -130 -32.5t-137 -11.5zM425 1247l218 369h224l-250 -369h-192z" />
    <glyph glyph-name="Ccircumflex" unicode="&#x108;" horiz-adv-x="1177" 
d="M800 -19q-163 0 -292.5 41.5t-221 131.5t-139.5 234t-48 349q0 264 85 432.5t245.5 249t386.5 80.5q85 0 164 -10t155 -31v-180q-76 21 -151.5 31t-155.5 10q-166 0 -278.5 -56.5t-170.5 -183.5t-58 -338q0 -218 58.5 -344.5t169 -181t268.5 -54.5q80 0 156.5 12.5
t161.5 40.5v-180q-73 -25 -158 -39t-177 -14zM376 1604l248 290h186l248 -290h-171l-190 228h40l-190 -228h-171z" />
    <glyph glyph-name="ccircumflex" unicode="&#x109;" horiz-adv-x="902" 
d="M594 -20q-163 0 -276.5 60t-172.5 184t-59 319q0 196 63.5 320t185.5 183t297 59q60 0 118 -7t111 -20v-172q-53 13 -103.5 19.5t-100.5 6.5q-120 0 -199 -38t-117.5 -122.5t-38.5 -225.5q0 -144 36.5 -230t108.5 -124t178 -38q52 0 108.5 10t127.5 31v-171
q-62 -21 -130 -32.5t-137 -11.5zM205 1247l226 369h180l226 -369h-159l-176 298h38l-176 -298h-159z" />
    <glyph glyph-name="Cdotaccent" unicode="&#x10a;" horiz-adv-x="1177" 
d="M800 -19q-163 0 -292.5 41.5t-221 131.5t-139.5 234t-48 349q0 264 85 432.5t245.5 249t386.5 80.5q85 0 164 -10t155 -31v-180q-76 21 -151.5 31t-155.5 10q-166 0 -278.5 -56.5t-170.5 -183.5t-58 -338q0 -218 58.5 -344.5t169 -181t268.5 -54.5q80 0 156.5 12.5
t161.5 40.5v-180q-73 -25 -158 -39t-177 -14zM717 1643q-66 0 -101.5 29t-35.5 79q0 52 35.5 81t101.5 29t101.5 -29t35.5 -81q0 -50 -35.5 -79t-101.5 -29z" />
    <glyph glyph-name="cdotaccent" unicode="&#x10b;" horiz-adv-x="902" 
d="M594 -20q-163 0 -276.5 60t-172.5 184t-59 319q0 196 63.5 320t185.5 183t297 59q60 0 118 -7t111 -20v-172q-53 13 -103.5 19.5t-100.5 6.5q-120 0 -199 -38t-117.5 -122.5t-38.5 -225.5q0 -144 36.5 -230t108.5 -124t178 -38q52 0 108.5 10t127.5 31v-171
q-62 -21 -130 -32.5t-137 -11.5zM521 1300q-68 0 -103 32t-35 88q0 58 35 90t103 32q69 0 103.5 -32t34.5 -90q0 -56 -34.5 -88t-103.5 -32z" />
    <glyph glyph-name="Ccaron" unicode="&#x10c;" horiz-adv-x="1177" 
d="M800 -19q-163 0 -292.5 41.5t-221 131.5t-139.5 234t-48 349q0 264 85 432.5t245.5 249t386.5 80.5q85 0 164 -10t155 -31v-180q-76 21 -151.5 31t-155.5 10q-166 0 -278.5 -56.5t-170.5 -183.5t-58 -338q0 -218 58.5 -344.5t169 -181t268.5 -54.5q80 0 156.5 12.5
t161.5 40.5v-180q-73 -25 -158 -39t-177 -14zM624 1604l-248 290h171l190 -229h-40l190 229h171l-248 -290h-186z" />
    <glyph glyph-name="ccaron" unicode="&#x10d;" horiz-adv-x="902" 
d="M594 -20q-163 0 -276.5 60t-172.5 184t-59 319q0 196 63.5 320t185.5 183t297 59q60 0 118 -7t111 -20v-172q-53 13 -103.5 19.5t-100.5 6.5q-120 0 -199 -38t-117.5 -122.5t-38.5 -225.5q0 -144 36.5 -230t108.5 -124t178 -38q52 0 108.5 10t127.5 31v-171
q-62 -21 -130 -32.5t-137 -11.5zM431 1247l-229 369h160l178 -299h-38l178 299h160l-229 -369h-180z" />
    <glyph glyph-name="Dcaron" unicode="&#x10e;" horiz-adv-x="1431" 
d="M525 -13q-57 0 -116.5 2.5t-121.5 7t-129 12.5v1444q63 13 132.5 22.5t140.5 14.5t139 5q378 0 570 -184.5t192 -570.5q0 -262 -90 -428.5t-269.5 -245.5t-447.5 -79zM573 164q181 0 301 58.5t180 185.5t60 333q0 204 -59 331.5t-177.5 187t-296.5 59.5
q-49 0 -103.5 -4.5t-107.5 -13.5v-1126q49 -5 97.5 -8t105.5 -3zM551 1604l-248 290h171l190 -229h-40l190 229h171l-248 -290h-186z" />
    <glyph glyph-name="dcaron" unicode="&#x10f;" horiz-adv-x="1160" 
d="M520 -19q-119 0 -217.5 54t-157.5 172.5t-59 314.5q0 194 64 323.5t189.5 194.5t309.5 65q42 0 84 -3.5t77 -8.5v523h209v-1616h-177l-13 117h-12q-48 -60 -123.5 -98t-173.5 -38zM574 156q66 0 129 28t107 88v651q-33 8 -76.5 12.5t-86.5 4.5q-173 0 -261 -93t-88 -308
q0 -148 35 -231.5t97.5 -117.5t143.5 -34zM1103 1180q14 109 19 220t5 216h148q0 -109 -14 -223.5t-41 -212.5h-117z" />
    <glyph glyph-name="Dcroat" unicode="&#x110;" horiz-adv-x="1431" 
d="M3 691v142h680v-142h-680zM525 -13q-57 0 -116.5 2.5t-121.5 7t-129 12.5v1444q63 13 132.5 22.5t140.5 14.5t139 5q378 0 570 -184.5t192 -570.5q0 -262 -90 -428.5t-269.5 -245.5t-447.5 -79zM573 164q181 0 301 58.5t180 185.5t60 333q0 204 -59 331.5t-177.5 187
t-296.5 59.5q-49 0 -103.5 -4.5t-107.5 -13.5v-1126q49 -5 97.5 -8t105.5 -3z" />
    <glyph glyph-name="dcroat" unicode="&#x111;" horiz-adv-x="1160" 
d="M461 1285v139h692v-139h-692zM520 -19q-119 0 -217.5 54t-157.5 172.5t-59 314.5q0 194 64 323.5t189.5 194.5t309.5 65q42 0 84 -3.5t77 -8.5v523h209v-1616h-177l-13 117h-12q-48 -60 -123.5 -98t-173.5 -38zM574 156q66 0 129 28t107 88v651q-33 8 -76.5 12.5
t-86.5 4.5q-173 0 -261 -93t-88 -308q0 -148 35 -231.5t97.5 -117.5t143.5 -34z" />
    <glyph glyph-name="Emacron" unicode="&#x112;" horiz-adv-x="1193" 
d="M158 0v1480h954v-175h-744v-1130h754v-175h-964zM288 671v175h725v-175h-725zM332 1679v133h650v-133h-650z" />
    <glyph glyph-name="emacron" unicode="&#x113;" horiz-adv-x="1054" 
d="M627 -20q-180 0 -300.5 58t-180.5 182.5t-60 323.5q0 188 55.5 312.5t158.5 186.5t246 62q140 0 237.5 -62t148 -187.5t50.5 -316.5v-60h-780v132h623l-40 -22q0 138 -28 220t-82 117.5t-131 35.5t-132.5 -35t-85.5 -117t-30 -221v-78q0 -135 37 -215.5t116 -115.5
t205 -35q62 0 130 10.5t142 30.5v-164q-81 -22 -154 -32t-145 -10zM219 1355v133h648v-133h-648z" />
    <glyph glyph-name="Ebreve" unicode="&#x114;" horiz-adv-x="1193" 
d="M158 0v1480h954v-175h-744v-1130h754v-175h-964zM288 671v175h725v-175h-725zM658 1611q-106 0 -178.5 33t-112.5 92.5t-48 140.5h134q12 -75 59 -113.5t146 -38.5q100 0 146 38.5t57 113.5h134q-8 -81 -47.5 -140.5t-111.5 -92.5t-178 -33z" />
    <glyph glyph-name="ebreve" unicode="&#x115;" horiz-adv-x="1054" 
d="M627 -20q-180 0 -300.5 58t-180.5 182.5t-60 323.5q0 188 55.5 312.5t158.5 186.5t246 62q140 0 237.5 -62t148 -187.5t50.5 -316.5v-60h-780v132h623l-40 -22q0 138 -28 220t-82 117.5t-131 35.5t-132.5 -35t-85.5 -117t-30 -221v-78q0 -135 37 -215.5t116 -115.5
t205 -35q62 0 130 10.5t142 30.5v-164q-81 -22 -154 -32t-145 -10zM544 1257q-145 0 -228.5 86.5t-91.5 247.5h134q8 -108 53 -163t133 -55q89 0 133.5 55t50.5 163h134q-7 -161 -89.5 -247.5t-228.5 -86.5z" />
    <glyph glyph-name="Edotaccent" unicode="&#x116;" horiz-adv-x="1193" 
d="M158 0v1480h954v-175h-744v-1130h754v-175h-964zM288 671v175h725v-175h-725zM657 1643q-66 0 -101.5 29t-35.5 79q0 52 35.5 81t101.5 29t101.5 -29t35.5 -81q0 -50 -35.5 -79t-101.5 -29z" />
    <glyph glyph-name="edotaccent" unicode="&#x117;" horiz-adv-x="1054" 
d="M627 -20q-180 0 -300.5 58t-180.5 182.5t-60 323.5q0 188 55.5 312.5t158.5 186.5t246 62q140 0 237.5 -62t148 -187.5t50.5 -316.5v-60h-780v132h623l-40 -22q0 138 -28 220t-82 117.5t-131 35.5t-132.5 -35t-85.5 -117t-30 -221v-78q0 -135 37 -215.5t116 -115.5
t205 -35q62 0 130 10.5t142 30.5v-164q-81 -22 -154 -32t-145 -10zM543 1300q-68 0 -103 32t-35 88q0 58 35 90t103 32q69 0 103.5 -32t34.5 -90q0 -56 -34.5 -88t-103.5 -32z" />
    <glyph glyph-name="Eogonek" unicode="&#x118;" horiz-adv-x="1193" 
d="M158 0v1480h954v-175h-744v-1130h754v-175h-964zM288 671v175h725v-175h-725zM1030 -424q-124 0 -187 51t-63 140q0 57 27 108.5t88.5 97.5t166.5 88l60 -61q-84 -37 -131 -72.5t-65.5 -72t-18.5 -74.5q0 -53 36 -81.5t109 -28.5q35 0 71.5 8t83.5 27v-94
q-41 -17 -85 -26.5t-92 -9.5z" />
    <glyph glyph-name="eogonek" unicode="&#x119;" horiz-adv-x="1054" 
d="M764 -424q-111 0 -170 51.5t-59 139.5q0 78 47.5 144t156.5 112l7 -36q-30 -3 -60.5 -5t-58.5 -2q-180 0 -300.5 58t-180.5 182.5t-60 323.5q0 188 55.5 312.5t158.5 186.5t246 62q140 0 237.5 -62t148 -187.5t50.5 -316.5v-60h-780v128h623l-40 -22q0 138 -28 220
t-82 117.5t-131 35.5t-132.5 -35t-85.5 -117t-30 -221v-74q0 -135 37 -215.5t116 -115.5t205 -35q62 0 130 10.5t142 30.5v-164q-107 -36 -164 -76.5t-78.5 -83t-21.5 -82.5q0 -51 32.5 -80t92.5 -29q33 0 68 9t71 28v-95q-34 -16 -75 -26.5t-87 -10.5z" />
    <glyph glyph-name="Ecaron" unicode="&#x11a;" horiz-adv-x="1193" 
d="M158 0v1480h954v-175h-744v-1130h754v-175h-964zM288 671v175h725v-175h-725zM564 1604l-248 290h171l190 -229h-40l190 229h171l-248 -290h-186z" />
    <glyph glyph-name="ecaron" unicode="&#x11b;" horiz-adv-x="1054" 
d="M627 -20q-180 0 -300.5 58t-180.5 182.5t-60 323.5q0 188 55.5 312.5t158.5 186.5t246 62q140 0 237.5 -62t148 -187.5t50.5 -316.5v-60h-780v132h623l-40 -22q0 138 -28 220t-82 117.5t-131 35.5t-132.5 -35t-85.5 -117t-30 -221v-78q0 -135 37 -215.5t116 -115.5
t205 -35q62 0 130 10.5t142 30.5v-164q-81 -22 -154 -32t-145 -10zM453 1247l-229 369h160l178 -299h-38l178 299h160l-229 -369h-180z" />
    <glyph glyph-name="Gcircumflex" unicode="&#x11c;" horiz-adv-x="1371" 
d="M885 -14q-260 0 -434.5 79.5t-263 245.5t-88.5 426q0 265 91 433t261.5 248.5t407.5 80.5q85 0 167.5 -10.5t164.5 -31.5v-180q-86 23 -163.5 32.5t-153.5 9.5q-177 0 -300.5 -57t-188.5 -185t-65 -341q0 -203 61.5 -329t183.5 -184t305 -58q68 0 130 5.5t115 14.5
l-87 -83v618h199v-704q-94 -15 -176 -22.5t-166 -7.5zM422 1604l248 290h186l248 -290h-171l-190 228h40l-190 -228h-171z" />
    <glyph glyph-name="gcircumflex" unicode="&#x11d;" horiz-adv-x="1160" 
d="M492 -460q-79 0 -167.5 12t-166.5 35v170q87 -26 167.5 -38.5t152.5 -12.5q171 0 251.5 71t80.5 243v95h-11q-48 -57 -123 -92t-172 -35q-112 0 -207 53.5t-153 171t-58 309.5q0 290 144.5 436.5t427.5 146.5q60 0 123.5 -6.5t124.5 -18t113 -28.5v-997
q0 -274 -131.5 -394.5t-395.5 -120.5zM574 163q65 0 128.5 26t107.5 81v650q-33 9 -77.5 14.5t-91.5 5.5q-167 0 -255 -93t-88 -306q0 -148 35.5 -230t97.5 -115t143 -33zM285 1247l226 369h180l226 -369h-159l-176 298h38l-176 -298h-159z" />
    <glyph glyph-name="Gbreve" unicode="&#x11e;" horiz-adv-x="1371" 
d="M885 -14q-260 0 -434.5 79.5t-263 245.5t-88.5 426q0 265 91 433t261.5 248.5t407.5 80.5q85 0 167.5 -10.5t164.5 -31.5v-180q-86 23 -163.5 32.5t-153.5 9.5q-177 0 -300.5 -57t-188.5 -185t-65 -341q0 -203 61.5 -329t183.5 -184t305 -58q68 0 130 5.5t115 14.5
l-87 -83v618h199v-704q-94 -15 -176 -22.5t-166 -7.5zM764 1611q-106 0 -178.5 33t-112.5 92.5t-48 140.5h134q12 -75 59 -113.5t146 -38.5q100 0 146 38.5t57 113.5h134q-8 -81 -47.5 -140.5t-111.5 -92.5t-178 -33z" />
    <glyph glyph-name="gbreve" unicode="&#x11f;" horiz-adv-x="1160" 
d="M492 -460q-79 0 -167.5 12t-166.5 35v170q87 -26 167.5 -38.5t152.5 -12.5q171 0 251.5 71t80.5 243v95h-11q-48 -57 -123 -92t-172 -35q-112 0 -207 53.5t-153 171t-58 309.5q0 290 144.5 436.5t427.5 146.5q60 0 123.5 -6.5t124.5 -18t113 -28.5v-997
q0 -274 -131.5 -394.5t-395.5 -120.5zM574 163q65 0 128.5 26t107.5 81v650q-33 9 -77.5 14.5t-91.5 5.5q-167 0 -255 -93t-88 -306q0 -148 35.5 -230t97.5 -115t143 -33zM602 1257q-145 0 -228.5 86.5t-91.5 247.5h134q8 -108 53 -163t133 -55q89 0 133.5 55t50.5 163h134
q-7 -161 -89.5 -247.5t-228.5 -86.5z" />
    <glyph glyph-name="Gdotaccent" unicode="&#x120;" horiz-adv-x="1371" 
d="M885 -14q-260 0 -434.5 79.5t-263 245.5t-88.5 426q0 265 91 433t261.5 248.5t407.5 80.5q85 0 167.5 -10.5t164.5 -31.5v-180q-86 23 -163.5 32.5t-153.5 9.5q-177 0 -300.5 -57t-188.5 -185t-65 -341q0 -203 61.5 -329t183.5 -184t305 -58q68 0 130 5.5t115 14.5
l-87 -83v618h199v-704q-94 -15 -176 -22.5t-166 -7.5zM763 1643q-66 0 -101.5 29t-35.5 79q0 52 35.5 81t101.5 29t101.5 -29t35.5 -81q0 -50 -35.5 -79t-101.5 -29z" />
    <glyph glyph-name="gdotaccent" unicode="&#x121;" horiz-adv-x="1160" 
d="M492 -460q-79 0 -167.5 12t-166.5 35v170q87 -26 167.5 -38.5t152.5 -12.5q171 0 251.5 71t80.5 243v95h-11q-48 -57 -123 -92t-172 -35q-112 0 -207 53.5t-153 171t-58 309.5q0 290 144.5 436.5t427.5 146.5q60 0 123.5 -6.5t124.5 -18t113 -28.5v-997
q0 -274 -131.5 -394.5t-395.5 -120.5zM574 163q65 0 128.5 26t107.5 81v650q-33 9 -77.5 14.5t-91.5 5.5q-167 0 -255 -93t-88 -306q0 -148 35.5 -230t97.5 -115t143 -33zM601 1300q-68 0 -103 32t-35 88q0 58 35 90t103 32q69 0 103.5 -32t34.5 -90q0 -56 -34.5 -88
t-103.5 -32z" />
    <glyph glyph-name="uni0122" unicode="&#x122;" horiz-adv-x="1371" 
d="M885 -14q-260 0 -434.5 79.5t-263 245.5t-88.5 426q0 265 91 433t261.5 248.5t407.5 80.5q85 0 167.5 -10.5t164.5 -31.5v-180q-86 23 -163.5 32.5t-153.5 9.5q-177 0 -300.5 -57t-188.5 -185t-65 -341q0 -203 61.5 -329t183.5 -184t305 -58q68 0 130 5.5t115 14.5
l-87 -83v618h199v-704q-94 -15 -176 -22.5t-166 -7.5zM698 -476q28 61 38 104.5t10 87.5l35 -50h-18q-65 0 -96 25t-31 66q0 42 31 66.5t94 24.5q65 0 97 -31t32 -91q0 -46 -16.5 -100.5t-46.5 -101.5h-129z" />
    <glyph glyph-name="uni0123" unicode="&#x123;" horiz-adv-x="1160" 
d="M492 -460q-79 0 -167.5 12t-166.5 35v170q87 -26 167.5 -38.5t152.5 -12.5q171 0 251.5 71t80.5 243v95h-11q-48 -57 -123 -92t-172 -35q-112 0 -207 53.5t-153 171t-58 309.5q0 290 144.5 436.5t427.5 146.5q60 0 123.5 -6.5t124.5 -18t113 -28.5v-997
q0 -274 -131.5 -394.5t-395.5 -120.5zM574 163q65 0 128.5 26t107.5 81v650q-33 9 -77.5 14.5t-91.5 5.5q-167 0 -255 -93t-88 -306q0 -148 35.5 -230t97.5 -115t143 -33zM603 1302q-65 0 -97 31t-32 90q0 46 17 101t46 101h129q-28 -61 -38 -104.5t-10 -86.5l-35 50h18
q66 0 96.5 -25t30.5 -67q0 -41 -30.5 -65.5t-94.5 -24.5z" />
    <glyph glyph-name="Hcircumflex" unicode="&#x124;" horiz-adv-x="1470" 
d="M158 0v1480h212v-627h729v627h213v-1480h-213v664h-729v-664h-212zM394 1604l248 290h186l248 -290h-171l-190 228h40l-190 -228h-171z" />
    <glyph glyph-name="hcircumflex" unicode="&#x125;" horiz-adv-x="1163" 
d="M141 0v1616h209v-646h11q63 67 145.5 101t179.5 34q99 0 177.5 -39t124 -126t45.5 -233v-707h-209v695q0 128 -56 176.5t-149 48.5q-46 0 -95 -12.5t-94.5 -40.5t-79.5 -74v-793h-209zM247 1700l248 290h186l248 -290h-171l-190 228h40l-190 -228h-171z" />
    <glyph glyph-name="Hbar" unicode="&#x126;" horiz-adv-x="1470" 
d="M3 1099v138h1464v-138h-1464zM158 0v1480h212v-627h729v627h213v-1480h-213v664h-729v-664h-212z" />
    <glyph glyph-name="hbar" unicode="&#x127;" horiz-adv-x="1163" 
d="M7 1284v139h692v-139h-692zM141 0v1616h209v-646h11q63 67 145.5 101t179.5 34q99 0 177.5 -39t124 -126t45.5 -233v-707h-209v695q0 128 -56 176.5t-149 48.5q-46 0 -95 -12.5t-94.5 -40.5t-79.5 -74v-793h-209z" />
    <glyph glyph-name="Itilde" unicode="&#x128;" horiz-adv-x="528" 
d="M158 0v1480h212v-1480h-212zM424 1653q-50 0 -92.5 13t-83.5 28q-36 14 -72 24.5t-75 10.5q-56 0 -98 -17.5t-82 -52.5v132q34 34 78 50.5t105 16.5q50 0 93 -12.5t83 -28.5q37 -13 73 -24t74 -11q56 0 98 17.5t82 52.5v-132q-34 -33 -78 -50t-105 -17z" />
    <glyph glyph-name="itilde" unicode="&#x129;" horiz-adv-x="492" 
d="M141 0v1088h209v-1088h-209zM393 1327q-44 0 -84.5 14.5t-78.5 30.5q-34 16 -67.5 28t-67.5 12q-50 0 -91 -19t-82 -60v141q67 71 177 71q45 0 85.5 -15t77.5 -31q35 -15 68 -27.5t67 -12.5q51 0 92 19.5t81 59.5v-141q-67 -70 -177 -70z" />
    <glyph glyph-name="Imacron" unicode="&#x12a;" horiz-adv-x="528" 
d="M158 0v1480h212v-1480h-212zM-61 1679v133h650v-133h-650z" />
    <glyph glyph-name="imacron" unicode="&#x12b;" horiz-adv-x="492" 
d="M141 0v1088h209v-1088h-209zM-78 1355v133h648v-133h-648z" />
    <glyph glyph-name="Ibreve" unicode="&#x12c;" horiz-adv-x="528" 
d="M158 0v1480h212v-1480h-212zM265 1611q-106 0 -178.5 33t-112.5 92.5t-48 140.5h134q12 -75 59 -113.5t146 -38.5q100 0 146 38.5t57 113.5h134q-8 -81 -47.5 -140.5t-111.5 -92.5t-178 -33z" />
    <glyph glyph-name="ibreve" unicode="&#x12d;" horiz-adv-x="492" 
d="M141 0v1088h209v-1088h-209zM247 1257q-145 0 -228.5 86.5t-91.5 247.5h134q8 -108 53 -163t133 -55q89 0 133.5 55t50.5 163h134q-7 -161 -89.5 -247.5t-228.5 -86.5z" />
    <glyph glyph-name="Iogonek" unicode="&#x12e;" horiz-adv-x="528" 
d="M158 0v1480h212v-1480h-212zM278 -424q-124 0 -187 51t-63 140q0 57 27 108.5t88.5 97.5t166.5 88l60 -61q-84 -37 -131 -72.5t-65.5 -72t-18.5 -74.5q0 -53 36 -81.5t109 -28.5q35 0 71.5 8t83.5 27v-94q-41 -17 -85 -26.5t-92 -9.5z" />
    <glyph glyph-name="iogonek" unicode="&#x12f;" horiz-adv-x="492" 
d="M141 0v1088h209v-1088h-209zM246 1300q-68 0 -103 32t-35 88q0 58 35 90t103 32q69 0 103.5 -32t34.5 -90q0 -56 -34.5 -88t-103.5 -32zM258 -424q-112 0 -171 51.5t-59 139.5q0 58 25.5 109t83 97t153.5 88l60 -61q-73 -36 -116 -71.5t-61 -72t-18 -76.5q0 -51 32.5 -80
t92.5 -29q33 0 68 9t71 28v-95q-34 -16 -75 -26.5t-86 -10.5z" />
    <glyph glyph-name="Idotaccent" unicode="&#x130;" horiz-adv-x="528" 
d="M158 0v1480h212v-1480h-212zM264 1643q-66 0 -101.5 29t-35.5 79q0 52 35.5 81t101.5 29t101.5 -29t35.5 -81q0 -50 -35.5 -79t-101.5 -29z" />
    <glyph glyph-name="dotlessi" unicode="&#x131;" horiz-adv-x="492" 
d="M141 0v1088h209v-1088h-209z" />
    <glyph glyph-name="Jcircumflex" unicode="&#x134;" horiz-adv-x="528" 
d="M125 -346l-138 93q62 85 99.5 165t55 171.5t17.5 209.5v1187h211v-1201q0 -122 -24.5 -225t-78.5 -200t-142 -200zM-76 1604l248 290h186l248 -290h-171l-190 228h40l-190 -228h-171z" />
    <glyph glyph-name="jcircumflex" unicode="&#x135;" horiz-adv-x="492" 
d="M106 -466l-136 92q61 84 99 166t55 174t17 206v916h209v-906q0 -128 -24.5 -236.5t-78 -208.5t-141.5 -203zM-72 1251l226 369h180l226 -369h-159l-176 298h38l-176 -298h-159z" />
    <glyph glyph-name="uni0136" unicode="&#x136;" horiz-adv-x="1265" 
d="M1060 0l-562 756l527 724h228l-545 -748l3 58l584 -790h-235zM158 0v1480h212v-1480h-212zM338 664v189h251v-189h-251zM596 -476q28 61 38 104.5t10 87.5l35 -50h-18q-65 0 -96 25t-31 66q0 42 31 66.5t94 24.5q65 0 97 -31t32 -91q0 -46 -16.5 -100.5t-46.5 -101.5
h-129z" />
    <glyph glyph-name="uni0137" unicode="&#x137;" horiz-adv-x="1081" 
d="M875 0l-421 558l391 530h228l-404 -555v56l438 -589h-232zM328 472v171h208v-171h-208zM141 0v1616h209v-1616h-209zM512 -476q28 61 38 104.5t10 87.5l35 -50h-18q-65 0 -96 25t-31 66q0 42 31 66.5t94 24.5q65 0 97 -31t32 -91q0 -46 -16.5 -100.5t-46.5 -101.5h-129z
" />
    <glyph glyph-name="kgreenlandic" unicode="&#x138;" horiz-adv-x="1081" 
d="M875 0l-421 558l391 530h228l-404 -555v56l438 -589h-232zM141 0v1088h209v-1088h-209zM328 472v171h208v-171h-208z" />
    <glyph glyph-name="Lacute" unicode="&#x139;" horiz-adv-x="1095" 
d="M158 0v1480h212v-1299h714v-181h-926zM171 1604l178 290h223l-212 -290h-189z" />
    <glyph glyph-name="lacute" unicode="&#x13a;" horiz-adv-x="491" 
d="M141 0v1616h209v-1616h-209zM151 1700l178 290h223l-212 -290h-189z" />
    <glyph glyph-name="uni013B" unicode="&#x13b;" horiz-adv-x="1095" 
d="M158 0v1480h212v-1299h714v-181h-926zM557 -476q28 61 38 104.5t10 87.5l35 -50h-18q-65 0 -96 25t-31 66q0 42 31 66.5t94 24.5q65 0 97 -31t32 -91q0 -46 -16.5 -100.5t-46.5 -101.5h-129z" />
    <glyph glyph-name="uni013C" unicode="&#x13c;" horiz-adv-x="491" 
d="M141 0v1616h209v-1616h-209zM180 -476q28 61 38 104.5t10 87.5l35 -50h-18q-65 0 -96 25t-31 66q0 42 31 66.5t94 24.5q65 0 97 -31t32 -91q0 -46 -16.5 -100.5t-46.5 -101.5h-129z" />
    <glyph glyph-name="Lcaron" unicode="&#x13d;" horiz-adv-x="1095" 
d="M158 0v1480h212v-1299h714v-181h-926zM693 1140q10 73 15 148.5t7 156.5t2 171h148q0 -139 -14 -258.5t-41 -217.5h-117z" />
    <glyph glyph-name="lcaron" unicode="&#x13e;" horiz-adv-x="491" 
d="M141 0v1616h209v-1616h-209zM434 1180q14 109 19 220t5 216h148q0 -109 -14 -223.5t-41 -212.5h-117z" />
    <glyph glyph-name="Ldot" unicode="&#x13f;" horiz-adv-x="1095" 
d="M158 0v1480h212v-1299h714v-181h-926zM802 706q-68 0 -102.5 32t-34.5 89t34.5 89t102.5 32q69 0 103.5 -32t34.5 -89t-34.5 -89t-103.5 -32z" />
    <glyph glyph-name="ldot" unicode="&#x140;" horiz-adv-x="663" 
d="M141 0v1616h209v-1616h-209zM570 672q-68 0 -103 32t-35 89t35 89t103 32t103 -32t35 -89t-35 -89t-103 -32z" />
    <glyph glyph-name="Lslash" unicode="&#x141;" horiz-adv-x="1102" 
d="M6 539v168l669 449v-169zM166 0v1480h212v-1299h713v-181h-925z" />
    <glyph glyph-name="lslash" unicode="&#x142;" horiz-adv-x="527" 
d="M22 477v161l479 313v-162zM159 0v1616h209v-1616h-209z" />
    <glyph glyph-name="Nacute" unicode="&#x143;" horiz-adv-x="1492" 
d="M158 0v1480h216l804 -1228h-44v1228h200v-1480h-216l-804 1228h44v-1228h-200zM651 1604l178 290h223l-212 -290h-189z" />
    <glyph glyph-name="nacute" unicode="&#x144;" horiz-adv-x="1163" 
d="M141 0v1088h174l15 -119h12q64 66 150.5 101t183.5 35q104 0 184.5 -39t126.5 -126.5t46 -233.5v-706h-209v695q0 128 -55 177.5t-150 49.5q-44 0 -93 -13t-95 -41t-81 -74v-794h-209zM492 1247l218 369h224l-250 -369h-192z" />
    <glyph glyph-name="uni0145" unicode="&#x145;" horiz-adv-x="1492" 
d="M158 0v1480h216l804 -1228h-44v1228h200v-1480h-216l-804 1228h44v-1228h-200zM681 -476q28 61 38 104.5t10 87.5l35 -50h-18q-65 0 -96 25t-31 66q0 42 31 66.5t94 24.5q65 0 97 -31t32 -91q0 -46 -16.5 -100.5t-46.5 -101.5h-129z" />
    <glyph glyph-name="uni0146" unicode="&#x146;" horiz-adv-x="1163" 
d="M141 0v1088h174l15 -119h12q64 66 150.5 101t183.5 35q104 0 184.5 -39t126.5 -126.5t46 -233.5v-706h-209v695q0 128 -55 177.5t-150 49.5q-44 0 -93 -13t-95 -41t-81 -74v-794h-209zM523 -476q28 61 38 104.5t10 87.5l35 -50h-18q-65 0 -96 25t-31 66q0 42 31 66.5
t94 24.5q65 0 97 -31t32 -91q0 -46 -16.5 -100.5t-46.5 -101.5h-129z" />
    <glyph glyph-name="Ncaron" unicode="&#x147;" horiz-adv-x="1492" 
d="M158 0v1480h216l804 -1228h-44v1228h200v-1480h-216l-804 1228h44v-1228h-200zM653 1604l-248 290h171l190 -229h-40l190 229h171l-248 -290h-186z" />
    <glyph glyph-name="ncaron" unicode="&#x148;" horiz-adv-x="1163" 
d="M141 0v1088h174l15 -119h12q64 66 150.5 101t183.5 35q104 0 184.5 -39t126.5 -126.5t46 -233.5v-706h-209v695q0 128 -55 177.5t-150 49.5q-44 0 -93 -13t-95 -41t-81 -74v-794h-209zM498 1247l-229 369h160l178 -299h-38l178 299h160l-229 -369h-180z" />
    <glyph glyph-name="napostrophe" unicode="&#x149;" horiz-adv-x="1163" 
d="M141 0v1088h174l15 -119h12q64 66 150.5 101t183.5 35q104 0 184.5 -39t126.5 -126.5t46 -233.5v-706h-209v695q0 128 -55 177.5t-150 49.5q-44 0 -93 -13t-95 -41t-81 -74v-794h-209zM74 1302q29 61 39 104t10 87l35 -50h-18q-65 0 -96.5 25t-31.5 66q0 42 31.5 66.5
t93.5 24.5q66 0 98 -31t32 -91q0 -45 -16.5 -100t-46.5 -101h-130z" />
    <glyph glyph-name="Eng" unicode="&#x14a;" horiz-adv-x="1492" 
d="M1157 -62l-844 1290h45v-1228h-200v1480h216l826 -1258zM1090 -466l-137 92q63 84 103 166t59 174t19 206v1308h200v-1282q0 -136 -24.5 -248t-78.5 -212.5t-141 -203.5z" />
    <glyph glyph-name="eng" unicode="&#x14b;" horiz-adv-x="1163" 
d="M789 -466l-137 92q62 84 100 166t55 174t17 206v525q0 128 -56 177.5t-149 49.5q-46 0 -95 -13.5t-94.5 -42t-79.5 -73.5v-795h-209v1088h174l15 -119h12q66 68 151.5 102t183.5 34q103 0 183.5 -39t126.5 -126t46 -233v-549q0 -119 -24.5 -222.5t-78 -201t-141.5 -200.5
z" />
    <glyph glyph-name="Omacron" unicode="&#x14c;" horiz-adv-x="1477" 
d="M738 -19q-192 0 -336 79.5t-223.5 247.5t-79.5 432t80 432t223.5 247.5t335.5 79.5q193 0 337 -80t223.5 -247.5t79.5 -431.5t-80 -431.5t-224 -247.5t-336 -80zM738 158q129 0 223.5 56.5t146 183t51.5 336.5q0 217 -52 345.5t-146.5 185.5t-222.5 57t-222.5 -56
t-146.5 -182.5t-52 -337.5q0 -217 52 -346t146.5 -185.5t222.5 -56.5zM413 1679v133h650v-133h-650z" />
    <glyph glyph-name="omacron" unicode="&#x14d;" horiz-adv-x="1140" 
d="M570 -20q-147 0 -255.5 60t-168.5 184t-60 318q0 195 59 319t167.5 184t257.5 60t257.5 -60t167.5 -184t59 -318q0 -193 -59.5 -318t-168.5 -185t-256 -60zM570 145q84 0 145 36.5t94 123t33 236.5q0 152 -33 239t-94 123.5t-145 36.5t-145 -36t-94 -122.5t-33 -236.5
q0 -152 32.5 -239t94 -124t145.5 -37zM246 1355v133h648v-133h-648z" />
    <glyph glyph-name="Obreve" unicode="&#x14e;" horiz-adv-x="1477" 
d="M738 -19q-192 0 -336 79.5t-223.5 247.5t-79.5 432t80 432t223.5 247.5t335.5 79.5q193 0 337 -80t223.5 -247.5t79.5 -431.5t-80 -431.5t-224 -247.5t-336 -80zM738 158q129 0 223.5 56.5t146 183t51.5 336.5q0 217 -52 345.5t-146.5 185.5t-222.5 57t-222.5 -56
t-146.5 -182.5t-52 -337.5q0 -217 52 -346t146.5 -185.5t222.5 -56.5zM739 1611q-106 0 -178.5 33t-112.5 92.5t-48 140.5h134q12 -75 59 -113.5t146 -38.5q100 0 146 38.5t57 113.5h134q-8 -81 -47.5 -140.5t-111.5 -92.5t-178 -33z" />
    <glyph glyph-name="obreve" unicode="&#x14f;" horiz-adv-x="1140" 
d="M570 -20q-147 0 -255.5 60t-168.5 184t-60 318q0 195 59 319t167.5 184t257.5 60t257.5 -60t167.5 -184t59 -318q0 -193 -59.5 -318t-168.5 -185t-256 -60zM570 145q84 0 145 36.5t94 123t33 236.5q0 152 -33 239t-94 123.5t-145 36.5t-145 -36t-94 -122.5t-33 -236.5
q0 -152 32.5 -239t94 -124t145.5 -37zM571 1257q-145 0 -228.5 86.5t-91.5 247.5h134q8 -108 53 -163t133 -55q89 0 133.5 55t50.5 163h134q-7 -161 -89.5 -247.5t-228.5 -86.5z" />
    <glyph glyph-name="Ohungarumlaut" unicode="&#x150;" horiz-adv-x="1477" 
d="M738 -19q-192 0 -336 79.5t-223.5 247.5t-79.5 432t80 432t223.5 247.5t335.5 79.5q193 0 337 -80t223.5 -247.5t79.5 -431.5t-80 -431.5t-224 -247.5t-336 -80zM738 158q129 0 223.5 56.5t146 183t51.5 336.5q0 217 -52 345.5t-146.5 185.5t-222.5 57t-222.5 -56
t-146.5 -182.5t-52 -337.5q0 -217 52 -346t146.5 -185.5t222.5 -56.5zM837 1604l130 290h172l-143 -290h-159zM480 1604l131 290h171l-143 -290h-159z" />
    <glyph glyph-name="ohungarumlaut" unicode="&#x151;" horiz-adv-x="1140" 
d="M570 -20q-147 0 -255.5 60t-168.5 184t-60 318q0 195 59 319t167.5 184t257.5 60t257.5 -60t167.5 -184t59 -318q0 -193 -59.5 -318t-168.5 -185t-256 -60zM570 145q84 0 145 36.5t94 123t33 236.5q0 152 -33 239t-94 123.5t-145 36.5t-145 -36t-94 -122.5t-33 -236.5
q0 -152 32.5 -239t94 -124t145.5 -37zM669 1247l141 369h170l-154 -369h-157zM314 1247l141 369h170l-154 -369h-157z" />
    <glyph glyph-name="OE" unicode="&#x152;" horiz-adv-x="2040" 
d="M881 -11q-259 0 -433 79.5t-261.5 245t-87.5 426.5q0 257 88.5 424t260 248t422.5 81q81 0 161.5 -6.5t150.5 -6.5h777v-175h-712v-1130h722v-175h-779q-45 0 -97 -2.5t-106 -5.5t-106 -3zM843 166q57 0 105 2t89 6v1131q-50 6 -98.5 8.5t-101.5 2.5q-173 0 -288.5 -59.5
t-173.5 -187t-58 -330.5q0 -204 59.5 -330t176.5 -184.5t290 -58.5zM1173 671v175h687v-175h-687z" />
    <glyph glyph-name="oe" unicode="&#x153;" horiz-adv-x="1798" 
d="M560 -20q-142 0 -248.5 60t-166 184t-59.5 318q0 195 58.5 319t165 184t250.5 60q145 0 246.5 -62t154 -187t52.5 -313t-53.5 -313t-155 -187.5t-244.5 -62.5zM568 145q83 0 143.5 36.5t93 123t32.5 236.5q0 152 -33 239t-93.5 123.5t-142.5 36.5q-83 0 -143.5 -36
t-93.5 -122.5t-33 -236.5q0 -152 32.5 -239t93 -124t144.5 -37zM1375 -20q-178 0 -292.5 59.5t-170 184t-55.5 322.5l19 17q0 177 51 298t146.5 182.5t227.5 61.5q133 0 228 -61t146 -186t51 -318v-61h-721v132h564l-40 -26q0 141 -28 224t-81 118.5t-129 35.5
q-75 0 -129.5 -35.5t-84 -117.5t-29.5 -221v-78q0 -135 37 -215.5t114.5 -115.5t201.5 -35q61 0 128.5 10.5t140.5 30.5v-164q-80 -22 -152.5 -32t-142.5 -10z" />
    <glyph glyph-name="Racute" unicode="&#x154;" horiz-adv-x="1329" 
d="M158 0v1453q60 12 126 22t138.5 15.5t150.5 5.5q301 0 449.5 -109t148.5 -341q0 -150 -71.5 -251.5t-208 -153t-334.5 -51.5q-56 0 -100 2.5t-90 5.5v-598h-209zM1050 0l-508 692h233l513 -692h-238zM560 755q214 0 312 70.5t98 219.5q0 102 -40 165.5t-123.5 93
t-215.5 29.5q-68 0 -120.5 -5t-103.5 -14v-550q35 -3 64.5 -5.5t60 -3t68.5 -0.5zM549 1604l178 290h223l-212 -290h-189z" />
    <glyph glyph-name="racute" unicode="&#x155;" horiz-adv-x="750" 
d="M141 0v1088h173l17 -144h11q53 78 135 117t174 39q24 0 46 -2t41 -6v-191q-24 4 -48.5 5.5t-49.5 1.5q-52 0 -106.5 -15.5t-102.5 -46.5t-81 -77v-769h-209zM336 1247l218 369h224l-250 -369h-192z" />
    <glyph glyph-name="uni0156" unicode="&#x156;" horiz-adv-x="1329" 
d="M158 0v1453q60 12 126 22t138.5 15.5t150.5 5.5q301 0 449.5 -109t148.5 -341q0 -150 -71.5 -251.5t-208 -153t-334.5 -51.5q-56 0 -100 2.5t-90 5.5v-598h-209zM1050 0l-508 692h233l513 -692h-238zM560 755q214 0 312 70.5t98 219.5q0 102 -40 165.5t-123.5 93
t-215.5 29.5q-68 0 -120.5 -5t-103.5 -14v-550q35 -3 64.5 -5.5t60 -3t68.5 -0.5zM630 -476q28 61 38 104.5t10 87.5l35 -50h-18q-65 0 -96 25t-31 66q0 42 31 66.5t94 24.5q65 0 97 -31t32 -91q0 -46 -16.5 -100.5t-46.5 -101.5h-129z" />
    <glyph glyph-name="uni0157" unicode="&#x157;" horiz-adv-x="750" 
d="M141 0v1088h173l17 -144h11q53 78 135 117t174 39q24 0 46 -2t41 -6v-191q-24 4 -48.5 5.5t-49.5 1.5q-52 0 -106.5 -15.5t-102.5 -46.5t-81 -77v-769h-209zM181 -476q28 61 38 104.5t10 87.5l35 -50h-18q-65 0 -96 25t-31 66q0 42 31 66.5t94 24.5q65 0 97 -31t32 -91
q0 -46 -16.5 -100.5t-46.5 -101.5h-129z" />
    <glyph glyph-name="Rcaron" unicode="&#x158;" horiz-adv-x="1329" 
d="M158 0v1453q60 12 126 22t138.5 15.5t150.5 5.5q301 0 449.5 -109t148.5 -341q0 -150 -71.5 -251.5t-208 -153t-334.5 -51.5q-56 0 -100 2.5t-90 5.5v-598h-209zM1050 0l-508 692h233l513 -692h-238zM560 755q214 0 312 70.5t98 219.5q0 102 -40 165.5t-123.5 93
t-215.5 29.5q-68 0 -120.5 -5t-103.5 -14v-550q35 -3 64.5 -5.5t60 -3t68.5 -0.5zM551 1604l-248 290h171l190 -229h-40l190 229h171l-248 -290h-186z" />
    <glyph glyph-name="rcaron" unicode="&#x159;" horiz-adv-x="750" 
d="M141 0v1088h173l17 -144h11q53 78 135 117t174 39q24 0 46 -2t41 -6v-191q-24 4 -48.5 5.5t-49.5 1.5q-52 0 -106.5 -15.5t-102.5 -46.5t-81 -77v-769h-209zM342 1247l-229 369h160l178 -299h-38l178 299h160l-229 -369h-180z" />
    <glyph glyph-name="Sacute" unicode="&#x15a;" horiz-adv-x="1090" 
d="M475 -19q-95 0 -193.5 15.5t-186.5 45.5v178q62 -21 128 -35t130 -21t123 -7q173 0 253 62t80 179q0 100 -60 153.5t-209 91.5l-90 23q-190 49 -286 148.5t-96 262.5q0 197 139 309.5t415 112.5q91 0 177 -11.5t155 -32.5v-178q-74 23 -156.5 34.5t-166.5 11.5
q-124 0 -201 -28t-113 -81t-36 -126q0 -95 54.5 -148t192.5 -90l90 -23q139 -35 228.5 -90.5t132.5 -135.5t43 -189q0 -136 -64.5 -232.5t-187 -147.5t-295.5 -51zM460 1604l178 290h223l-212 -290h-189z" />
    <glyph glyph-name="sacute" unicode="&#x15b;" horiz-adv-x="925" 
d="M419 -20q-85 0 -164 11.5t-152 33.5v161q80 -23 157.5 -34.5t157.5 -11.5q131 0 188.5 42t57.5 118q0 64 -33 97.5t-113 50.5l-156 31q-151 31 -216.5 105.5t-65.5 195.5q0 143 112.5 234t344.5 91q72 0 140 -8.5t127 -24.5v-161q-65 18 -129 26t-133 8
q-100 0 -157.5 -21.5t-82 -57.5t-24.5 -81q0 -55 31.5 -91t110.5 -54l156 -30q149 -30 217.5 -101.5t68.5 -199.5q0 -152 -113.5 -240.5t-329.5 -88.5zM371 1247l218 369h224l-250 -369h-192z" />
    <glyph glyph-name="Scircumflex" unicode="&#x15c;" horiz-adv-x="1090" 
d="M475 -19q-95 0 -193.5 15.5t-186.5 45.5v178q62 -21 128 -35t130 -21t123 -7q173 0 253 62t80 179q0 100 -60 153.5t-209 91.5l-90 23q-190 49 -286 148.5t-96 262.5q0 197 139 309.5t415 112.5q91 0 177 -11.5t155 -32.5v-178q-74 23 -156.5 34.5t-166.5 11.5
q-124 0 -201 -28t-113 -81t-36 -126q0 -95 54.5 -148t192.5 -90l90 -23q139 -35 228.5 -90.5t132.5 -135.5t43 -189q0 -136 -64.5 -232.5t-187 -147.5t-295.5 -51zM214 1604l248 290h186l248 -290h-171l-190 228h40l-190 -228h-171z" />
    <glyph glyph-name="scircumflex" unicode="&#x15d;" horiz-adv-x="925" 
d="M419 -20q-85 0 -164 11.5t-152 33.5v161q80 -23 157.5 -34.5t157.5 -11.5q131 0 188.5 42t57.5 118q0 64 -33 97.5t-113 50.5l-156 31q-151 31 -216.5 105.5t-65.5 195.5q0 143 112.5 234t344.5 91q72 0 140 -8.5t127 -24.5v-161q-65 18 -129 26t-133 8
q-100 0 -157.5 -21.5t-82 -57.5t-24.5 -81q0 -55 31.5 -91t110.5 -54l156 -30q149 -30 217.5 -101.5t68.5 -199.5q0 -152 -113.5 -240.5t-329.5 -88.5zM151 1247l226 369h180l226 -369h-159l-176 298h38l-176 -298h-159z" />
    <glyph glyph-name="Scedilla" unicode="&#x15e;" horiz-adv-x="1090" 
d="M475 -19q-95 0 -193.5 15.5t-186.5 45.5v178q62 -21 128 -35t130 -21t123 -7q173 0 253 62t80 179q0 100 -60 153.5t-209 91.5l-90 23q-190 49 -286 148.5t-96 262.5q0 197 139 309.5t415 112.5q91 0 177 -11.5t155 -32.5v-178q-74 23 -156.5 34.5t-166.5 11.5
q-124 0 -201 -28t-113 -81t-36 -126q0 -95 54.5 -148t192.5 -90l90 -23q139 -35 228.5 -90.5t132.5 -135.5t43 -189q0 -136 -64.5 -232.5t-187 -147.5t-295.5 -51zM547 -424q-52 0 -102.5 9.5t-93.5 25.5v94q51 -20 97.5 -28.5t89.5 -8.5q61 0 94 19t33 61q0 43 -33.5 62
t-95.5 19h-43v191h110v-154l-44 39q107 0 165.5 -41.5t58.5 -121.5q0 -79 -60.5 -122.5t-175.5 -43.5z" />
    <glyph glyph-name="scedilla" unicode="&#x15f;" horiz-adv-x="925" 
d="M419 -20q-85 0 -164 11.5t-152 33.5v161q80 -23 157.5 -34.5t157.5 -11.5q131 0 188.5 42t57.5 118q0 64 -33 97.5t-113 50.5l-156 31q-151 31 -216.5 105.5t-65.5 195.5q0 143 112.5 234t344.5 91q72 0 140 -8.5t127 -24.5v-161q-65 18 -129 26t-133 8
q-100 0 -157.5 -21.5t-82 -57.5t-24.5 -81q0 -55 31.5 -91t110.5 -54l156 -30q149 -30 217.5 -101.5t68.5 -199.5q0 -152 -113.5 -240.5t-329.5 -88.5zM468 -424q-46 0 -91.5 9t-81.5 25v94q42 -19 86 -27.5t80 -8.5q55 0 82 19.5t27 60.5q0 81 -110 81h-40v191h110v-154
l-50 38q102 0 155 -43t53 -121q0 -76 -55.5 -120t-164.5 -44z" />
    <glyph glyph-name="Scaron" unicode="&#x160;" horiz-adv-x="1090" 
d="M475 -19q-95 0 -193.5 15.5t-186.5 45.5v178q62 -21 128 -35t130 -21t123 -7q173 0 253 62t80 179q0 100 -60 153.5t-209 91.5l-90 23q-190 49 -286 148.5t-96 262.5q0 197 139 309.5t415 112.5q91 0 177 -11.5t155 -32.5v-178q-74 23 -156.5 34.5t-166.5 11.5
q-124 0 -201 -28t-113 -81t-36 -126q0 -95 54.5 -148t192.5 -90l90 -23q139 -35 228.5 -90.5t132.5 -135.5t43 -189q0 -136 -64.5 -232.5t-187 -147.5t-295.5 -51zM462 1604l-248 290h171l190 -229h-40l190 229h171l-248 -290h-186z" />
    <glyph glyph-name="scaron" unicode="&#x161;" horiz-adv-x="925" 
d="M419 -20q-85 0 -164 11.5t-152 33.5v161q80 -23 157.5 -34.5t157.5 -11.5q131 0 188.5 42t57.5 118q0 64 -33 97.5t-113 50.5l-156 31q-151 31 -216.5 105.5t-65.5 195.5q0 143 112.5 234t344.5 91q72 0 140 -8.5t127 -24.5v-161q-65 18 -129 26t-133 8
q-100 0 -157.5 -21.5t-82 -57.5t-24.5 -81q0 -55 31.5 -91t110.5 -54l156 -30q149 -30 217.5 -101.5t68.5 -199.5q0 -152 -113.5 -240.5t-329.5 -88.5zM377 1247l-229 369h160l178 -299h-38l178 299h160l-229 -369h-180z" />
    <glyph glyph-name="uni0162" unicode="&#x162;" horiz-adv-x="1209" 
d="M498 0v1299h-484v181h1182v-181h-485v-1299h-213zM597 -424q-52 0 -102.5 9.5t-93.5 25.5v94q51 -20 97.5 -28.5t89.5 -8.5q61 0 94 19t33 61q0 43 -33.5 62t-95.5 19h-43v191h110v-154l-44 39q107 0 165.5 -41.5t58.5 -121.5q0 -79 -60.5 -122.5t-175.5 -43.5z" />
    <glyph glyph-name="uni0163" unicode="&#x163;" horiz-adv-x="778" 
d="M578 -19q-176 0 -272.5 89.5t-96.5 284.5v733l36 392h173v-1091q0 -129 52 -180.5t158 -51.5q30 0 60 4t67 12v-172q-41 -9 -86.5 -14.5t-90.5 -5.5zM13 919v169h729v-169h-729zM483 -424q-46 0 -91.5 9t-81.5 25v94q42 -19 86 -27.5t80 -8.5q55 0 82 19.5t27 60.5
q0 81 -110 81h-40v191h110v-154l-50 38q102 0 155 -43t53 -121q0 -76 -55.5 -120t-164.5 -44z" />
    <glyph glyph-name="Tcaron" unicode="&#x164;" horiz-adv-x="1209" 
d="M498 0v1299h-484v181h1182v-181h-485v-1299h-213zM512 1604l-248 290h171l190 -229h-40l190 229h171l-248 -290h-186z" />
    <glyph glyph-name="tcaron" unicode="&#x165;" horiz-adv-x="778" 
d="M578 -19q-176 0 -272.5 89.5t-96.5 284.5v733l36 392h173v-1091q0 -129 52 -180.5t158 -51.5q30 0 60 4t67 12v-172q-41 -9 -86.5 -14.5t-90.5 -5.5zM13 919v169h729v-169h-729zM556 1180q14 109 19 220t5 216h148q0 -109 -14 -223.5t-41 -212.5h-117z" />
    <glyph glyph-name="Tbar" unicode="&#x166;" horiz-adv-x="1209" 
d="M182 689v143h846v-143h-846zM498 0v1299h-484v181h1182v-181h-485v-1299h-213z" />
    <glyph glyph-name="tbar" unicode="&#x167;" horiz-adv-x="778" 
d="M71 552v135h622v-135h-622zM578 -19q-176 0 -272.5 89.5t-96.5 284.5v733l36 392h173v-1091q0 -129 52 -180.5t158 -51.5q30 0 60 4t67 12v-172q-41 -9 -86.5 -14.5t-90.5 -5.5zM13 919v169h729v-169h-729z" />
    <glyph glyph-name="Utilde" unicode="&#x168;" horiz-adv-x="1441" 
d="M723 -19q-197 0 -324 64.5t-187.5 196t-60.5 334.5v904h212v-926q0 -206 87.5 -300t272.5 -94t272 94t87 300v926h208v-904q0 -203 -60 -334.5t-185.5 -196t-321.5 -64.5zM883 1653q-50 0 -92.5 13t-83.5 28q-36 14 -72 24.5t-75 10.5q-56 0 -98 -17.5t-82 -52.5v132
q34 34 78 50.5t105 16.5q50 0 93 -12.5t83 -28.5q37 -13 73 -24t74 -11q56 0 98 17.5t82 52.5v-132q-34 -33 -78 -50t-105 -17z" />
    <glyph glyph-name="utilde" unicode="&#x169;" horiz-adv-x="1153" 
d="M486 -18q-103 0 -183.5 38.5t-126.5 125.5t-46 232v710h209v-698q0 -127 55.5 -176t144.5 -49q44 0 92 13t93 41t80 73v796h208v-1088h-174l-14 116h-11q-66 -67 -150 -100.5t-177 -33.5zM719 1327q-44 0 -84.5 14.5t-78.5 30.5q-34 16 -67.5 28t-67.5 12q-50 0 -91 -19
t-82 -60v141q67 71 177 71q45 0 85.5 -15t77.5 -31q35 -15 68 -27.5t67 -12.5q51 0 92 19.5t81 59.5v-141q-67 -70 -177 -70z" />
    <glyph glyph-name="Umacron" unicode="&#x16a;" horiz-adv-x="1441" 
d="M723 -19q-197 0 -324 64.5t-187.5 196t-60.5 334.5v904h212v-926q0 -206 87.5 -300t272.5 -94t272 94t87 300v926h208v-904q0 -203 -60 -334.5t-185.5 -196t-321.5 -64.5zM398 1679v133h650v-133h-650z" />
    <glyph glyph-name="umacron" unicode="&#x16b;" horiz-adv-x="1153" 
d="M486 -18q-103 0 -183.5 38.5t-126.5 125.5t-46 232v710h209v-698q0 -127 55.5 -176t144.5 -49q44 0 92 13t93 41t80 73v796h208v-1088h-174l-14 116h-11q-66 -67 -150 -100.5t-177 -33.5zM248 1355v133h648v-133h-648z" />
    <glyph glyph-name="Ubreve" unicode="&#x16c;" horiz-adv-x="1441" 
d="M723 -19q-197 0 -324 64.5t-187.5 196t-60.5 334.5v904h212v-926q0 -206 87.5 -300t272.5 -94t272 94t87 300v926h208v-904q0 -203 -60 -334.5t-185.5 -196t-321.5 -64.5zM724 1611q-106 0 -178.5 33t-112.5 92.5t-48 140.5h134q12 -75 59 -113.5t146 -38.5
q100 0 146 38.5t57 113.5h134q-8 -81 -47.5 -140.5t-111.5 -92.5t-178 -33z" />
    <glyph glyph-name="ubreve" unicode="&#x16d;" horiz-adv-x="1153" 
d="M486 -18q-103 0 -183.5 38.5t-126.5 125.5t-46 232v710h209v-698q0 -127 55.5 -176t144.5 -49q44 0 92 13t93 41t80 73v796h208v-1088h-174l-14 116h-11q-66 -67 -150 -100.5t-177 -33.5zM573 1257q-145 0 -228.5 86.5t-91.5 247.5h134q8 -108 53 -163t133 -55
q89 0 133.5 55t50.5 163h134q-7 -161 -89.5 -247.5t-228.5 -86.5z" />
    <glyph glyph-name="Uring" unicode="&#x16e;" horiz-adv-x="1441" 
d="M723 -19q-197 0 -324 64.5t-187.5 196t-60.5 334.5v904h212v-926q0 -206 87.5 -300t272.5 -94t272 94t87 300v926h208v-904q0 -203 -60 -334.5t-185.5 -196t-321.5 -64.5zM723 1595q-87 0 -144 56t-57 142t57 142t144 56q88 0 144.5 -56t56.5 -142t-56.5 -142t-144.5 -56
zM723 1681q48 0 79 30t31 82q0 53 -31 82.5t-79 29.5t-79 -29.5t-31 -82.5q0 -52 31 -82t79 -30z" />
    <glyph glyph-name="uring" unicode="&#x16f;" horiz-adv-x="1153" 
d="M486 -18q-103 0 -183.5 38.5t-126.5 125.5t-46 232v710h209v-698q0 -127 55.5 -176t144.5 -49q44 0 92 13t93 41t80 73v796h208v-1088h-174l-14 116h-11q-66 -67 -150 -100.5t-177 -33.5zM572 1242q-87 0 -144 56t-57 142t57 142t144 56q88 0 144.5 -56t56.5 -142
t-56.5 -142t-144.5 -56zM572 1328q48 0 79 30.5t31 81.5q0 53 -31 82.5t-79 29.5t-79 -29.5t-31 -82.5q0 -51 31 -81.5t79 -30.5z" />
    <glyph glyph-name="Uhungarumlaut" unicode="&#x170;" horiz-adv-x="1441" 
d="M723 -19q-197 0 -324 64.5t-187.5 196t-60.5 334.5v904h212v-926q0 -206 87.5 -300t272.5 -94t272 94t87 300v926h208v-904q0 -203 -60 -334.5t-185.5 -196t-321.5 -64.5zM822 1604l130 290h172l-143 -290h-159zM465 1604l131 290h171l-143 -290h-159z" />
    <glyph glyph-name="uhungarumlaut" unicode="&#x171;" horiz-adv-x="1153" 
d="M486 -18q-103 0 -183.5 38.5t-126.5 125.5t-46 232v710h209v-698q0 -127 55.5 -176t144.5 -49q44 0 92 13t93 41t80 73v796h208v-1088h-174l-14 116h-11q-66 -67 -150 -100.5t-177 -33.5zM671 1247l141 369h170l-154 -369h-157zM316 1247l141 369h170l-154 -369h-157z
" />
    <glyph glyph-name="Uogonek" unicode="&#x172;" horiz-adv-x="1441" 
d="M813 -422q-125 0 -187.5 51t-62.5 142q0 73 48 138t168 114l-10 -42h-46q-197 0 -324 64.5t-187.5 196t-60.5 334.5v904h212v-926q0 -206 87.5 -300t272.5 -94t272 94t87 300v926h208v-904q0 -228 -78.5 -370t-253.5 -195q-106 -32 -164 -69.5t-81 -77.5t-23 -81
q0 -54 36 -82.5t109 -28.5q35 0 71.5 8.5t83.5 26.5v-94q-41 -17 -85 -26t-92 -9z" />
    <glyph glyph-name="uogonek" unicode="&#x173;" horiz-adv-x="1153" 
d="M486 -18q-103 0 -183.5 38.5t-126.5 125.5t-46 232v710h209v-698q0 -127 55.5 -176t144.5 -49q44 0 92 13t93 41t80 73v796h208v-1088l-167 -8l-21 124h-11q-66 -67 -150 -100.5t-177 -33.5zM920 -424q-111 0 -170.5 51.5t-59.5 139.5q0 58 25.5 109t83 97t153.5 88
l60 -61q-73 -36 -115.5 -71.5t-61 -72t-18.5 -76.5q0 -51 32.5 -80t92.5 -29q33 0 68 9t72 28v-95q-34 -16 -75 -26.5t-87 -10.5z" />
    <glyph glyph-name="Wcircumflex" unicode="&#x174;" horiz-adv-x="2166" 
d="M457 0l-410 1480h217l370 -1382h-53l386 1382h243l379 -1382h-49l375 1382h203l-409 -1480h-275l-375 1348h55l-382 -1348h-275zM743 1604l248 290h186l248 -290h-171l-190 228h40l-190 -228h-171z" />
    <glyph glyph-name="wcircumflex" unicode="&#x175;" horiz-adv-x="1729" 
d="M366 0l-311 1088h201l248 -896h-16l261 896h239l260 -896h-19l251 896h194l-309 -1088h-239l-268 917h17l-270 -917h-239zM550 1247l226 369h180l226 -369h-159l-176 298h38l-176 -298h-159z" />
    <glyph glyph-name="Ycircumflex" unicode="&#x176;" horiz-adv-x="1209" 
d="M500 0v735l44 -157l-582 902h230l451 -701h-66l445 701h215l-570 -902l45 155v-733h-212zM264 1604l248 290h186l248 -290h-171l-190 228h40l-190 -228h-171z" />
    <glyph glyph-name="ycircumflex" unicode="&#x177;" horiz-adv-x="1091" 
d="M308 -440l164 440l69 157l331 931h208l-566 -1528h-206zM413 0l-403 1088h221l379 -1088h-197zM230 1247l226 369h180l226 -369h-159l-176 298h38l-176 -298h-159z" />
    <glyph glyph-name="Ydieresis" unicode="&#x178;" horiz-adv-x="1209" 
d="M500 0v735l44 -157l-582 902h230l451 -701h-66l445 701h215l-570 -902l45 155v-733h-212zM846 1643q-60 0 -92 29t-32 79q0 51 32 80.5t92 29.5q59 0 91 -29.5t32 -80.5q0 -50 -32 -79t-91 -29zM364 1643q-59 0 -91 29t-32 79q0 51 32 80.5t91 29.5q60 0 92 -29.5
t32 -80.5q0 -50 -32 -79t-92 -29z" />
    <glyph glyph-name="Zacute" unicode="&#x179;" horiz-adv-x="1179" 
d="M61 0v118l799 1228l9 -45h-797v179h1035v-118l-799 -1228l-8 45h818v-179h-1057zM496 1604l178 290h223l-212 -290h-189z" />
    <glyph glyph-name="zacute" unicode="&#x17a;" horiz-adv-x="948" 
d="M63 0v131l591 832v-44h-579v169h808v-131l-591 -832v44h603v-169h-832zM384 1247l218 369h224l-250 -369h-192z" />
    <glyph glyph-name="Zdotaccent" unicode="&#x17b;" horiz-adv-x="1179" 
d="M61 0v118l799 1228l9 -45h-797v179h1035v-118l-799 -1228l-8 45h818v-179h-1057zM591 1643q-66 0 -101.5 29t-35.5 79q0 52 35.5 81t101.5 29t101.5 -29t35.5 -81q0 -50 -35.5 -79t-101.5 -29z" />
    <glyph glyph-name="zdotaccent" unicode="&#x17c;" horiz-adv-x="948" 
d="M63 0v131l591 832v-44h-579v169h808v-131l-591 -832v44h603v-169h-832zM480 1300q-68 0 -103 32t-35 88q0 58 35 90t103 32q69 0 103.5 -32t34.5 -90q0 -56 -34.5 -88t-103.5 -32z" />
    <glyph glyph-name="Zcaron" unicode="&#x17d;" horiz-adv-x="1179" 
d="M61 0v118l799 1228l9 -45h-797v179h1035v-118l-799 -1228l-8 45h818v-179h-1057zM498 1604l-248 290h171l190 -229h-40l190 229h171l-248 -290h-186z" />
    <glyph glyph-name="zcaron" unicode="&#x17e;" horiz-adv-x="948" 
d="M63 0v131l591 832v-44h-579v169h808v-131l-591 -832v44h603v-169h-832zM390 1247l-229 369h160l178 -299h-38l178 299h160l-229 -369h-180z" />
    <glyph glyph-name="uni018F" unicode="&#x18f;" horiz-adv-x="1466" 
d="M735 -19q-195 0 -340.5 78.5t-225.5 244t-80 426.5v83h1137v-161h-998l78 76q0 -214 50 -340.5t146 -181t234 -54.5q131 0 224.5 53.5t144.5 179.5t51 342q0 224 -66.5 354.5t-197.5 186.5t-324 56q-90 0 -194 -11.5t-199 -35.5v177q100 23 204 34t205 11q253 0 428 -79
t265 -248.5t90 -439.5q0 -261 -79 -427t-221 -245t-332 -79z" />
    <glyph glyph-name="florin" unicode="&#x192;" horiz-adv-x="743" 
d="M2 -460q-38 0 -76 3t-77 9v170q38 -5 67 -8t60 -3q123 0 182 51.5t59 165.5v1308q0 129 48 218t142.5 135.5t232.5 46.5q38 0 76 -2.5t76 -9.5v-170q-37 6 -66 8.5t-61 2.5q-122 0 -181.5 -51.5t-59.5 -165.5v-1308q0 -129 -48 -218t-142 -135.5t-232 -46.5zM21 918v170
h728v-170h-728z" />
    <glyph glyph-name="Ohorn" unicode="&#x1a0;" horiz-adv-x="1477" 
d="M738 -19q-192 0 -336 79.5t-223.5 247.5t-79.5 432t80 432t223.5 247.5t335.5 79.5q57 0 106 -5.5t96.5 -11.5t100.5 -6q91 0 142 37.5t51 121.5q0 37 -5.5 70t-15.5 71h149q13 -37 18 -72t5 -78q0 -87 -36.5 -146t-103.5 -88.5t-158 -29.5l14 42q130 -82 203.5 -245.5
t73.5 -418.5q0 -266 -79.5 -433.5t-223.5 -246.5t-337 -79zM738 158q129 0 223.5 56.5t146 183t51.5 336.5q0 217 -52 345.5t-146.5 185.5t-222.5 57t-222.5 -56t-146.5 -182.5t-52 -337.5q0 -217 52 -346t146.5 -185.5t222.5 -56.5z" />
    <glyph glyph-name="ohorn" unicode="&#x1a1;" horiz-adv-x="1140" 
d="M570 -20q-147 0 -255.5 60t-168.5 184t-60 318q0 195 59 319t168.5 184t260.5 60q57 0 102.5 -5t79.5 -5q88 0 138 37.5t50 123.5q0 36 -5 69t-15 71h142q12 -37 17 -72t5 -77q0 -89 -36 -148t-102 -88.5t-154 -29.5l40 58q218 -129 218 -496q0 -193 -59.5 -318
t-168.5 -185t-256 -60zM570 145q84 0 145 36.5t94 123t33 236.5q0 152 -33 239t-94 123.5t-145 36.5t-145 -36t-94 -122.5t-33 -236.5q0 -152 32.5 -239t94 -124t145.5 -37z" />
    <glyph glyph-name="Uhorn" unicode="&#x1af;" horiz-adv-x="1443" 
d="M723 -19q-197 0 -324 64.5t-187.5 196t-60.5 334.5v904h212v-926q0 -206 87.5 -300t272.5 -94t272 94t87 300v926h73q91 0 142 35.5t51 119.5q0 37 -5.5 70t-15.5 71h150q12 -37 17 -72t5 -78q0 -106 -56 -168.5t-153 -77.5v-804q0 -203 -60 -334.5t-185.5 -196
t-321.5 -64.5z" />
    <glyph glyph-name="uhorn" unicode="&#x1b0;" horiz-adv-x="1181" 
d="M486 -18q-103 0 -183.5 38.5t-126.5 125.5t-46 232v710h209v-698q0 -127 55.5 -176t144.5 -49q44 0 92 13t93 41t80 73v796h83q88 0 138.5 37.5t50.5 123.5q0 36 -5.5 69t-15.5 71h142q13 -37 18 -72t5 -77q0 -88 -36.5 -147.5t-102 -89t-153.5 -29.5l84 84v-1058h-174
l-14 116h-11q-66 -67 -150 -100.5t-177 -33.5z" />
    <glyph glyph-name="uni01C4" unicode="&#x1c4;" horiz-adv-x="2561" 
d="M525 -13q-57 0 -116.5 2.5t-121.5 7t-129 12.5v1444q63 13 132.5 22.5t140.5 14.5t139 5q378 0 570 -184.5t192 -570.5q0 -262 -90 -428.5t-269.5 -245.5t-447.5 -79zM573 164q181 0 301 58.5t180 185.5t60 333q0 204 -59 331.5t-177.5 187t-296.5 59.5
q-49 0 -103.5 -4.5t-107.5 -13.5v-1126q49 -5 97.5 -8t105.5 -3zM1443 0v118l799 1228l9 -45h-797v179h1035v-118l-799 -1228l-8 45h818v-179h-1057zM1879 1604l-248 290h171l190 -229h-40l190 229h171l-248 -290h-186z" />
    <glyph glyph-name="uni01C5" unicode="&#x1c5;" horiz-adv-x="2379" 
d="M525 -13q-57 0 -116.5 2.5t-121.5 7t-129 12.5v1444q63 13 132.5 22.5t140.5 14.5t139 5q378 0 570 -184.5t192 -570.5q0 -262 -90 -428.5t-269.5 -245.5t-447.5 -79zM573 164q181 0 301 58.5t180 185.5t60 333q0 204 -59 331.5t-177.5 187t-296.5 59.5
q-49 0 -103.5 -4.5t-107.5 -13.5v-1126q49 -5 97.5 -8t105.5 -3zM1494 0v131l591 832v-44h-579v169h808v-131l-591 -832v44h603v-169h-832zM1817 1284l-248 290h171l190 -229h-40l190 229h171l-248 -290h-186z" />
    <glyph glyph-name="uni01C6" unicode="&#x1c6;" horiz-adv-x="2108" 
d="M520 -19q-119 0 -217.5 54t-157.5 172.5t-59 314.5q0 194 64 323.5t189.5 194.5t309.5 65q42 0 84 -3.5t77 -8.5v523h209v-1616h-177l-13 117h-12q-48 -60 -123.5 -98t-173.5 -38zM574 156q66 0 129 28t107 88v651q-33 8 -76.5 12.5t-86.5 4.5q-173 0 -261 -93t-88 -308
q0 -148 35 -231.5t97.5 -117.5t143.5 -34zM1223 0v131l591 832v-44h-579v169h808v-131l-591 -832v44h603v-169h-832zM1550 1247l-229 369h160l178 -299h-38l178 299h160l-229 -369h-180z" />
    <glyph glyph-name="uni01C7" unicode="&#x1c7;" horiz-adv-x="1623" 
d="M158 0v1480h212v-1299h714v-181h-926zM1220 -346l-138 93q62 85 99.5 165t55 171.5t17.5 209.5v1187h211v-1201q0 -122 -24.5 -225t-78.5 -200t-142 -200z" />
    <glyph glyph-name="uni01C8" unicode="&#x1c8;" horiz-adv-x="1586" 
d="M158 0v1480h212v-1299h714v-181h-926zM1201 -466l-136 92q61 84 99 166t55 174t17 206v916h209v-906q0 -128 -24.5 -236.5t-78 -208.5t-141.5 -203zM1339 1304q-68 0 -103 32t-35 88q0 58 35 90t103 32q69 0 103.5 -32t34.5 -90q0 -56 -34.5 -88t-103.5 -32z" />
    <glyph glyph-name="uni01C9" unicode="&#x1c9;" horiz-adv-x="983" 
d="M141 0v1616h209v-1616h-209zM597 -466l-136 92q61 84 99 166t55 174t17 206v916h209v-906q0 -128 -24.5 -236.5t-78 -208.5t-141.5 -203zM735 1304q-68 0 -103 32t-35 88q0 58 35 90t103 32q69 0 103.5 -32t34.5 -90q0 -56 -34.5 -88t-103.5 -32z" />
    <glyph glyph-name="uni01CA" unicode="&#x1ca;" horiz-adv-x="2020" 
d="M158 0v1480h216l804 -1228h-44v1228h200v-1480h-216l-804 1228h44v-1228h-200zM1617 -346l-138 93q62 85 99.5 165t55 171.5t17.5 209.5v1187h211v-1201q0 -122 -24.5 -225t-78.5 -200t-142 -200z" />
    <glyph glyph-name="uni01CB" unicode="&#x1cb;" horiz-adv-x="1984" 
d="M158 0v1480h216l804 -1228h-44v1228h200v-1480h-216l-804 1228h44v-1228h-200zM1598 -466l-136 92q61 84 99 166t55 174t17 206v916h209v-906q0 -128 -24.5 -236.5t-78 -208.5t-141.5 -203zM1736 1304q-68 0 -103 32t-35 88q0 58 35 90t103 32q69 0 103.5 -32t34.5 -90
q0 -56 -34.5 -88t-103.5 -32z" />
    <glyph glyph-name="uni01CC" unicode="&#x1cc;" horiz-adv-x="1655" 
d="M141 0v1088h174l15 -119h12q64 66 150.5 101t183.5 35q104 0 184.5 -39t126.5 -126.5t46 -233.5v-706h-209v695q0 128 -55 177.5t-150 49.5q-44 0 -93 -13t-95 -41t-81 -74v-794h-209zM1269 -466l-136 92q61 84 99 166t55 174t17 206v916h209v-906q0 -128 -24.5 -236.5
t-78 -208.5t-141.5 -203zM1407 1304q-68 0 -103 32t-35 88q0 58 35 90t103 32q69 0 103.5 -32t34.5 -90q0 -56 -34.5 -88t-103.5 -32z" />
    <glyph glyph-name="Gcaron" unicode="&#x1e6;" horiz-adv-x="1371" 
d="M885 -14q-260 0 -434.5 79.5t-263 245.5t-88.5 426q0 265 91 433t261.5 248.5t407.5 80.5q85 0 167.5 -10.5t164.5 -31.5v-180q-86 23 -163.5 32.5t-153.5 9.5q-177 0 -300.5 -57t-188.5 -185t-65 -341q0 -203 61.5 -329t183.5 -184t305 -58q68 0 130 5.5t115 14.5
l-87 -83v618h199v-704q-94 -15 -176 -22.5t-166 -7.5zM670 1604l-248 290h171l190 -229h-40l190 229h171l-248 -290h-186z" />
    <glyph glyph-name="gcaron" unicode="&#x1e7;" horiz-adv-x="1160" 
d="M492 -460q-79 0 -167.5 12t-166.5 35v170q87 -26 167.5 -38.5t152.5 -12.5q171 0 251.5 71t80.5 243v95h-11q-48 -57 -123 -92t-172 -35q-112 0 -207 53.5t-153 171t-58 309.5q0 290 144.5 436.5t427.5 146.5q60 0 123.5 -6.5t124.5 -18t113 -28.5v-997
q0 -274 -131.5 -394.5t-395.5 -120.5zM574 163q65 0 128.5 26t107.5 81v650q-33 9 -77.5 14.5t-91.5 5.5q-167 0 -255 -93t-88 -306q0 -148 35.5 -230t97.5 -115t143 -33zM511 1247l-229 369h160l178 -299h-38l178 299h160l-229 -369h-180z" />
    <glyph glyph-name="uni01EA" unicode="&#x1ea;" horiz-adv-x="1477" 
d="M832 -424q-124 0 -187.5 51t-63.5 140q0 76 48 141t168 115l-12 -42h-50q-193 0 -336 80t-221.5 248t-78.5 431q0 264 80 432t223.5 247.5t335.5 79.5t336 -79t224 -246.5t80 -433.5q0 -218 -54 -365t-146.5 -234.5t-208.5 -126.5q-100 -34 -157 -72t-80 -78.5t-23 -82.5
q0 -53 36 -81.5t110 -28.5q34 0 70.5 8t83.5 27v-94q-41 -17 -84.5 -26.5t-92.5 -9.5zM738 158q129 0 223.5 56.5t146 183t51.5 336.5q0 217 -52 345.5t-146.5 185.5t-222.5 57t-222.5 -56t-146.5 -182.5t-52 -337.5q0 -217 52 -346t146.5 -185.5t222.5 -56.5z" />
    <glyph glyph-name="uni01EB" unicode="&#x1eb;" horiz-adv-x="1140" 
d="M621 -424q-109 0 -169.5 52t-60.5 141q0 78 45.5 141t142.5 107l-7 -37q-148 0 -257 60t-169 184t-60 318q0 195 59 319t167.5 184t257.5 60t257.5 -60t167.5 -184t59 -318q0 -228 -80.5 -358.5t-223.5 -177.5q-90 -31 -140.5 -67.5t-71 -76.5t-20.5 -78q0 -54 33.5 -84
t92.5 -30q30 0 62 7.5t65 22.5l12 -89q-36 -17 -76 -26.5t-86 -9.5zM570 145q84 0 145 36.5t94 123t33 236.5q0 152 -33 239t-94 123.5t-145 36.5t-145 -36t-94 -122.5t-33 -236.5q0 -152 32.5 -239t94 -124t145.5 -37z" />
    <glyph glyph-name="uni01F1" unicode="&#x1f1;" horiz-adv-x="2561" 
d="M525 -13q-57 0 -116.5 2.5t-121.5 7t-129 12.5v1444q63 13 132.5 22.5t140.5 14.5t139 5q378 0 570 -184.5t192 -570.5q0 -262 -90 -428.5t-269.5 -245.5t-447.5 -79zM573 164q181 0 301 58.5t180 185.5t60 333q0 204 -59 331.5t-177.5 187t-296.5 59.5
q-49 0 -103.5 -4.5t-107.5 -13.5v-1126q49 -5 97.5 -8t105.5 -3zM1443 0v118l799 1228l9 -45h-797v179h1035v-118l-799 -1228l-8 45h818v-179h-1057z" />
    <glyph glyph-name="uni01F2" unicode="&#x1f2;" horiz-adv-x="2379" 
d="M525 -13q-57 0 -116.5 2.5t-121.5 7t-129 12.5v1444q63 13 132.5 22.5t140.5 14.5t139 5q378 0 570 -184.5t192 -570.5q0 -262 -90 -428.5t-269.5 -245.5t-447.5 -79zM573 164q181 0 301 58.5t180 185.5t60 333q0 204 -59 331.5t-177.5 187t-296.5 59.5
q-49 0 -103.5 -4.5t-107.5 -13.5v-1126q49 -5 97.5 -8t105.5 -3zM1494 0v131l591 832v-44h-579v169h808v-131l-591 -832v44h603v-169h-832z" />
    <glyph glyph-name="uni01F3" unicode="&#x1f3;" horiz-adv-x="2108" 
d="M520 -19q-119 0 -217.5 54t-157.5 172.5t-59 314.5q0 194 64 323.5t189.5 194.5t309.5 65q42 0 84 -3.5t77 -8.5v523h209v-1616h-177l-13 117h-12q-48 -60 -123.5 -98t-173.5 -38zM574 156q66 0 129 28t107 88v651q-33 8 -76.5 12.5t-86.5 4.5q-173 0 -261 -93t-88 -308
q0 -148 35 -231.5t97.5 -117.5t143.5 -34zM1223 0v131l591 832v-44h-579v169h808v-131l-591 -832v44h603v-169h-832z" />
    <glyph glyph-name="uni01F4" unicode="&#x1f4;" horiz-adv-x="1371" 
d="M885 -14q-260 0 -434.5 79.5t-263 245.5t-88.5 426q0 265 91 433t261.5 248.5t407.5 80.5q85 0 167.5 -10.5t164.5 -31.5v-180q-86 23 -163.5 32.5t-153.5 9.5q-177 0 -300.5 -57t-188.5 -185t-65 -341q0 -203 61.5 -329t183.5 -184t305 -58q68 0 130 5.5t115 14.5
l-87 -83v618h199v-704q-94 -15 -176 -22.5t-166 -7.5zM668 1604l178 290h223l-212 -290h-189z" />
    <glyph glyph-name="uni01F5" unicode="&#x1f5;" horiz-adv-x="1160" 
d="M492 -460q-79 0 -167.5 12t-166.5 35v170q87 -26 167.5 -38.5t152.5 -12.5q171 0 251.5 71t80.5 243v95h-11q-48 -57 -123 -92t-172 -35q-112 0 -207 53.5t-153 171t-58 309.5q0 290 144.5 436.5t427.5 146.5q60 0 123.5 -6.5t124.5 -18t113 -28.5v-997
q0 -274 -131.5 -394.5t-395.5 -120.5zM574 163q65 0 128.5 26t107.5 81v650q-33 9 -77.5 14.5t-91.5 5.5q-167 0 -255 -93t-88 -306q0 -148 35.5 -230t97.5 -115t143 -33zM505 1247l218 369h224l-250 -369h-192z" />
    <glyph glyph-name="Aringacute" unicode="&#x1fa;" horiz-adv-x="1382" 
d="M24 0l515 1480h304l515 -1480h-212l-471 1383h29l-470 -1383h-210zM319 454l48 173h647l48 -173h-743zM691 1595q-87 0 -144 56.5t-57 142.5t57 142t144 56t144 -56t57 -142t-57 -142.5t-144 -56.5zM691 1681q48 0 79 30.5t31 82.5t-31 82t-79 30t-79 -30t-31 -82
t31 -82.5t79 -30.5zM837 1883l-100 62l147 162h165z" />
    <glyph glyph-name="aringacute" unicode="&#x1fb;" horiz-adv-x="1057" 
d="M420 -18q-158 0 -247.5 81t-89.5 221q0 145 98 227t314 101l273 27l21 -127l-276 -28q-118 -12 -169.5 -56.5t-51.5 -124.5q0 -81 47.5 -124.5t139.5 -43.5q64 0 128 26t115 87v456q0 92 -29 143t-89 72t-153 21q-62 0 -140 -11t-154 -36v164q73 24 161 36t165 12
q149 0 247.5 -38.5t147 -128.5t48.5 -246v-692h-173l-15 117h-12q-52 -67 -132.5 -101t-173.5 -34zM524 1242q-87 0 -144 56t-57 142t57 142t144 56q88 0 145 -56t57 -142t-57 -142t-145 -56zM524 1328q49 0 79.5 30.5t30.5 81.5q0 53 -30.5 82.5t-79.5 29.5
q-48 0 -78.5 -29.5t-30.5 -82.5q0 -51 30.5 -81.5t78.5 -30.5zM665 1530l-100 60l154 190h164z" />
    <glyph glyph-name="AEacute" unicode="&#x1fc;" horiz-adv-x="1896" 
d="M24 0l522 1480h402l-1 -175h-258l-454 -1305h-211zM323 453l48 175h610v-175h-658zM951 0l-103 1480h966v-175h-748l82 -1130h676v-175h-873zM1015 671v175h700v-175h-700zM858 1604l178 290h223l-212 -290h-189z" />
    <glyph glyph-name="aeacute" unicode="&#x1fd;" horiz-adv-x="1676" 
d="M1252 -20q-177 0 -294.5 58t-176 183t-58.5 325l31 17q0 179 51 300t146.5 181.5t227.5 60.5q133 0 228 -61t146 -186t51 -318v-61h-721v132h564l-40 -26q0 141 -28 224t-81 118.5t-129 35.5t-130 -35.5t-83.5 -117.5t-29.5 -221v-78q0 -135 36.5 -215.5t114.5 -115.5
t201 -35q62 0 129.5 10.5t140.5 30.5v-164q-80 -22 -152.5 -32t-143.5 -10zM437 -18q-113 0 -192 36.5t-120.5 104t-41.5 162.5q0 96 43.5 169.5t139 115t250.5 41.5h254v-129h-239q-89 0 -141.5 -23t-75 -64t-22.5 -93q0 -81 48.5 -124t141.5 -43q76 0 151 36t137 130
l68 -110q-89 -120 -191.5 -164.5t-209.5 -44.5zM723 546v158q0 92 -29.5 143t-90 72t-152.5 21q-62 0 -139.5 -11t-153.5 -36v164q75 24 158.5 36t159.5 12q141 0 234.5 -39.5t140 -128.5t46.5 -238v-166zM732 1247l218 369h224l-250 -369h-192z" />
    <glyph glyph-name="Oslashacute" unicode="&#x1fe;" horiz-adv-x="1477" 
d="M258 -1h-157l1115 1482h157zM738 -19q-192 0 -336 79.5t-223.5 247.5t-79.5 432t80 432t223.5 247.5t335.5 79.5q193 0 337 -80t223.5 -247.5t79.5 -431.5t-80 -431.5t-224 -247.5t-336 -80zM738 158q129 0 223.5 56.5t146 183t51.5 336.5q0 217 -52 345.5t-146.5 185.5
t-222.5 57t-222.5 -56t-146.5 -182.5t-52 -337.5q0 -217 52 -346t146.5 -185.5t222.5 -56.5zM641 1604l178 290h223l-212 -290h-189z" />
    <glyph glyph-name="oslashacute" unicode="&#x1ff;" horiz-adv-x="1140" 
d="M935 953q57 -69 88 -171t31 -239q0 -193 -59.5 -318t-168.5 -185t-256 -60q-81 0 -149.5 19.5t-124.5 61.5l-49 -70h-146l103 145q-56 69 -87 170t-31 236q0 195 59 319t167.5 184t257.5 60q80 0 148.5 -19t123.5 -60l50 71h146zM570 943q-86 0 -148 -37t-95.5 -123.5
t-33.5 -237.5q0 -78 11.5 -136.5t32.5 -99.5l407 569q-33 35 -77 50t-97 15zM570 143q86 0 148 36.5t95.5 123.5t33.5 238q0 79 -11.5 139t-32.5 102l-408 -573q33 -36 77.5 -51t97.5 -15zM470 1247l218 369h224l-250 -369h-192z" />
    <glyph glyph-name="uni0200" unicode="&#x200;" horiz-adv-x="1382" 
d="M24 0l515 1480h304l515 -1480h-212l-471 1383h29l-470 -1383h-210zM319 454l48 173h647l48 -173h-743zM790 1604l-143 290h171l131 -290h-159zM433 1604l-143 290h172l130 -290h-159z" />
    <glyph glyph-name="uni0201" unicode="&#x201;" horiz-adv-x="1057" 
d="M420 -18q-158 0 -247.5 81t-89.5 221q0 145 98 227t314 101l273 27l21 -127l-276 -28q-118 -12 -169.5 -56.5t-51.5 -124.5q0 -81 47.5 -124.5t139.5 -43.5q64 0 128 26t115 87v456q0 92 -29 143t-89 72t-153 21q-62 0 -140 -11t-154 -36v164q73 24 161 36t165 12
q149 0 247.5 -38.5t147 -128.5t48.5 -246v-692h-173l-15 117h-12q-52 -67 -132.5 -101t-173.5 -34zM623 1247l-154 369h172l141 -369h-159zM266 1247l-154 369h173l140 -369h-159z" />
    <glyph glyph-name="uni0202" unicode="&#x202;" horiz-adv-x="1382" 
d="M24 0l515 1480h304l515 -1480h-212l-471 1383h29l-470 -1383h-210zM319 454l48 173h647l48 -173h-743zM353 1621q8 81 47.5 140.5t111.5 92t178 32.5t178.5 -33t112.5 -92.5t48 -139.5h-134q-12 75 -59 113.5t-146 38.5t-145.5 -38.5t-57.5 -113.5h-134z" />
    <glyph glyph-name="uni0203" unicode="&#x203;" horiz-adv-x="1057" 
d="M420 -18q-158 0 -247.5 81t-89.5 221q0 145 98 227t314 101l273 27l21 -127l-276 -28q-118 -12 -169.5 -56.5t-51.5 -124.5q0 -81 47.5 -124.5t139.5 -43.5q64 0 128 26t115 87v456q0 92 -29 143t-89 72t-153 21q-62 0 -140 -11t-154 -36v164q73 24 161 36t165 12
q149 0 247.5 -38.5t147 -128.5t48.5 -246v-692h-173l-15 117h-12q-52 -67 -132.5 -101t-173.5 -34zM205 1275q8 163 89.5 248.5t228.5 85.5q146 0 229.5 -86t90.5 -248h-134q-7 109 -52.5 163.5t-133.5 54.5q-89 0 -133 -54.5t-51 -163.5h-134z" />
    <glyph glyph-name="uni0204" unicode="&#x204;" horiz-adv-x="1193" 
d="M158 0v1480h954v-175h-744v-1130h754v-175h-964zM288 671v175h725v-175h-725zM756 1604l-143 290h171l131 -290h-159zM399 1604l-143 290h172l130 -290h-159z" />
    <glyph glyph-name="uni0205" unicode="&#x205;" horiz-adv-x="1054" 
d="M627 -20q-180 0 -300.5 58t-180.5 182.5t-60 323.5q0 188 55.5 312.5t158.5 186.5t246 62q140 0 237.5 -62t148 -187.5t50.5 -316.5v-60h-780v132h623l-40 -22q0 138 -28 220t-82 117.5t-131 35.5t-132.5 -35t-85.5 -117t-30 -221v-78q0 -135 37 -215.5t116 -115.5
t205 -35q62 0 130 10.5t142 30.5v-164q-81 -22 -154 -32t-145 -10zM642 1247l-154 369h172l141 -369h-159zM285 1247l-154 369h173l140 -369h-159z" />
    <glyph glyph-name="uni0206" unicode="&#x206;" horiz-adv-x="1193" 
d="M158 0v1480h954v-175h-744v-1130h754v-175h-964zM288 671v175h725v-175h-725zM319 1621q8 81 47.5 140.5t111.5 92t178 32.5t178.5 -33t112.5 -92.5t48 -139.5h-134q-12 75 -59 113.5t-146 38.5t-145.5 -38.5t-57.5 -113.5h-134z" />
    <glyph glyph-name="uni0207" unicode="&#x207;" horiz-adv-x="1054" 
d="M627 -20q-180 0 -300.5 58t-180.5 182.5t-60 323.5q0 188 55.5 312.5t158.5 186.5t246 62q140 0 237.5 -62t148 -187.5t50.5 -316.5v-60h-780v132h623l-40 -22q0 138 -28 220t-82 117.5t-131 35.5t-132.5 -35t-85.5 -117t-30 -221v-78q0 -135 37 -215.5t116 -115.5
t205 -35q62 0 130 10.5t142 30.5v-164q-81 -22 -154 -32t-145 -10zM224 1275q8 163 89.5 248.5t228.5 85.5q146 0 229.5 -86t90.5 -248h-134q-7 109 -52.5 163.5t-133.5 54.5q-89 0 -133 -54.5t-51 -163.5h-134z" />
    <glyph glyph-name="uni0208" unicode="&#x208;" horiz-adv-x="528" 
d="M158 0v1480h212v-1480h-212zM363 1604l-143 290h171l131 -290h-159zM6 1604l-143 290h172l130 -290h-159z" />
    <glyph glyph-name="uni0209" unicode="&#x209;" horiz-adv-x="492" 
d="M141 0v1088h209v-1088h-209zM345 1247l-154 369h172l141 -369h-159zM-12 1247l-154 369h173l140 -369h-159z" />
    <glyph glyph-name="uni020A" unicode="&#x20a;" horiz-adv-x="528" 
d="M158 0v1480h212v-1480h-212zM-74 1621q8 81 47.5 140.5t111.5 92t178 32.5t178.5 -33t112.5 -92.5t48 -139.5h-134q-12 75 -59 113.5t-146 38.5t-145.5 -38.5t-57.5 -113.5h-134z" />
    <glyph glyph-name="uni020B" unicode="&#x20b;" horiz-adv-x="492" 
d="M141 0v1088h209v-1088h-209zM-73 1275q8 163 89.5 248.5t228.5 85.5q146 0 229.5 -86t90.5 -248h-134q-7 109 -52.5 163.5t-133.5 54.5q-89 0 -133 -54.5t-51 -163.5h-134z" />
    <glyph glyph-name="uni020C" unicode="&#x20c;" horiz-adv-x="1477" 
d="M738 -19q-192 0 -336 79.5t-223.5 247.5t-79.5 432t80 432t223.5 247.5t335.5 79.5q193 0 337 -80t223.5 -247.5t79.5 -431.5t-80 -431.5t-224 -247.5t-336 -80zM738 158q129 0 223.5 56.5t146 183t51.5 336.5q0 217 -52 345.5t-146.5 185.5t-222.5 57t-222.5 -56
t-146.5 -182.5t-52 -337.5q0 -217 52 -346t146.5 -185.5t222.5 -56.5zM837 1604l-143 290h171l131 -290h-159zM480 1604l-143 290h172l130 -290h-159z" />
    <glyph glyph-name="uni020D" unicode="&#x20d;" horiz-adv-x="1140" 
d="M570 -20q-147 0 -255.5 60t-168.5 184t-60 318q0 195 59 319t167.5 184t257.5 60t257.5 -60t167.5 -184t59 -318q0 -193 -59.5 -318t-168.5 -185t-256 -60zM570 145q84 0 145 36.5t94 123t33 236.5q0 152 -33 239t-94 123.5t-145 36.5t-145 -36t-94 -122.5t-33 -236.5
q0 -152 32.5 -239t94 -124t145.5 -37zM669 1247l-154 369h172l141 -369h-159zM312 1247l-154 369h173l140 -369h-159z" />
    <glyph glyph-name="uni020E" unicode="&#x20e;" horiz-adv-x="1477" 
d="M738 -19q-192 0 -336 79.5t-223.5 247.5t-79.5 432t80 432t223.5 247.5t335.5 79.5q193 0 337 -80t223.5 -247.5t79.5 -431.5t-80 -431.5t-224 -247.5t-336 -80zM738 158q129 0 223.5 56.5t146 183t51.5 336.5q0 217 -52 345.5t-146.5 185.5t-222.5 57t-222.5 -56
t-146.5 -182.5t-52 -337.5q0 -217 52 -346t146.5 -185.5t222.5 -56.5zM400 1621q8 81 47.5 140.5t111.5 92t178 32.5t178.5 -33t112.5 -92.5t48 -139.5h-134q-12 75 -59 113.5t-146 38.5t-145.5 -38.5t-57.5 -113.5h-134z" />
    <glyph glyph-name="uni020F" unicode="&#x20f;" horiz-adv-x="1140" 
d="M570 -20q-147 0 -255.5 60t-168.5 184t-60 318q0 195 59 319t167.5 184t257.5 60t257.5 -60t167.5 -184t59 -318q0 -193 -59.5 -318t-168.5 -185t-256 -60zM570 145q84 0 145 36.5t94 123t33 236.5q0 152 -33 239t-94 123.5t-145 36.5t-145 -36t-94 -122.5t-33 -236.5
q0 -152 32.5 -239t94 -124t145.5 -37zM251 1275q8 163 89.5 248.5t228.5 85.5q146 0 229.5 -86t90.5 -248h-134q-7 109 -52.5 163.5t-133.5 54.5q-89 0 -133 -54.5t-51 -163.5h-134z" />
    <glyph glyph-name="uni0210" unicode="&#x210;" horiz-adv-x="1329" 
d="M158 0v1453q60 12 126 22t138.5 15.5t150.5 5.5q301 0 449.5 -109t148.5 -341q0 -150 -71.5 -251.5t-208 -153t-334.5 -51.5q-56 0 -100 2.5t-90 5.5v-598h-209zM1050 0l-508 692h233l513 -692h-238zM560 755q214 0 312 70.5t98 219.5q0 102 -40 165.5t-123.5 93
t-215.5 29.5q-68 0 -120.5 -5t-103.5 -14v-550q35 -3 64.5 -5.5t60 -3t68.5 -0.5zM743 1604l-143 290h171l131 -290h-159zM386 1604l-143 290h172l130 -290h-159z" />
    <glyph glyph-name="uni0211" unicode="&#x211;" horiz-adv-x="750" 
d="M141 0v1088h173l17 -144h11q53 78 135 117t174 39q24 0 46 -2t41 -6v-191q-24 4 -48.5 5.5t-49.5 1.5q-52 0 -106.5 -15.5t-102.5 -46.5t-81 -77v-769h-209zM531 1247l-154 369h172l141 -369h-159zM174 1247l-154 369h173l140 -369h-159z" />
    <glyph glyph-name="uni0212" unicode="&#x212;" horiz-adv-x="1329" 
d="M158 0v1453q60 12 126 22t138.5 15.5t150.5 5.5q301 0 449.5 -109t148.5 -341q0 -150 -71.5 -251.5t-208 -153t-334.5 -51.5q-56 0 -100 2.5t-90 5.5v-598h-209zM1050 0l-508 692h233l513 -692h-238zM560 755q214 0 312 70.5t98 219.5q0 102 -40 165.5t-123.5 93
t-215.5 29.5q-68 0 -120.5 -5t-103.5 -14v-550q35 -3 64.5 -5.5t60 -3t68.5 -0.5zM306 1621q8 81 47.5 140.5t111.5 92t178 32.5t178.5 -33t112.5 -92.5t48 -139.5h-134q-12 75 -59 113.5t-146 38.5t-145.5 -38.5t-57.5 -113.5h-134z" />
    <glyph glyph-name="uni0213" unicode="&#x213;" horiz-adv-x="750" 
d="M141 0v1088h173l17 -144h11q53 78 135 117t174 39q24 0 46 -2t41 -6v-191q-24 4 -48.5 5.5t-49.5 1.5q-52 0 -106.5 -15.5t-102.5 -46.5t-81 -77v-769h-209zM113 1275q8 163 89.5 248.5t228.5 85.5q146 0 229.5 -86t90.5 -248h-134q-7 109 -52.5 163.5t-133.5 54.5
q-89 0 -133 -54.5t-51 -163.5h-134z" />
    <glyph glyph-name="uni0214" unicode="&#x214;" horiz-adv-x="1441" 
d="M723 -19q-197 0 -324 64.5t-187.5 196t-60.5 334.5v904h212v-926q0 -206 87.5 -300t272.5 -94t272 94t87 300v926h208v-904q0 -203 -60 -334.5t-185.5 -196t-321.5 -64.5zM822 1604l-143 290h171l131 -290h-159zM465 1604l-143 290h172l130 -290h-159z" />
    <glyph glyph-name="uni0215" unicode="&#x215;" horiz-adv-x="1153" 
d="M486 -18q-103 0 -183.5 38.5t-126.5 125.5t-46 232v710h209v-698q0 -127 55.5 -176t144.5 -49q44 0 92 13t93 41t80 73v796h208v-1088h-174l-14 116h-11q-66 -67 -150 -100.5t-177 -33.5zM671 1247l-154 369h172l141 -369h-159zM314 1247l-154 369h173l140 -369h-159z
" />
    <glyph glyph-name="uni0216" unicode="&#x216;" horiz-adv-x="1441" 
d="M723 -19q-197 0 -324 64.5t-187.5 196t-60.5 334.5v904h212v-926q0 -206 87.5 -300t272.5 -94t272 94t87 300v926h208v-904q0 -203 -60 -334.5t-185.5 -196t-321.5 -64.5zM385 1621q8 81 47.5 140.5t111.5 92t178 32.5t178.5 -33t112.5 -92.5t48 -139.5h-134
q-12 75 -59 113.5t-146 38.5t-145.5 -38.5t-57.5 -113.5h-134z" />
    <glyph glyph-name="uni0217" unicode="&#x217;" horiz-adv-x="1153" 
d="M486 -18q-103 0 -183.5 38.5t-126.5 125.5t-46 232v710h209v-698q0 -127 55.5 -176t144.5 -49q44 0 92 13t93 41t80 73v796h208v-1088h-174l-14 116h-11q-66 -67 -150 -100.5t-177 -33.5zM253 1275q8 163 89.5 248.5t228.5 85.5q146 0 229.5 -86t90.5 -248h-134
q-7 109 -52.5 163.5t-133.5 54.5q-89 0 -133 -54.5t-51 -163.5h-134z" />
    <glyph glyph-name="uni0218" unicode="&#x218;" horiz-adv-x="1090" 
d="M475 -19q-95 0 -193.5 15.5t-186.5 45.5v178q62 -21 128 -35t130 -21t123 -7q173 0 253 62t80 179q0 100 -60 153.5t-209 91.5l-90 23q-190 49 -286 148.5t-96 262.5q0 197 139 309.5t415 112.5q91 0 177 -11.5t155 -32.5v-178q-74 23 -156.5 34.5t-166.5 11.5
q-124 0 -201 -28t-113 -81t-36 -126q0 -95 54.5 -148t192.5 -90l90 -23q139 -35 228.5 -90.5t132.5 -135.5t43 -189q0 -136 -64.5 -232.5t-187 -147.5t-295.5 -51zM490 -476q28 61 38 104.5t10 87.5l35 -50h-18q-65 0 -96 25t-31 66q0 42 31 66.5t94 24.5q65 0 97 -31
t32 -91q0 -46 -16.5 -100.5t-46.5 -101.5h-129z" />
    <glyph glyph-name="uni0219" unicode="&#x219;" horiz-adv-x="925" 
d="M419 -20q-85 0 -164 11.5t-152 33.5v161q80 -23 157.5 -34.5t157.5 -11.5q131 0 188.5 42t57.5 118q0 64 -33 97.5t-113 50.5l-156 31q-151 31 -216.5 105.5t-65.5 195.5q0 143 112.5 234t344.5 91q72 0 140 -8.5t127 -24.5v-161q-65 18 -129 26t-133 8
q-100 0 -157.5 -21.5t-82 -57.5t-24.5 -81q0 -55 31.5 -91t110.5 -54l156 -30q149 -30 217.5 -101.5t68.5 -199.5q0 -152 -113.5 -240.5t-329.5 -88.5zM402 -476q28 61 38 104.5t10 87.5l35 -50h-18q-65 0 -96 25t-31 66q0 42 31 66.5t94 24.5q65 0 97 -31t32 -91
q0 -46 -16.5 -100.5t-46.5 -101.5h-129z" />
    <glyph glyph-name="uni021A" unicode="&#x21a;" horiz-adv-x="1209" 
d="M498 0v1299h-484v181h1182v-181h-485v-1299h-213zM540 -476q28 61 38 104.5t10 87.5l35 -50h-18q-65 0 -96 25t-31 66q0 42 31 66.5t94 24.5q65 0 97 -31t32 -91q0 -46 -16.5 -100.5t-46.5 -101.5h-129z" />
    <glyph glyph-name="uni021B" unicode="&#x21b;" horiz-adv-x="778" 
d="M578 -19q-176 0 -272.5 89.5t-96.5 284.5v733l36 392h173v-1091q0 -129 52 -180.5t158 -51.5q30 0 60 4t67 12v-172q-41 -9 -86.5 -14.5t-90.5 -5.5zM13 919v169h729v-169h-729zM417 -476q28 61 38 104.5t10 87.5l35 -50h-18q-65 0 -96 25t-31 66q0 42 31 66.5t94 24.5
q65 0 97 -31t32 -91q0 -46 -16.5 -100.5t-46.5 -101.5h-129z" />
    <glyph glyph-name="uni022A" unicode="&#x22a;" horiz-adv-x="1477" 
d="M738 -19q-192 0 -336 79.5t-223.5 247.5t-79.5 432t80 432t223.5 247.5t335.5 79.5q193 0 337 -80t223.5 -247.5t79.5 -431.5t-80 -431.5t-224 -247.5t-336 -80zM738 158q129 0 223.5 56.5t146 183t51.5 336.5q0 217 -52 345.5t-146.5 185.5t-222.5 57t-222.5 -56
t-146.5 -182.5t-52 -337.5q0 -217 52 -346t146.5 -185.5t222.5 -56.5zM979 1643q-60 0 -92 29t-32 79q0 51 32 80.5t92 29.5q59 0 91 -29.5t32 -80.5q0 -50 -32 -79t-91 -29zM497 1643q-59 0 -91 29t-32 79q0 51 32 80.5t91 29.5q60 0 92 -29.5t32 -80.5q0 -50 -32 -79
t-92 -29zM413 1983v133h650v-133h-650z" />
    <glyph glyph-name="uni022B" unicode="&#x22b;" horiz-adv-x="1140" 
d="M570 -20q-147 0 -255.5 60t-168.5 184t-60 318q0 195 59 319t167.5 184t257.5 60t257.5 -60t167.5 -184t59 -318q0 -193 -59.5 -318t-168.5 -185t-256 -60zM570 145q84 0 145 36.5t94 123t33 236.5q0 152 -33 239t-94 123.5t-145 36.5t-145 -36t-94 -122.5t-33 -236.5
q0 -152 32.5 -239t94 -124t145.5 -37zM795 1303q-58 0 -91 31.5t-33 85.5q0 56 33 87.5t91 31.5q59 0 91.5 -31.5t32.5 -87.5q0 -54 -32.5 -85.5t-91.5 -31.5zM345 1303q-59 0 -91.5 31.5t-32.5 85.5q0 56 32.5 87.5t91.5 31.5q58 0 91 -31.5t33 -87.5q0 -54 -33 -85.5
t-91 -31.5zM246 1691v133h648v-133h-648z" />
    <glyph glyph-name="uni022C" unicode="&#x22c;" horiz-adv-x="1477" 
d="M738 -19q-192 0 -336 79.5t-223.5 247.5t-79.5 432t80 432t223.5 247.5t335.5 79.5q193 0 337 -80t223.5 -247.5t79.5 -431.5t-80 -431.5t-224 -247.5t-336 -80zM738 158q129 0 223.5 56.5t146 183t51.5 336.5q0 217 -52 345.5t-146.5 185.5t-222.5 57t-222.5 -56
t-146.5 -182.5t-52 -337.5q0 -217 52 -346t146.5 -185.5t222.5 -56.5zM898 1653q-50 0 -92.5 13t-83.5 28q-36 14 -72 24.5t-75 10.5q-56 0 -98 -17.5t-82 -52.5v132q34 34 78 50.5t105 16.5q50 0 93 -12.5t83 -28.5q37 -13 73 -24t74 -11q56 0 98 17.5t82 52.5v-132
q-34 -33 -78 -50t-105 -17zM413 1975v133h650v-133h-650z" />
    <glyph glyph-name="uni022D" unicode="&#x22d;" horiz-adv-x="1140" 
d="M570 -20q-147 0 -255.5 60t-168.5 184t-60 318q0 195 59 319t167.5 184t257.5 60t257.5 -60t167.5 -184t59 -318q0 -193 -59.5 -318t-168.5 -185t-256 -60zM570 145q84 0 145 36.5t94 123t33 236.5q0 152 -33 239t-94 123.5t-145 36.5t-145 -36t-94 -122.5t-33 -236.5
q0 -152 32.5 -239t94 -124t145.5 -37zM717 1327q-44 0 -84.5 14.5t-78.5 30.5q-34 16 -67.5 28t-67.5 12q-50 0 -91 -19t-82 -60v141q67 71 177 71q45 0 85.5 -15t77.5 -31q35 -15 68 -27.5t67 -12.5q51 0 92 19.5t81 59.5v-141q-67 -70 -177 -70zM246 1689v133h648v-133
h-648z" />
    <glyph glyph-name="uni0230" unicode="&#x230;" horiz-adv-x="1477" 
d="M738 -19q-192 0 -336 79.5t-223.5 247.5t-79.5 432t80 432t223.5 247.5t335.5 79.5q193 0 337 -80t223.5 -247.5t79.5 -431.5t-80 -431.5t-224 -247.5t-336 -80zM738 158q129 0 223.5 56.5t146 183t51.5 336.5q0 217 -52 345.5t-146.5 185.5t-222.5 57t-222.5 -56
t-146.5 -182.5t-52 -337.5q0 -217 52 -346t146.5 -185.5t222.5 -56.5zM738 1643q-66 0 -101.5 29t-35.5 79q0 52 35.5 81t101.5 29t101.5 -29t35.5 -81q0 -50 -35.5 -79t-101.5 -29zM413 1975v133h650v-133h-650z" />
    <glyph glyph-name="uni0231" unicode="&#x231;" horiz-adv-x="1140" 
d="M570 -20q-147 0 -255.5 60t-168.5 184t-60 318q0 195 59 319t167.5 184t257.5 60t257.5 -60t167.5 -184t59 -318q0 -193 -59.5 -318t-168.5 -185t-256 -60zM570 145q84 0 145 36.5t94 123t33 236.5q0 152 -33 239t-94 123.5t-145 36.5t-145 -36t-94 -122.5t-33 -236.5
q0 -152 32.5 -239t94 -124t145.5 -37zM570 1300q-68 0 -103 32t-35 88q0 58 35 90t103 32q69 0 103.5 -32t34.5 -90q0 -56 -34.5 -88t-103.5 -32zM246 1680v133h648v-133h-648z" />
    <glyph glyph-name="uni0232" unicode="&#x232;" horiz-adv-x="1209" 
d="M500 0v735l44 -157l-582 902h230l451 -701h-66l445 701h215l-570 -902l45 155v-733h-212zM280 1679v133h650v-133h-650z" />
    <glyph glyph-name="uni0233" unicode="&#x233;" horiz-adv-x="1091" 
d="M308 -440l164 440l69 157l331 931h208l-566 -1528h-206zM413 0l-403 1088h221l379 -1088h-197zM222 1355v133h648v-133h-648z" />
    <glyph glyph-name="uni0237" unicode="&#x237;" horiz-adv-x="492" 
d="M106 -466l-136 92q61 84 99 166t55 174t17 206v916h209v-906q0 -128 -24.5 -236.5t-78 -208.5t-141.5 -203z" />
    <glyph glyph-name="uni0259" unicode="&#x259;" horiz-adv-x="1054" 
d="M427 1108q180 0 300.5 -58t180.5 -182.5t60 -323.5q0 -188 -55.5 -312.5t-158.5 -186.5t-246 -62q-140 0 -237.5 62t-148 187.5t-50.5 316.5v60h780v-132h-623l40 22q0 -138 28 -220t82 -117.5t131 -35.5t132.5 35t85.5 117t30 221v78q0 135 -37 215.5t-116 115.5
t-205 35q-62 0 -130 -10.5t-142 -30.5v164q81 22 154 32t145 10z" />
    <glyph glyph-name="uni02BB" unicode="&#x2bb;" horiz-adv-x="1079" 
d="M542 1302q-66 0 -98 31t-32 90q0 46 17 101t46 101h130q-29 -61 -39 -104.5t-10 -86.5l-35 50h18q66 0 97 -25t31 -67q0 -41 -31 -65.5t-94 -24.5z" />
    <glyph glyph-name="uni02BC" unicode="&#x2bc;" horiz-adv-x="1079" 
d="M601 1302q29 61 39 104t10 87l35 -50h-18q-65 0 -96.5 25t-31.5 66q0 42 31.5 66.5t93.5 24.5q66 0 98 -31t32 -91q0 -45 -16.5 -100t-46.5 -101h-130z" />
    <glyph glyph-name="uni02BE" unicode="&#x2be;" horiz-adv-x="1079" 
d="M539 1242v86q49 0 79.5 30.5t30.5 81.5q0 53 -30.5 82.5t-79.5 29.5v86q88 0 145 -56t57 -142t-57 -142t-145 -56z" />
    <glyph glyph-name="uni02BF" unicode="&#x2bf;" horiz-adv-x="1079" 
d="M539 1242q-86 0 -143.5 56t-57.5 142t57.5 142t143.5 56v-86q-48 0 -78.5 -29.5t-30.5 -82.5q0 -51 30.5 -81.5t78.5 -30.5v-86z" />
    <glyph glyph-name="circumflex" unicode="&#x2c6;" horiz-adv-x="1079" 
d="M284 1247l226 369h180l226 -369h-159l-176 298h38l-176 -298h-159z" />
    <glyph glyph-name="caron" unicode="&#x2c7;" horiz-adv-x="1079" 
d="M510 1247l-229 369h160l178 -299h-38l178 299h160l-229 -369h-180z" />
    <glyph glyph-name="uni02C8" unicode="&#x2c8;" horiz-adv-x="1200" 
d="M546 1218v400h108v-400h-108z" />
    <glyph glyph-name="uni02C9" unicode="&#x2c9;" horiz-adv-x="1079" 
d="M216 1355v133h647v-133h-647z" />
    <glyph glyph-name="uni02CA" unicode="&#x2ca;" horiz-adv-x="1079" 
d="M439 1247l218 369h233l-250 -369h-201z" />
    <glyph glyph-name="uni02CB" unicode="&#x2cb;" horiz-adv-x="1079" 
d="M439 1247l-250 369h233l218 -369h-201z" />
    <glyph glyph-name="uni02CC" unicode="&#x2cc;" horiz-adv-x="1200" 
d="M546 -440v400h108v-400h-108z" />
    <glyph glyph-name="breve" unicode="&#x2d8;" horiz-adv-x="1079" 
d="M601 1257q-145 0 -228.5 86.5t-91.5 247.5h134q8 -108 53 -163t133 -55q89 0 133.5 55t50.5 163h134q-7 -161 -89.5 -247.5t-228.5 -86.5z" />
    <glyph glyph-name="dotaccent" unicode="&#x2d9;" horiz-adv-x="1079" 
d="M600 1300q-68 0 -103 32t-35 88q0 58 35 90t103 32q69 0 103.5 -32t34.5 -90q0 -56 -34.5 -88t-103.5 -32z" />
    <glyph glyph-name="ring" unicode="&#x2da;" horiz-adv-x="1079" 
d="M600 1242q-87 0 -144 56t-57 142t57 142t144 56q88 0 144.5 -56t56.5 -142t-56.5 -142t-144.5 -56zM600 1328q48 0 79 30.5t31 81.5q0 53 -31 82.5t-79 29.5t-79 -29.5t-31 -82.5q0 -51 31 -81.5t79 -30.5z" />
    <glyph glyph-name="ogonek" unicode="&#x2db;" horiz-adv-x="1079" 
d="M508 -424q-112 0 -171 51.5t-59 139.5q0 58 25.5 109t83 97t153.5 88l60 -61q-73 -36 -116 -71.5t-61 -72t-18 -76.5q0 -51 32.5 -80t92.5 -29q33 0 68 9t71 28v-95q-34 -16 -75 -26.5t-86 -10.5z" />
    <glyph glyph-name="tilde" unicode="&#x2dc;" horiz-adv-x="1079" 
d="M747 1327q-44 0 -84.5 14.5t-78.5 30.5q-34 16 -67.5 28t-67.5 12q-50 0 -91 -19t-82 -60v141q67 71 177 71q45 0 85.5 -15t77.5 -31q35 -15 68 -27.5t67 -12.5q51 0 92 19.5t81 59.5v-141q-67 -70 -177 -70z" />
    <glyph glyph-name="hungarumlaut" unicode="&#x2dd;" horiz-adv-x="1079" 
d="M699 1247l141 369h170l-154 -369h-157zM344 1247l141 369h170l-154 -369h-157z" />
    <glyph glyph-name="gravecomb" unicode="&#x300;" 
d="M504 1247l-250 369h224l218 -369h-192z" />
    <glyph glyph-name="acutecomb" unicode="&#x301;" 
d="M504 1247l218 369h224l-250 -369h-192z" />
    <glyph glyph-name="uni0302" unicode="&#x302;" 
d="M284 1247l226 369h180l226 -369h-159l-176 298h38l-176 -298h-159z" />
    <glyph glyph-name="tildecomb" unicode="&#x303;" 
d="M747 1327q-44 0 -84.5 14.5t-78.5 30.5q-34 16 -67.5 28t-67.5 12q-50 0 -91 -19t-82 -60v141q67 71 177 71q45 0 85.5 -15t77.5 -31q35 -15 68 -27.5t67 -12.5q51 0 92 19.5t81 59.5v-141q-67 -70 -177 -70z" />
    <glyph glyph-name="uni0304" unicode="&#x304;" 
d="M276 1355v133h648v-133h-648z" />
    <glyph glyph-name="uni0306" unicode="&#x306;" 
d="M601 1257q-145 0 -228.5 86.5t-91.5 247.5h134q8 -108 53 -163t133 -55q89 0 133.5 55t50.5 163h134q-7 -161 -89.5 -247.5t-228.5 -86.5z" />
    <glyph glyph-name="uni0307" unicode="&#x307;" 
d="M600 1300q-68 0 -103 32t-35 88q0 58 35 90t103 32q69 0 103.5 -32t34.5 -90q0 -56 -34.5 -88t-103.5 -32z" />
    <glyph glyph-name="uni0308" unicode="&#x308;" 
d="M825 1303q-58 0 -91 31.5t-33 85.5q0 56 33 87.5t91 31.5q59 0 91.5 -31.5t32.5 -87.5q0 -54 -32.5 -85.5t-91.5 -31.5zM375 1303q-59 0 -91.5 31.5t-32.5 85.5q0 56 32.5 87.5t91.5 31.5q58 0 91 -31.5t33 -87.5q0 -54 -33 -85.5t-91 -31.5z" />
    <glyph glyph-name="hookabovecomb" unicode="&#x309;" 
d="M546 1247q1 55 25 86.5t54 52t53 39.5t23 48q0 31 -26.5 46t-84.5 15q-37 0 -79.5 -6t-80.5 -18v93q34 12 81.5 18.5t89.5 6.5q113 0 166.5 -36.5t53.5 -107.5q0 -50 -23 -78t-53.5 -48.5t-55 -44.5t-26.5 -66h-117z" />
    <glyph glyph-name="uni030A" unicode="&#x30a;" 
d="M600 1242q-87 0 -144 56t-57 142t57 142t144 56q88 0 144.5 -56t56.5 -142t-56.5 -142t-144.5 -56zM600 1328q48 0 79 30.5t31 81.5q0 53 -31 82.5t-79 29.5t-79 -29.5t-31 -82.5q0 -51 31 -81.5t79 -30.5z" />
    <glyph glyph-name="uni030B" unicode="&#x30b;" 
d="M699 1247l141 369h170l-154 -369h-157zM344 1247l141 369h170l-154 -369h-157z" />
    <glyph glyph-name="uni030C" unicode="&#x30c;" 
d="M510 1247l-229 369h160l178 -299h-38l178 299h160l-229 -369h-180z" />
    <glyph glyph-name="uni030F" unicode="&#x30f;" 
d="M699 1247l-154 369h172l141 -369h-159zM342 1247l-154 369h173l140 -369h-159z" />
    <glyph glyph-name="uni0311" unicode="&#x311;" 
d="M281 1275q8 163 89.5 248.5t228.5 85.5q146 0 229.5 -86t90.5 -248h-134q-7 109 -52.5 163.5t-133.5 54.5q-89 0 -133 -54.5t-51 -163.5h-134z" />
    <glyph glyph-name="uni0312" unicode="&#x312;" 
d="M602 1302q-65 0 -97 31t-32 90q0 46 17 101t46 101h129q-28 -61 -38 -104.5t-10 -86.5l-35 50h18q66 0 96.5 -25t30.5 -67q0 -41 -30.5 -65.5t-94.5 -24.5z" />
    <glyph glyph-name="uni031B" unicode="&#x31b;" 
d="M521 1366v114h71q88 0 138.5 37.5t50.5 123.5q0 36 -5.5 69t-15.5 71h142q13 -37 18 -72t5 -77q0 -88 -36.5 -147.5t-102 -89t-153.5 -29.5h-112z" />
    <glyph glyph-name="dotbelowcomb" unicode="&#x323;" 
d="M600 -385q-59 0 -91.5 31.5t-32.5 84.5t32.5 85t91.5 32t91.5 -32t32.5 -85t-32.5 -84.5t-91.5 -31.5z" />
    <glyph glyph-name="uni0324" unicode="&#x324;" 
d="M825 -389q-58 0 -91 31.5t-33 86.5t33 87t91 32q59 0 91.5 -32t32.5 -87t-32.5 -86.5t-91.5 -31.5zM375 -389q-59 0 -91.5 31.5t-32.5 86.5t32.5 87t91.5 32q58 0 91 -32t33 -87t-33 -86.5t-91 -31.5z" />
    <glyph glyph-name="uni0326" unicode="&#x326;" 
d="M535 -476q28 61 38 104.5t10 87.5l35 -50h-18q-65 0 -96 25t-31 66q0 42 31 66.5t94 24.5q65 0 97 -31t32 -91q0 -46 -16.5 -100.5t-46.5 -101.5h-129z" />
    <glyph glyph-name="uni0327" unicode="&#x327;" 
d="M601 -424q-46 0 -91.5 9t-81.5 25v94q42 -19 86 -27.5t80 -8.5q55 0 82 19.5t27 60.5q0 81 -110 81h-40v191h110v-154l-50 38q102 0 155 -43t53 -121q0 -76 -55.5 -120t-164.5 -44z" />
    <glyph glyph-name="uni0328" unicode="&#x328;" 
d="M508 -424q-112 0 -171 51.5t-59 139.5q0 58 25.5 109t83 97t153.5 88l60 -61q-73 -36 -116 -71.5t-61 -72t-18 -76.5q0 -51 32.5 -80t92.5 -29q33 0 68 9t71 28v-95q-34 -16 -75 -26.5t-86 -10.5z" />
    <glyph glyph-name="uni032E" unicode="&#x32e;" 
d="M601 -432q-150 0 -233.5 75.5t-86.5 204.5h134q4 -79 49.5 -121.5t136.5 -42.5t136 42.5t48 121.5h134q-3 -129 -85 -204.5t-233 -75.5z" />
    <glyph glyph-name="uni0331" unicode="&#x331;" 
d="M296 -334v132h608v-132h-608z" />
    <glyph glyph-name="uni0394" unicode="&#x394;" horiz-adv-x="1382" 
d="M24 0l515 1480h304l515 -1480h-1334zM260 85l-23 89h905l-22 -89l-445 1296h28z" />
    <glyph glyph-name="uni03A9" unicode="&#x3a9;" horiz-adv-x="1477" 
d="M99 0v171h395l26 -79q-135 69 -229.5 171.5t-143 236.5t-48.5 299q0 228 77.5 384t220.5 236t341 80t341.5 -80t221 -236t77.5 -384q0 -165 -49 -299t-143 -236.5t-229 -171.5l26 79h395v-171h-540v143q110 82 181.5 176.5t105.5 209t34 255.5q0 185 -49.5 304
t-143.5 176.5t-228 57.5t-228 -57.5t-143.5 -176.5t-49.5 -304q0 -141 34.5 -255.5t106 -209t180.5 -176.5v-143h-539z" />
    <glyph glyph-name="uni03BC" unicode="&#x3bc;" horiz-adv-x="1153" 
d="M524 -18q-89 0 -155.5 38.5t-102.5 125.5t-36 232v183h109v-171q0 -127 55.5 -176t144.5 -49q44 0 92 13t93 41t80 73v796h208v-1088h-174l-14 116h-11q-59 -67 -133.5 -100.5t-155.5 -33.5zM130 -440v1527h209v-1527h-209z" />
    <glyph glyph-name="pi" unicode="&#x3c0;" horiz-adv-x="1354" 
d="M1170 -19q-161 0 -250 83.5t-90 271.5l-1 656h210v-623q0 -120 43.5 -166t138.5 -46q25 0 53 4t58 10v-171q-34 -8 -77.5 -13.5t-84.5 -5.5zM209 -1v994h209v-994h-209zM13 919v169h1222v-169h-1222z" />
    <glyph glyph-name="uni1E08" unicode="&#x1e08;" horiz-adv-x="1177" 
d="M800 -19q-163 0 -292.5 41.5t-221 131.5t-139.5 234t-48 349q0 264 85 432.5t245.5 249t386.5 80.5q85 0 164 -10t155 -31v-180q-76 21 -151.5 31t-155.5 10q-166 0 -278.5 -56.5t-170.5 -183.5t-58 -338q0 -218 58.5 -344.5t169 -181t268.5 -54.5q80 0 156.5 12.5
t161.5 40.5v-180q-73 -25 -158 -39t-177 -14zM718 -424q-52 0 -102.5 9.5t-93.5 25.5v94q51 -20 97.5 -28.5t89.5 -8.5q61 0 94 19t33 61q0 43 -33.5 62t-95.5 19h-43v191h110v-154l-44 39q107 0 165.5 -41.5t58.5 -121.5q0 -79 -60.5 -122.5t-175.5 -43.5zM622 1604
l178 290h223l-212 -290h-189z" />
    <glyph glyph-name="uni1E09" unicode="&#x1e09;" horiz-adv-x="902" 
d="M594 -20q-163 0 -276.5 60t-172.5 184t-59 319q0 196 63.5 320t185.5 183t297 59q60 0 118 -7t111 -20v-172q-53 13 -103.5 19.5t-100.5 6.5q-120 0 -199 -38t-117.5 -122.5t-38.5 -225.5q0 -144 36.5 -230t108.5 -124t178 -38q52 0 108.5 10t127.5 31v-171
q-62 -21 -130 -32.5t-137 -11.5zM530 -424q-46 0 -91.5 9t-81.5 25v94q42 -19 86 -27.5t80 -8.5q55 0 82 19.5t27 60.5q0 81 -110 81h-40v191h110v-154l-50 38q102 0 155 -43t53 -121q0 -76 -55.5 -120t-164.5 -44zM425 1247l218 369h224l-250 -369h-192z" />
    <glyph glyph-name="uni1E0C" unicode="&#x1e0c;" horiz-adv-x="1431" 
d="M525 -13q-57 0 -116.5 2.5t-121.5 7t-129 12.5v1444q63 13 132.5 22.5t140.5 14.5t139 5q378 0 570 -184.5t192 -570.5q0 -262 -90 -428.5t-269.5 -245.5t-447.5 -79zM573 164q181 0 301 58.5t180 185.5t60 333q0 204 -59 331.5t-177.5 187t-296.5 59.5
q-49 0 -103.5 -4.5t-107.5 -13.5v-1126q49 -5 97.5 -8t105.5 -3zM652 -371q-66 0 -101.5 29t-35.5 80t35.5 80.5t101.5 29.5t101.5 -29.5t35.5 -80.5t-35.5 -80t-101.5 -29z" />
    <glyph glyph-name="uni1E0D" unicode="&#x1e0d;" horiz-adv-x="1160" 
d="M520 -19q-119 0 -217.5 54t-157.5 172.5t-59 314.5q0 194 64 323.5t189.5 194.5t309.5 65q42 0 84 -3.5t77 -8.5v523h209v-1616h-177l-13 117h-12q-48 -60 -123.5 -98t-173.5 -38zM574 156q66 0 129 28t107 88v651q-33 8 -76.5 12.5t-86.5 4.5q-173 0 -261 -93t-88 -308
q0 -148 35 -231.5t97.5 -117.5t143.5 -34zM583 -385q-59 0 -91.5 31.5t-32.5 84.5t32.5 85t91.5 32t91.5 -32t32.5 -85t-32.5 -84.5t-91.5 -31.5z" />
    <glyph glyph-name="uni1E0E" unicode="&#x1e0e;" horiz-adv-x="1431" 
d="M525 -13q-57 0 -116.5 2.5t-121.5 7t-129 12.5v1444q63 13 132.5 22.5t140.5 14.5t139 5q378 0 570 -184.5t192 -570.5q0 -262 -90 -428.5t-269.5 -245.5t-447.5 -79zM573 164q181 0 301 58.5t180 185.5t60 333q0 204 -59 331.5t-177.5 187t-296.5 59.5
q-49 0 -103.5 -4.5t-107.5 -13.5v-1126q49 -5 97.5 -8t105.5 -3zM327 -325v134h650v-134h-650z" />
    <glyph glyph-name="uni1E0F" unicode="&#x1e0f;" horiz-adv-x="1160" 
d="M520 -19q-119 0 -217.5 54t-157.5 172.5t-59 314.5q0 194 64 323.5t189.5 194.5t309.5 65q42 0 84 -3.5t77 -8.5v523h209v-1616h-177l-13 117h-12q-48 -60 -123.5 -98t-173.5 -38zM574 156q66 0 129 28t107 88v651q-33 8 -76.5 12.5t-86.5 4.5q-173 0 -261 -93t-88 -308
q0 -148 35 -231.5t97.5 -117.5t143.5 -34zM279 -334v132h608v-132h-608z" />
    <glyph glyph-name="uni1E14" unicode="&#x1e14;" horiz-adv-x="1193" 
d="M158 0v1480h954v-175h-744v-1130h754v-175h-964zM288 671v175h725v-175h-725zM554 1924l-212 232h242l178 -232h-208zM332 1679v133h650v-133h-650z" />
    <glyph glyph-name="uni1E15" unicode="&#x1e15;" horiz-adv-x="1054" 
d="M627 -20q-180 0 -300.5 58t-180.5 182.5t-60 323.5q0 188 55.5 312.5t158.5 186.5t246 62q140 0 237.5 -62t148 -187.5t50.5 -316.5v-60h-780v132h623l-40 -22q0 138 -28 220t-82 117.5t-131 35.5t-132.5 -35t-85.5 -117t-30 -221v-78q0 -135 37 -215.5t116 -115.5
t205 -35q62 0 130 10.5t142 30.5v-164q-81 -22 -154 -32t-145 -10zM219 1355v133h648v-133h-648zM448 1630l-211 290h222l179 -290h-190z" />
    <glyph glyph-name="uni1E16" unicode="&#x1e16;" horiz-adv-x="1193" 
d="M158 0v1480h954v-175h-744v-1130h754v-175h-964zM288 671v175h725v-175h-725zM552 1924l178 232h242l-211 -232h-209zM332 1679v133h650v-133h-650z" />
    <glyph glyph-name="uni1E17" unicode="&#x1e17;" horiz-adv-x="1054" 
d="M627 -20q-180 0 -300.5 58t-180.5 182.5t-60 323.5q0 188 55.5 312.5t158.5 186.5t246 62q140 0 237.5 -62t148 -187.5t50.5 -316.5v-60h-780v132h623l-40 -22q0 138 -28 220t-82 117.5t-131 35.5t-132.5 -35t-85.5 -117t-30 -221v-78q0 -135 37 -215.5t116 -115.5
t205 -35q62 0 130 10.5t142 30.5v-164q-81 -22 -154 -32t-145 -10zM219 1355v133h648v-133h-648zM448 1630l178 290h223l-212 -290h-189z" />
    <glyph glyph-name="uni1E1C" unicode="&#x1e1c;" horiz-adv-x="1193" 
d="M158 0v1480h954v-175h-744v-1130h754v-175h-964zM288 671v175h725v-175h-725zM650 -424q-52 0 -102.5 9.5t-93.5 25.5v94q51 -20 97.5 -28.5t89.5 -8.5q61 0 94 19t33 61q0 43 -33.5 62t-95.5 19h-43v191h110v-154l-44 39q107 0 165.5 -41.5t58.5 -121.5
q0 -79 -60.5 -122.5t-175.5 -43.5zM658 1611q-106 0 -178.5 33t-112.5 92.5t-48 140.5h134q12 -75 59 -113.5t146 -38.5q100 0 146 38.5t57 113.5h134q-8 -81 -47.5 -140.5t-111.5 -92.5t-178 -33z" />
    <glyph glyph-name="uni1E1D" unicode="&#x1e1d;" horiz-adv-x="1054" 
d="M627 -20q-180 0 -300.5 58t-180.5 182.5t-60 323.5q0 188 55.5 312.5t158.5 186.5t246 62q140 0 237.5 -62t148 -187.5t50.5 -316.5v-60h-780v132h623l-40 -22q0 138 -28 220t-82 117.5t-131 35.5t-132.5 -35t-85.5 -117t-30 -221v-78q0 -135 37 -215.5t116 -115.5
t205 -35q62 0 130 10.5t142 30.5v-164q-81 -22 -154 -32t-145 -10zM544 -424q-46 0 -91.5 9t-81.5 25v94q42 -19 86 -27.5t80 -8.5q55 0 82 19.5t27 60.5q0 81 -110 81h-40v191h110v-154l-50 38q102 0 155 -43t53 -121q0 -76 -55.5 -120t-164.5 -44zM544 1257
q-145 0 -228.5 86.5t-91.5 247.5h134q8 -108 53 -163t133 -55q89 0 133.5 55t50.5 163h134q-7 -161 -89.5 -247.5t-228.5 -86.5z" />
    <glyph glyph-name="uni1E20" unicode="&#x1e20;" horiz-adv-x="1371" 
d="M885 -14q-260 0 -434.5 79.5t-263 245.5t-88.5 426q0 265 91 433t261.5 248.5t407.5 80.5q85 0 167.5 -10.5t164.5 -31.5v-180q-86 23 -163.5 32.5t-153.5 9.5q-177 0 -300.5 -57t-188.5 -185t-65 -341q0 -203 61.5 -329t183.5 -184t305 -58q68 0 130 5.5t115 14.5
l-87 -83v618h199v-704q-94 -15 -176 -22.5t-166 -7.5zM438 1679v133h650v-133h-650z" />
    <glyph glyph-name="uni1E21" unicode="&#x1e21;" horiz-adv-x="1160" 
d="M492 -460q-79 0 -167.5 12t-166.5 35v170q87 -26 167.5 -38.5t152.5 -12.5q171 0 251.5 71t80.5 243v95h-11q-48 -57 -123 -92t-172 -35q-112 0 -207 53.5t-153 171t-58 309.5q0 290 144.5 436.5t427.5 146.5q60 0 123.5 -6.5t124.5 -18t113 -28.5v-997
q0 -274 -131.5 -394.5t-395.5 -120.5zM574 163q65 0 128.5 26t107.5 81v650q-33 9 -77.5 14.5t-91.5 5.5q-167 0 -255 -93t-88 -306q0 -148 35.5 -230t97.5 -115t143 -33zM277 1355v133h648v-133h-648z" />
    <glyph glyph-name="uni1E24" unicode="&#x1e24;" horiz-adv-x="1470" 
d="M158 0v1480h212v-627h729v627h213v-1480h-213v664h-729v-664h-212zM735 -371q-66 0 -101.5 29t-35.5 80t35.5 80.5t101.5 29.5t101.5 -29.5t35.5 -80.5t-35.5 -80t-101.5 -29z" />
    <glyph glyph-name="uni1E25" unicode="&#x1e25;" horiz-adv-x="1163" 
d="M141 0v1616h209v-646h11q63 67 145.5 101t179.5 34q99 0 177.5 -39t124 -126t45.5 -233v-707h-209v695q0 128 -56 176.5t-149 48.5q-46 0 -95 -12.5t-94.5 -40.5t-79.5 -74v-793h-209zM588 -385q-59 0 -91.5 31.5t-32.5 84.5t32.5 85t91.5 32t91.5 -32t32.5 -85
t-32.5 -84.5t-91.5 -31.5z" />
    <glyph glyph-name="uni1E2A" unicode="&#x1e2a;" horiz-adv-x="1470" 
d="M158 0v1480h212v-627h729v627h213v-1480h-213v664h-729v-664h-212zM736 -420q-108 0 -181.5 33.5t-113 94.5t-44.5 142h134q8 -75 56.5 -116t148.5 -41q101 0 148.5 41t54.5 116h134q-5 -82 -44 -142.5t-112 -94t-181 -33.5z" />
    <glyph glyph-name="uni1E2B" unicode="&#x1e2b;" horiz-adv-x="1163" 
d="M141 0v1616h209v-646h11q63 67 145.5 101t179.5 34q99 0 177.5 -39t124 -126t45.5 -233v-707h-209v695q0 128 -56 176.5t-149 48.5q-46 0 -95 -12.5t-94.5 -40.5t-79.5 -74v-793h-209zM589 -432q-150 0 -233.5 75.5t-86.5 204.5h134q4 -79 49.5 -121.5t136.5 -42.5
t136 42.5t48 121.5h134q-3 -129 -85 -204.5t-233 -75.5z" />
    <glyph glyph-name="uni1E2E" unicode="&#x1e2e;" horiz-adv-x="528" 
d="M158 0v1480h212v-1480h-212zM159 1924l178 232h242l-211 -232h-209zM505 1643q-60 0 -92 29t-32 79q0 51 32 80.5t92 29.5q59 0 91 -29.5t32 -80.5q0 -50 -32 -79t-91 -29zM23 1643q-59 0 -91 29t-32 79q0 51 32 80.5t91 29.5q60 0 92 -29.5t32 -80.5q0 -50 -32 -79
t-92 -29z" />
    <glyph glyph-name="uni1E2F" unicode="&#x1e2f;" horiz-adv-x="492" 
d="M141 0v1088h209v-1088h-209zM471 1303q-58 0 -91 31.5t-33 85.5q0 56 33 87.5t91 31.5q59 0 91.5 -31.5t32.5 -87.5q0 -54 -32.5 -85.5t-91.5 -31.5zM21 1303q-59 0 -91.5 31.5t-32.5 85.5q0 56 32.5 87.5t91.5 31.5q58 0 91 -31.5t33 -87.5q0 -54 -33 -85.5t-91 -31.5z
M151 1675l178 290h223l-212 -290h-189z" />
    <glyph glyph-name="uni1E36" unicode="&#x1e36;" horiz-adv-x="1095" 
d="M158 0v1480h212v-1299h714v-181h-926zM622 -371q-66 0 -101.5 29t-35.5 80t35.5 80.5t101.5 29.5t101.5 -29.5t35.5 -80.5t-35.5 -80t-101.5 -29z" />
    <glyph glyph-name="uni1E37" unicode="&#x1e37;" horiz-adv-x="491" 
d="M141 0v1616h209v-1616h-209zM245 -385q-59 0 -91.5 31.5t-32.5 84.5t32.5 85t91.5 32t91.5 -32t32.5 -85t-32.5 -84.5t-91.5 -31.5z" />
    <glyph glyph-name="uni1E3A" unicode="&#x1e3a;" horiz-adv-x="1095" 
d="M158 0v1480h212v-1299h714v-181h-926zM297 -325v134h650v-134h-650z" />
    <glyph glyph-name="uni1E3B" unicode="&#x1e3b;" horiz-adv-x="491" 
d="M141 0v1616h209v-1616h-209zM-59 -334v132h608v-132h-608z" />
    <glyph glyph-name="uni1E42" unicode="&#x1e42;" horiz-adv-x="1796" 
d="M162 0v1480h255l503 -1097h-36l495 1097h255v-1480h-199v1295h52l-497 -1087h-184l-505 1087h60v-1295h-199zM909 -371q-66 0 -101.5 29t-35.5 80t35.5 80.5t101.5 29.5t101.5 -29.5t35.5 -80.5t-35.5 -80t-101.5 -29z" />
    <glyph glyph-name="uni1E43" unicode="&#x1e43;" horiz-adv-x="1729" 
d="M141 0v1088h174l15 -120h12q61 68 140.5 102.5t170.5 34.5q93 0 166 -38.5t115 -124.5t42 -230v-712h-205v696q0 128 -49.5 177t-131.5 49q-41 0 -85 -13.5t-84 -42.5t-71 -76v-790h-209zM1390 0v696q0 128 -52 177t-134 49q-42 0 -88.5 -14t-90 -47t-74.5 -89l-48 153
q78 99 172.5 139.5t184.5 40.5q98 0 174.5 -39t120 -126.5t43.5 -233.5v-706h-208zM874 -385q-59 0 -91.5 31.5t-32.5 84.5t32.5 85t91.5 32t91.5 -32t32.5 -85t-32.5 -84.5t-91.5 -31.5z" />
    <glyph glyph-name="uni1E44" unicode="&#x1e44;" horiz-adv-x="1492" 
d="M158 0v1480h216l804 -1228h-44v1228h200v-1480h-216l-804 1228h44v-1228h-200zM746 1643q-66 0 -101.5 29t-35.5 79q0 52 35.5 81t101.5 29t101.5 -29t35.5 -81q0 -50 -35.5 -79t-101.5 -29z" />
    <glyph glyph-name="uni1E45" unicode="&#x1e45;" horiz-adv-x="1163" 
d="M141 0v1088h174l15 -119h12q64 66 150.5 101t183.5 35q104 0 184.5 -39t126.5 -126.5t46 -233.5v-706h-209v695q0 128 -55 177.5t-150 49.5q-44 0 -93 -13t-95 -41t-81 -74v-794h-209zM588 1300q-68 0 -103 32t-35 88q0 58 35 90t103 32q69 0 103.5 -32t34.5 -90
q0 -56 -34.5 -88t-103.5 -32z" />
    <glyph glyph-name="uni1E46" unicode="&#x1e46;" horiz-adv-x="1492" 
d="M158 0v1480h216l804 -1228h-44v1228h200v-1480h-216l-804 1228h44v-1228h-200zM746 -371q-66 0 -101.5 29t-35.5 80t35.5 80.5t101.5 29.5t101.5 -29.5t35.5 -80.5t-35.5 -80t-101.5 -29z" />
    <glyph glyph-name="uni1E47" unicode="&#x1e47;" horiz-adv-x="1163" 
d="M141 0v1088h174l15 -119h12q64 66 150.5 101t183.5 35q104 0 184.5 -39t126.5 -126.5t46 -233.5v-706h-209v695q0 128 -55 177.5t-150 49.5q-44 0 -93 -13t-95 -41t-81 -74v-794h-209zM588 -385q-59 0 -91.5 31.5t-32.5 84.5t32.5 85t91.5 32t91.5 -32t32.5 -85
t-32.5 -84.5t-91.5 -31.5z" />
    <glyph glyph-name="uni1E48" unicode="&#x1e48;" horiz-adv-x="1492" 
d="M158 0v1480h216l804 -1228h-44v1228h200v-1480h-216l-804 1228h44v-1228h-200zM421 -325v134h650v-134h-650z" />
    <glyph glyph-name="uni1E49" unicode="&#x1e49;" horiz-adv-x="1163" 
d="M141 0v1088h174l15 -119h12q64 66 150.5 101t183.5 35q104 0 184.5 -39t126.5 -126.5t46 -233.5v-706h-209v695q0 128 -55 177.5t-150 49.5q-44 0 -93 -13t-95 -41t-81 -74v-794h-209zM284 -334v132h608v-132h-608z" />
    <glyph glyph-name="uni1E4C" unicode="&#x1e4c;" horiz-adv-x="1477" 
d="M738 -19q-192 0 -336 79.5t-223.5 247.5t-79.5 432t80 432t223.5 247.5t335.5 79.5q193 0 337 -80t223.5 -247.5t79.5 -431.5t-80 -431.5t-224 -247.5t-336 -80zM738 158q129 0 223.5 56.5t146 183t51.5 336.5q0 217 -52 345.5t-146.5 185.5t-222.5 57t-222.5 -56
t-146.5 -182.5t-52 -337.5q0 -217 52 -346t146.5 -185.5t222.5 -56.5zM633 1924l177 232h243l-212 -232h-208zM898 1653q-50 0 -92.5 13t-83.5 28q-36 14 -72 24.5t-75 10.5q-56 0 -98 -17.5t-82 -52.5v132q34 34 78 50.5t105 16.5q50 0 93 -12.5t83 -28.5q37 -13 73 -24
t74 -11q56 0 98 17.5t82 52.5v-132q-34 -33 -78 -50t-105 -17z" />
    <glyph glyph-name="uni1E4D" unicode="&#x1e4d;" horiz-adv-x="1140" 
d="M570 -20q-147 0 -255.5 60t-168.5 184t-60 318q0 195 59 319t167.5 184t257.5 60t257.5 -60t167.5 -184t59 -318q0 -193 -59.5 -318t-168.5 -185t-256 -60zM570 145q84 0 145 36.5t94 123t33 236.5q0 152 -33 239t-94 123.5t-145 36.5t-145 -36t-94 -122.5t-33 -236.5
q0 -152 32.5 -239t94 -124t145.5 -37zM717 1327q-44 0 -84.5 14.5t-78.5 30.5q-34 16 -67.5 28t-67.5 12q-50 0 -91 -19t-82 -60v141q67 71 177 71q45 0 85.5 -15t77.5 -31q35 -15 68 -27.5t67 -12.5q51 0 92 19.5t81 59.5v-141q-67 -70 -177 -70zM475 1640l178 290h223
l-212 -290h-189z" />
    <glyph glyph-name="uni1E4E" unicode="&#x1e4e;" horiz-adv-x="1477" 
d="M738 -19q-192 0 -336 79.5t-223.5 247.5t-79.5 432t80 432t223.5 247.5t335.5 79.5q193 0 337 -80t223.5 -247.5t79.5 -431.5t-80 -431.5t-224 -247.5t-336 -80zM738 158q129 0 223.5 56.5t146 183t51.5 336.5q0 217 -52 345.5t-146.5 185.5t-222.5 57t-222.5 -56
t-146.5 -182.5t-52 -337.5q0 -217 52 -346t146.5 -185.5t222.5 -56.5zM898 1653q-50 0 -92.5 13t-83.5 28q-36 14 -72 24.5t-75 10.5q-56 0 -98 -17.5t-82 -52.5v132q34 34 78 50.5t105 16.5q50 0 93 -12.5t83 -28.5q37 -13 73 -24t74 -11q56 0 98 17.5t82 52.5v-132
q-34 -33 -78 -50t-105 -17zM979 1939q-60 0 -92 29t-32 79q0 51 32 80.5t92 29.5q59 0 91 -29.5t32 -80.5q0 -50 -32 -79t-91 -29zM497 1939q-59 0 -91 29t-32 79q0 51 32 80.5t91 29.5q60 0 92 -29.5t32 -80.5q0 -50 -32 -79t-92 -29z" />
    <glyph glyph-name="uni1E4F" unicode="&#x1e4f;" horiz-adv-x="1140" 
d="M570 -20q-147 0 -255.5 60t-168.5 184t-60 318q0 195 59 319t167.5 184t257.5 60t257.5 -60t167.5 -184t59 -318q0 -193 -59.5 -318t-168.5 -185t-256 -60zM570 145q84 0 145 36.5t94 123t33 236.5q0 152 -33 239t-94 123.5t-145 36.5t-145 -36t-94 -122.5t-33 -236.5
q0 -152 32.5 -239t94 -124t145.5 -37zM717 1327q-44 0 -84.5 14.5t-78.5 30.5q-34 16 -67.5 28t-67.5 12q-50 0 -91 -19t-82 -60v141q67 71 177 71q45 0 85.5 -15t77.5 -31q35 -15 68 -27.5t67 -12.5q51 0 92 19.5t81 59.5v-141q-67 -70 -177 -70zM795 1637q-58 0 -91 31.5
t-33 85.5q0 56 33 87.5t91 31.5q59 0 91.5 -31.5t32.5 -87.5q0 -54 -32.5 -85.5t-91.5 -31.5zM345 1637q-59 0 -91.5 31.5t-32.5 85.5q0 56 32.5 87.5t91.5 31.5q58 0 91 -31.5t33 -87.5q0 -54 -33 -85.5t-91 -31.5z" />
    <glyph glyph-name="uni1E50" unicode="&#x1e50;" horiz-adv-x="1477" 
d="M738 -19q-192 0 -336 79.5t-223.5 247.5t-79.5 432t80 432t223.5 247.5t335.5 79.5q193 0 337 -80t223.5 -247.5t79.5 -431.5t-80 -431.5t-224 -247.5t-336 -80zM738 158q129 0 223.5 56.5t146 183t51.5 336.5q0 217 -52 345.5t-146.5 185.5t-222.5 57t-222.5 -56
t-146.5 -182.5t-52 -337.5q0 -217 52 -346t146.5 -185.5t222.5 -56.5zM635 1924l-212 232h242l178 -232h-208zM413 1679v133h650v-133h-650z" />
    <glyph glyph-name="uni1E51" unicode="&#x1e51;" horiz-adv-x="1140" 
d="M570 -20q-147 0 -255.5 60t-168.5 184t-60 318q0 195 59 319t167.5 184t257.5 60t257.5 -60t167.5 -184t59 -318q0 -193 -59.5 -318t-168.5 -185t-256 -60zM570 145q84 0 145 36.5t94 123t33 236.5q0 152 -33 239t-94 123.5t-145 36.5t-145 -36t-94 -122.5t-33 -236.5
q0 -152 32.5 -239t94 -124t145.5 -37zM246 1355v133h648v-133h-648zM475 1630l-211 290h222l179 -290h-190z" />
    <glyph glyph-name="uni1E52" unicode="&#x1e52;" horiz-adv-x="1477" 
d="M738 -19q-192 0 -336 79.5t-223.5 247.5t-79.5 432t80 432t223.5 247.5t335.5 79.5q193 0 337 -80t223.5 -247.5t79.5 -431.5t-80 -431.5t-224 -247.5t-336 -80zM738 158q129 0 223.5 56.5t146 183t51.5 336.5q0 217 -52 345.5t-146.5 185.5t-222.5 57t-222.5 -56
t-146.5 -182.5t-52 -337.5q0 -217 52 -346t146.5 -185.5t222.5 -56.5zM633 1924l178 232h242l-211 -232h-209zM413 1679v133h650v-133h-650z" />
    <glyph glyph-name="uni1E53" unicode="&#x1e53;" horiz-adv-x="1140" 
d="M570 -20q-147 0 -255.5 60t-168.5 184t-60 318q0 195 59 319t167.5 184t257.5 60t257.5 -60t167.5 -184t59 -318q0 -193 -59.5 -318t-168.5 -185t-256 -60zM570 145q84 0 145 36.5t94 123t33 236.5q0 152 -33 239t-94 123.5t-145 36.5t-145 -36t-94 -122.5t-33 -236.5
q0 -152 32.5 -239t94 -124t145.5 -37zM246 1355v133h648v-133h-648zM475 1630l178 290h223l-212 -290h-189z" />
    <glyph glyph-name="uni1E5A" unicode="&#x1e5a;" horiz-adv-x="1329" 
d="M158 0v1453q60 12 126 22t138.5 15.5t150.5 5.5q301 0 449.5 -109t148.5 -341q0 -150 -71.5 -251.5t-208 -153t-334.5 -51.5q-56 0 -100 2.5t-90 5.5v-598h-209zM1050 0l-508 692h233l513 -692h-238zM560 755q214 0 312 70.5t98 219.5q0 102 -40 165.5t-123.5 93
t-215.5 29.5q-68 0 -120.5 -5t-103.5 -14v-550q35 -3 64.5 -5.5t60 -3t68.5 -0.5zM695 -371q-66 0 -101.5 29t-35.5 80t35.5 80.5t101.5 29.5t101.5 -29.5t35.5 -80.5t-35.5 -80t-101.5 -29z" />
    <glyph glyph-name="uni1E5B" unicode="&#x1e5b;" horiz-adv-x="750" 
d="M141 0v1088h173l17 -144h11q53 78 135 117t174 39q24 0 46 -2t41 -6v-191q-24 4 -48.5 5.5t-49.5 1.5q-52 0 -106.5 -15.5t-102.5 -46.5t-81 -77v-769h-209zM246 -385q-59 0 -91.5 31.5t-32.5 84.5t32.5 85t91.5 32t91.5 -32t32.5 -85t-32.5 -84.5t-91.5 -31.5z" />
    <glyph glyph-name="uni1E5E" unicode="&#x1e5e;" horiz-adv-x="1329" 
d="M158 0v1453q60 12 126 22t138.5 15.5t150.5 5.5q301 0 449.5 -109t148.5 -341q0 -150 -71.5 -251.5t-208 -153t-334.5 -51.5q-56 0 -100 2.5t-90 5.5v-598h-209zM1050 0l-508 692h233l513 -692h-238zM560 755q214 0 312 70.5t98 219.5q0 102 -40 165.5t-123.5 93
t-215.5 29.5q-68 0 -120.5 -5t-103.5 -14v-550q35 -3 64.5 -5.5t60 -3t68.5 -0.5zM370 -325v134h650v-134h-650z" />
    <glyph glyph-name="uni1E5F" unicode="&#x1e5f;" horiz-adv-x="750" 
d="M141 0v1088h173l17 -144h11q53 78 135 117t174 39q24 0 46 -2t41 -6v-191q-24 4 -48.5 5.5t-49.5 1.5q-52 0 -106.5 -15.5t-102.5 -46.5t-81 -77v-769h-209zM-58 -334v132h608v-132h-608z" />
    <glyph glyph-name="uni1E60" unicode="&#x1e60;" horiz-adv-x="1090" 
d="M475 -19q-95 0 -193.5 15.5t-186.5 45.5v178q62 -21 128 -35t130 -21t123 -7q173 0 253 62t80 179q0 100 -60 153.5t-209 91.5l-90 23q-190 49 -286 148.5t-96 262.5q0 197 139 309.5t415 112.5q91 0 177 -11.5t155 -32.5v-178q-74 23 -156.5 34.5t-166.5 11.5
q-124 0 -201 -28t-113 -81t-36 -126q0 -95 54.5 -148t192.5 -90l90 -23q139 -35 228.5 -90.5t132.5 -135.5t43 -189q0 -136 -64.5 -232.5t-187 -147.5t-295.5 -51zM555 1643q-66 0 -101.5 29t-35.5 79q0 52 35.5 81t101.5 29t101.5 -29t35.5 -81q0 -50 -35.5 -79t-101.5 -29
z" />
    <glyph glyph-name="uni1E61" unicode="&#x1e61;" horiz-adv-x="925" 
d="M419 -20q-85 0 -164 11.5t-152 33.5v161q80 -23 157.5 -34.5t157.5 -11.5q131 0 188.5 42t57.5 118q0 64 -33 97.5t-113 50.5l-156 31q-151 31 -216.5 105.5t-65.5 195.5q0 143 112.5 234t344.5 91q72 0 140 -8.5t127 -24.5v-161q-65 18 -129 26t-133 8
q-100 0 -157.5 -21.5t-82 -57.5t-24.5 -81q0 -55 31.5 -91t110.5 -54l156 -30q149 -30 217.5 -101.5t68.5 -199.5q0 -152 -113.5 -240.5t-329.5 -88.5zM467 1300q-68 0 -103 32t-35 88q0 58 35 90t103 32q69 0 103.5 -32t34.5 -90q0 -56 -34.5 -88t-103.5 -32z" />
    <glyph glyph-name="uni1E62" unicode="&#x1e62;" horiz-adv-x="1090" 
d="M475 -19q-95 0 -193.5 15.5t-186.5 45.5v178q62 -21 128 -35t130 -21t123 -7q173 0 253 62t80 179q0 100 -60 153.5t-209 91.5l-90 23q-190 49 -286 148.5t-96 262.5q0 197 139 309.5t415 112.5q91 0 177 -11.5t155 -32.5v-178q-74 23 -156.5 34.5t-166.5 11.5
q-124 0 -201 -28t-113 -81t-36 -126q0 -95 54.5 -148t192.5 -90l90 -23q139 -35 228.5 -90.5t132.5 -135.5t43 -189q0 -136 -64.5 -232.5t-187 -147.5t-295.5 -51zM555 -371q-66 0 -101.5 29t-35.5 80t35.5 80.5t101.5 29.5t101.5 -29.5t35.5 -80.5t-35.5 -80t-101.5 -29z
" />
    <glyph glyph-name="uni1E63" unicode="&#x1e63;" horiz-adv-x="925" 
d="M419 -20q-85 0 -164 11.5t-152 33.5v161q80 -23 157.5 -34.5t157.5 -11.5q131 0 188.5 42t57.5 118q0 64 -33 97.5t-113 50.5l-156 31q-151 31 -216.5 105.5t-65.5 195.5q0 143 112.5 234t344.5 91q72 0 140 -8.5t127 -24.5v-161q-65 18 -129 26t-133 8
q-100 0 -157.5 -21.5t-82 -57.5t-24.5 -81q0 -55 31.5 -91t110.5 -54l156 -30q149 -30 217.5 -101.5t68.5 -199.5q0 -152 -113.5 -240.5t-329.5 -88.5zM467 -385q-59 0 -91.5 31.5t-32.5 84.5t32.5 85t91.5 32t91.5 -32t32.5 -85t-32.5 -84.5t-91.5 -31.5z" />
    <glyph glyph-name="uni1E64" unicode="&#x1e64;" horiz-adv-x="1090" 
d="M475 -19q-95 0 -193.5 15.5t-186.5 45.5v178q62 -21 128 -35t130 -21t123 -7q173 0 253 62t80 179q0 100 -60 153.5t-209 91.5l-90 23q-190 49 -286 148.5t-96 262.5q0 197 139 309.5t415 112.5q91 0 177 -11.5t155 -32.5v-178q-74 23 -156.5 34.5t-166.5 11.5
q-124 0 -201 -28t-113 -81t-36 -126q0 -95 54.5 -148t192.5 -90l90 -23q139 -35 228.5 -90.5t132.5 -135.5t43 -189q0 -136 -64.5 -232.5t-187 -147.5t-295.5 -51zM392 1854q-56 0 -86 25t-30 69t30 69.5t86 25.5q57 0 87 -25.5t30 -69.5t-30 -69t-87 -25zM460 1604l178 290
h223l-212 -290h-189z" />
    <glyph glyph-name="uni1E65" unicode="&#x1e65;" horiz-adv-x="925" 
d="M419 -20q-85 0 -164 11.5t-152 33.5v161q80 -23 157.5 -34.5t157.5 -11.5q131 0 188.5 42t57.5 118q0 64 -33 97.5t-113 50.5l-156 31q-151 31 -216.5 105.5t-65.5 195.5q0 143 112.5 234t344.5 91q72 0 140 -8.5t127 -24.5v-161q-65 18 -129 26t-133 8
q-100 0 -157.5 -21.5t-82 -57.5t-24.5 -81q0 -55 31.5 -91t110.5 -54l156 -30q149 -30 217.5 -101.5t68.5 -199.5q0 -152 -113.5 -240.5t-329.5 -88.5zM343 1576q-56 0 -86 25.5t-30 68.5q0 45 30 70.5t86 25.5q57 0 87 -25.5t30 -70.5q0 -43 -30 -68.5t-87 -25.5zM371 1247
l218 369h224l-250 -369h-192z" />
    <glyph glyph-name="uni1E66" unicode="&#x1e66;" horiz-adv-x="1090" 
d="M475 -19q-95 0 -193.5 15.5t-186.5 45.5v178q62 -21 128 -35t130 -21t123 -7q173 0 253 62t80 179q0 100 -60 153.5t-209 91.5l-90 23q-190 49 -286 148.5t-96 262.5q0 197 139 309.5t415 112.5q91 0 177 -11.5t155 -32.5v-178q-74 23 -156.5 34.5t-166.5 11.5
q-124 0 -201 -28t-113 -81t-36 -126q0 -95 54.5 -148t192.5 -90l90 -23q139 -35 228.5 -90.5t132.5 -135.5t43 -189q0 -136 -64.5 -232.5t-187 -147.5t-295.5 -51zM555 1909q-56 0 -86.5 25.5t-30.5 69.5t30.5 69.5t86.5 25.5t86.5 -25.5t30.5 -69.5t-30.5 -69.5
t-86.5 -25.5zM462 1604l-248 290h171l190 -229h-40l190 229h171l-248 -290h-186z" />
    <glyph glyph-name="uni1E67" unicode="&#x1e67;" horiz-adv-x="925" 
d="M419 -20q-85 0 -164 11.5t-152 33.5v161q80 -23 157.5 -34.5t157.5 -11.5q131 0 188.5 42t57.5 118q0 64 -33 97.5t-113 50.5l-156 31q-151 31 -216.5 105.5t-65.5 195.5q0 143 112.5 234t344.5 91q72 0 140 -8.5t127 -24.5v-161q-65 18 -129 26t-133 8
q-100 0 -157.5 -21.5t-82 -57.5t-24.5 -81q0 -55 31.5 -91t110.5 -54l156 -30q149 -30 217.5 -101.5t68.5 -199.5q0 -152 -113.5 -240.5t-329.5 -88.5zM467 1631q-56 0 -86.5 25t-30.5 69t30.5 69.5t86.5 25.5t86.5 -25.5t30.5 -69.5t-30.5 -69t-86.5 -25zM377 1247
l-229 369h160l178 -299h-38l178 299h160l-229 -369h-180z" />
    <glyph glyph-name="uni1E68" unicode="&#x1e68;" horiz-adv-x="1090" 
d="M475 -19q-95 0 -193.5 15.5t-186.5 45.5v178q62 -21 128 -35t130 -21t123 -7q173 0 253 62t80 179q0 100 -60 153.5t-209 91.5l-90 23q-190 49 -286 148.5t-96 262.5q0 197 139 309.5t415 112.5q91 0 177 -11.5t155 -32.5v-178q-74 23 -156.5 34.5t-166.5 11.5
q-124 0 -201 -28t-113 -81t-36 -126q0 -95 54.5 -148t192.5 -90l90 -23q139 -35 228.5 -90.5t132.5 -135.5t43 -189q0 -136 -64.5 -232.5t-187 -147.5t-295.5 -51zM555 -371q-66 0 -101.5 29t-35.5 80t35.5 80.5t101.5 29.5t101.5 -29.5t35.5 -80.5t-35.5 -80t-101.5 -29z
M555 1643q-66 0 -101.5 29t-35.5 79q0 52 35.5 81t101.5 29t101.5 -29t35.5 -81q0 -50 -35.5 -79t-101.5 -29z" />
    <glyph glyph-name="uni1E69" unicode="&#x1e69;" horiz-adv-x="925" 
d="M419 -20q-85 0 -164 11.5t-152 33.5v161q80 -23 157.5 -34.5t157.5 -11.5q131 0 188.5 42t57.5 118q0 64 -33 97.5t-113 50.5l-156 31q-151 31 -216.5 105.5t-65.5 195.5q0 143 112.5 234t344.5 91q72 0 140 -8.5t127 -24.5v-161q-65 18 -129 26t-133 8
q-100 0 -157.5 -21.5t-82 -57.5t-24.5 -81q0 -55 31.5 -91t110.5 -54l156 -30q149 -30 217.5 -101.5t68.5 -199.5q0 -152 -113.5 -240.5t-329.5 -88.5zM467 -385q-59 0 -91.5 31.5t-32.5 84.5t32.5 85t91.5 32t91.5 -32t32.5 -85t-32.5 -84.5t-91.5 -31.5zM467 1300
q-68 0 -103 32t-35 88q0 58 35 90t103 32q69 0 103.5 -32t34.5 -90q0 -56 -34.5 -88t-103.5 -32z" />
    <glyph glyph-name="uni1E6C" unicode="&#x1e6c;" horiz-adv-x="1209" 
d="M498 0v1299h-484v181h1182v-181h-485v-1299h-213zM605 -371q-66 0 -101.5 29t-35.5 80t35.5 80.5t101.5 29.5t101.5 -29.5t35.5 -80.5t-35.5 -80t-101.5 -29z" />
    <glyph glyph-name="uni1E6D" unicode="&#x1e6d;" horiz-adv-x="778" 
d="M578 -19q-176 0 -272.5 89.5t-96.5 284.5v733l36 392h173v-1091q0 -129 52 -180.5t158 -51.5q30 0 60 4t67 12v-172q-41 -9 -86.5 -14.5t-90.5 -5.5zM13 919v169h729v-169h-729zM482 -385q-59 0 -91.5 31.5t-32.5 84.5t32.5 85t91.5 32t91.5 -32t32.5 -85t-32.5 -84.5
t-91.5 -31.5z" />
    <glyph glyph-name="uni1E6E" unicode="&#x1e6e;" horiz-adv-x="1209" 
d="M498 0v1299h-484v181h1182v-181h-485v-1299h-213zM280 -325v134h650v-134h-650z" />
    <glyph glyph-name="uni1E6F" unicode="&#x1e6f;" horiz-adv-x="778" 
d="M578 -19q-176 0 -272.5 89.5t-96.5 284.5v733l36 392h173v-1091q0 -129 52 -180.5t158 -51.5q30 0 60 4t67 12v-172q-41 -9 -86.5 -14.5t-90.5 -5.5zM13 919v169h729v-169h-729zM178 -334v132h608v-132h-608z" />
    <glyph glyph-name="uni1E78" unicode="&#x1e78;" horiz-adv-x="1441" 
d="M723 -19q-197 0 -324 64.5t-187.5 196t-60.5 334.5v904h212v-926q0 -206 87.5 -300t272.5 -94t272 94t87 300v926h208v-904q0 -203 -60 -334.5t-185.5 -196t-321.5 -64.5zM618 1924l177 232h243l-212 -232h-208zM883 1653q-50 0 -92.5 13t-83.5 28q-36 14 -72 24.5
t-75 10.5q-56 0 -98 -17.5t-82 -52.5v132q34 34 78 50.5t105 16.5q50 0 93 -12.5t83 -28.5q37 -13 73 -24t74 -11q56 0 98 17.5t82 52.5v-132q-34 -33 -78 -50t-105 -17z" />
    <glyph glyph-name="uni1E79" unicode="&#x1e79;" horiz-adv-x="1153" 
d="M486 -18q-103 0 -183.5 38.5t-126.5 125.5t-46 232v710h209v-698q0 -127 55.5 -176t144.5 -49q44 0 92 13t93 41t80 73v796h208v-1088h-174l-14 116h-11q-66 -67 -150 -100.5t-177 -33.5zM719 1327q-44 0 -84.5 14.5t-78.5 30.5q-34 16 -67.5 28t-67.5 12q-50 0 -91 -19
t-82 -60v141q67 71 177 71q45 0 85.5 -15t77.5 -31q35 -15 68 -27.5t67 -12.5q51 0 92 19.5t81 59.5v-141q-67 -70 -177 -70zM477 1640l178 290h223l-212 -290h-189z" />
    <glyph glyph-name="uni1E7A" unicode="&#x1e7a;" horiz-adv-x="1441" 
d="M723 -19q-197 0 -324 64.5t-187.5 196t-60.5 334.5v904h212v-926q0 -206 87.5 -300t272.5 -94t272 94t87 300v926h208v-904q0 -203 -60 -334.5t-185.5 -196t-321.5 -64.5zM398 1679v133h650v-133h-650zM964 1935q-60 0 -92 29t-32 79q0 51 32 80.5t92 29.5q59 0 91 -29.5
t32 -80.5q0 -50 -32 -79t-91 -29zM482 1935q-59 0 -91 29t-32 79q0 51 32 80.5t91 29.5q60 0 92 -29.5t32 -80.5q0 -50 -32 -79t-92 -29z" />
    <glyph glyph-name="uni1E7B" unicode="&#x1e7b;" horiz-adv-x="1153" 
d="M486 -18q-103 0 -183.5 38.5t-126.5 125.5t-46 232v710h209v-698q0 -127 55.5 -176t144.5 -49q44 0 92 13t93 41t80 73v796h208v-1088h-174l-14 116h-11q-66 -67 -150 -100.5t-177 -33.5zM248 1355v133h648v-133h-648zM797 1627q-58 0 -91 31.5t-33 85.5q0 56 33 87.5
t91 31.5q59 0 91.5 -31.5t32.5 -87.5q0 -54 -32.5 -85.5t-91.5 -31.5zM347 1627q-59 0 -91.5 31.5t-32.5 85.5q0 56 32.5 87.5t91.5 31.5q58 0 91 -31.5t33 -87.5q0 -54 -33 -85.5t-91 -31.5z" />
    <glyph glyph-name="Wgrave" unicode="&#x1e80;" horiz-adv-x="2166" 
d="M457 0l-410 1480h217l370 -1382h-53l386 1382h243l379 -1382h-49l375 1382h203l-409 -1480h-275l-375 1348h55l-382 -1348h-275zM989 1604l-211 290h222l179 -290h-190z" />
    <glyph glyph-name="wgrave" unicode="&#x1e81;" horiz-adv-x="1729" 
d="M366 0l-311 1088h201l248 -896h-16l261 896h239l260 -896h-19l251 896h194l-309 -1088h-239l-268 917h17l-270 -917h-239zM770 1247l-250 369h224l218 -369h-192z" />
    <glyph glyph-name="Wacute" unicode="&#x1e82;" horiz-adv-x="2166" 
d="M457 0l-410 1480h217l370 -1382h-53l386 1382h243l379 -1382h-49l375 1382h203l-409 -1480h-275l-375 1348h55l-382 -1348h-275zM989 1604l178 290h223l-212 -290h-189z" />
    <glyph glyph-name="wacute" unicode="&#x1e83;" horiz-adv-x="1729" 
d="M366 0l-311 1088h201l248 -896h-16l261 896h239l260 -896h-19l251 896h194l-309 -1088h-239l-268 917h17l-270 -917h-239zM770 1247l218 369h224l-250 -369h-192z" />
    <glyph glyph-name="Wdieresis" unicode="&#x1e84;" horiz-adv-x="2166" 
d="M457 0l-410 1480h217l370 -1382h-53l386 1382h243l379 -1382h-49l375 1382h203l-409 -1480h-275l-375 1348h55l-382 -1348h-275zM1325 1643q-60 0 -92 29t-32 79q0 51 32 80.5t92 29.5q59 0 91 -29.5t32 -80.5q0 -50 -32 -79t-91 -29zM843 1643q-59 0 -91 29t-32 79
q0 51 32 80.5t91 29.5q60 0 92 -29.5t32 -80.5q0 -50 -32 -79t-92 -29z" />
    <glyph glyph-name="wdieresis" unicode="&#x1e85;" horiz-adv-x="1729" 
d="M366 0l-311 1088h201l248 -896h-16l261 896h239l260 -896h-19l251 896h194l-309 -1088h-239l-268 917h17l-270 -917h-239zM1091 1303q-58 0 -91 31.5t-33 85.5q0 56 33 87.5t91 31.5q59 0 91.5 -31.5t32.5 -87.5q0 -54 -32.5 -85.5t-91.5 -31.5zM641 1303
q-59 0 -91.5 31.5t-32.5 85.5q0 56 32.5 87.5t91.5 31.5q58 0 91 -31.5t33 -87.5q0 -54 -33 -85.5t-91 -31.5z" />
    <glyph glyph-name="uni1E8E" unicode="&#x1e8e;" horiz-adv-x="1209" 
d="M500 0v735l44 -157l-582 902h230l451 -701h-66l445 701h215l-570 -902l45 155v-733h-212zM605 1643q-66 0 -101.5 29t-35.5 79q0 52 35.5 81t101.5 29t101.5 -29t35.5 -81q0 -50 -35.5 -79t-101.5 -29z" />
    <glyph glyph-name="uni1E8F" unicode="&#x1e8f;" horiz-adv-x="1091" 
d="M308 -440l164 440l69 157l331 931h208l-566 -1528h-206zM413 0l-403 1088h221l379 -1088h-197zM546 1300q-68 0 -103 32t-35 88q0 58 35 90t103 32q69 0 103.5 -32t34.5 -90q0 -56 -34.5 -88t-103.5 -32z" />
    <glyph glyph-name="uni1E92" unicode="&#x1e92;" horiz-adv-x="1179" 
d="M61 0v118l799 1228l9 -45h-797v179h1035v-118l-799 -1228l-8 45h818v-179h-1057zM589 -371q-66 0 -101.5 29t-35.5 80t35.5 80.5t101.5 29.5t101.5 -29.5t35.5 -80.5t-35.5 -80t-101.5 -29z" />
    <glyph glyph-name="uni1E93" unicode="&#x1e93;" horiz-adv-x="948" 
d="M63 0v131l591 832v-44h-579v169h808v-131l-591 -832v44h603v-169h-832zM480 -385q-59 0 -91.5 31.5t-32.5 84.5t32.5 85t91.5 32t91.5 -32t32.5 -85t-32.5 -84.5t-91.5 -31.5z" />
    <glyph glyph-name="uni1E97" unicode="&#x1e97;" horiz-adv-x="778" 
d="M578 -19q-176 0 -272.5 89.5t-96.5 284.5v733l36 392h173v-1091q0 -129 52 -180.5t158 -51.5q30 0 60 4t67 12v-172q-41 -9 -86.5 -14.5t-90.5 -5.5zM13 919v169h729v-169h-729zM538 1599q-58 0 -91 31.5t-33 85.5q0 56 33 87.5t91 31.5q59 0 91.5 -31.5t32.5 -87.5
q0 -54 -32.5 -85.5t-91.5 -31.5zM88 1599q-59 0 -91.5 31.5t-32.5 85.5q0 56 32.5 87.5t91.5 31.5q58 0 91 -31.5t33 -87.5q0 -54 -33 -85.5t-91 -31.5z" />
    <glyph glyph-name="uni1E9E" unicode="&#x1e9e;" horiz-adv-x="1433" 
d="M1238 1371v-115l-422 -501l-11 56q30 4 58 5.5t63 1.5q127 0 225.5 -44.5t155 -132.5t56.5 -220q0 -135 -60 -233.5t-175.5 -152.5t-282.5 -54q-84 0 -166.5 15t-160.5 44v178q57 -21 111.5 -34t107 -20t99.5 -7q160 0 242 72t82 199q0 121 -79 187.5t-236 66.5
q-55 0 -104.5 -3t-106.5 -12v116l459 558l-9 -88q-69 42 -151 60t-182 18q-212 0 -310 -94t-98 -258v-979h-212v955q0 173 67 294.5t203.5 185.5t345.5 64q153 0 273.5 -34t217.5 -94z" />
    <glyph glyph-name="uni1EA0" unicode="&#x1ea0;" horiz-adv-x="1382" 
d="M24 0l515 1480h304l515 -1480h-212l-471 1383h29l-470 -1383h-210zM319 454l48 173h647l48 -173h-743zM692 -371q-66 0 -101.5 29t-35.5 80t35.5 80.5t101.5 29.5t101.5 -29.5t35.5 -80.5t-35.5 -80t-101.5 -29z" />
    <glyph glyph-name="uni1EA1" unicode="&#x1ea1;" horiz-adv-x="1057" 
d="M420 -18q-158 0 -247.5 81t-89.5 221q0 145 98 227t314 101l273 27l21 -127l-276 -28q-118 -12 -169.5 -56.5t-51.5 -124.5q0 -81 47.5 -124.5t139.5 -43.5q64 0 128 26t115 87v456q0 92 -29 143t-89 72t-153 21q-62 0 -140 -11t-154 -36v164q73 24 161 36t165 12
q149 0 247.5 -38.5t147 -128.5t48.5 -246v-692h-173l-15 117h-12q-52 -67 -132.5 -101t-173.5 -34zM533 -385q-59 0 -91.5 31.5t-32.5 84.5t32.5 85t91.5 32t91.5 -32t32.5 -85t-32.5 -84.5t-91.5 -31.5z" />
    <glyph glyph-name="uni1EA2" unicode="&#x1ea2;" horiz-adv-x="1382" 
d="M24 0l515 1480h304l515 -1480h-212l-471 1383h29l-470 -1383h-210zM319 454l48 173h647l48 -173h-743zM632 1604q2 49 36 72t68 39q26 11 44.5 22.5t18.5 31.5q0 21 -25 32.5t-90 11.5q-49 0 -96 -7t-98 -23v91q41 15 96.5 23t111.5 8q115 0 168 -33t53 -90
q0 -45 -30.5 -68t-64.5 -40q-27 -13 -49 -28.5t-25 -41.5h-118z" />
    <glyph glyph-name="uni1EA3" unicode="&#x1ea3;" horiz-adv-x="1057" 
d="M420 -18q-158 0 -247.5 81t-89.5 221q0 145 98 227t314 101l273 27l21 -127l-276 -28q-118 -12 -169.5 -56.5t-51.5 -124.5q0 -81 47.5 -124.5t139.5 -43.5q64 0 128 26t115 87v456q0 92 -29 143t-89 72t-153 21q-62 0 -140 -11t-154 -36v164q73 24 161 36t165 12
q149 0 247.5 -38.5t147 -128.5t48.5 -246v-692h-173l-15 117h-12q-52 -67 -132.5 -101t-173.5 -34zM466 1247q1 55 25 86.5t54 52t53 39.5t23 48q0 31 -26.5 46t-84.5 15q-37 0 -79.5 -6t-80.5 -18v93q34 12 81.5 18.5t89.5 6.5q113 0 166.5 -36.5t53.5 -107.5
q0 -50 -23 -78t-53.5 -48.5t-55 -44.5t-26.5 -66h-117z" />
    <glyph glyph-name="uni1EA4" unicode="&#x1ea4;" horiz-adv-x="1382" 
d="M24 0l515 1480h304l515 -1480h-212l-471 1383h29l-470 -1383h-210zM319 454l48 173h647l48 -173h-743zM350 1604l248 272h186l248 -272h-171l-190 217h40l-190 -217h-171zM925 1806l144 258h157l-175 -258h-126z" />
    <glyph glyph-name="uni1EA5" unicode="&#x1ea5;" horiz-adv-x="1057" 
d="M420 -18q-158 0 -247.5 81t-89.5 221q0 145 98 227t314 101l273 27l21 -127l-276 -28q-118 -12 -169.5 -56.5t-51.5 -124.5q0 -81 47.5 -124.5t139.5 -43.5q64 0 128 26t115 87v456q0 92 -29 143t-89 72t-153 21q-62 0 -140 -11t-154 -36v164q73 24 161 36t165 12
q149 0 247.5 -38.5t147 -128.5t48.5 -246v-692h-173l-15 117h-12q-52 -67 -132.5 -101t-173.5 -34zM208 1247l226 369h180l226 -369h-159l-176 298h38l-176 -298h-159zM740 1597l179 271h186l-212 -271h-153z" />
    <glyph glyph-name="uni1EA6" unicode="&#x1ea6;" horiz-adv-x="1382" 
d="M24 0l515 1480h304l515 -1480h-212l-471 1383h29l-470 -1383h-210zM319 454l48 173h647l48 -173h-743zM354 1604l248 272h186l248 -272h-171l-190 217h40l-190 -217h-171zM957 1806l-175 258h157l144 -258h-126z" />
    <glyph glyph-name="uni1EA7" unicode="&#x1ea7;" horiz-adv-x="1057" 
d="M420 -18q-158 0 -247.5 81t-89.5 221q0 145 98 227t314 101l273 27l21 -127l-276 -28q-118 -12 -169.5 -56.5t-51.5 -124.5q0 -81 47.5 -124.5t139.5 -43.5q64 0 128 26t115 87v456q0 92 -29 143t-89 72t-153 21q-62 0 -140 -11t-154 -36v164q73 24 161 36t165 12
q149 0 247.5 -38.5t147 -128.5t48.5 -246v-692h-173l-15 117h-12q-52 -67 -132.5 -101t-173.5 -34zM208 1247l226 369h180l227 -369h-160l-176 298h38l-176 -298h-159zM767 1597l-211 271h186l178 -271h-153z" />
    <glyph glyph-name="uni1EA8" unicode="&#x1ea8;" horiz-adv-x="1382" 
d="M24 0l515 1480h304l515 -1480h-212l-471 1383h29l-470 -1383h-210zM319 454l48 173h647l48 -173h-743zM350 1604l248 272h186l248 -272h-171l-190 217h40l-190 -217h-171zM925 1806q2 40 28 61.5t58 34.5t56.5 25.5t24.5 34.5q0 20 -25 31t-89 11q-50 0 -97 -6.5
t-98 -22.5v83q41 14 97 22t111 8q115 0 168.5 -30.5t53.5 -84.5q0 -38 -24.5 -59.5t-57 -35t-59 -29t-29.5 -43.5h-118z" />
    <glyph glyph-name="uni1EA9" unicode="&#x1ea9;" horiz-adv-x="1057" 
d="M420 -18q-158 0 -247.5 81t-89.5 221q0 145 98 227t314 101l273 27l21 -127l-276 -28q-118 -12 -169.5 -56.5t-51.5 -124.5q0 -81 47.5 -124.5t139.5 -43.5q64 0 128 26t115 87v456q0 92 -29 143t-89 72t-153 21q-62 0 -140 -11t-154 -36v164q73 24 161 36t165 12
q149 0 247.5 -38.5t147 -128.5t48.5 -246v-692h-173l-15 117h-12q-52 -67 -132.5 -101t-173.5 -34zM208 1247l226 369h180l226 -369h-159l-176 298h38l-176 -298h-159zM744 1597q2 41 26.5 63t55.5 35t54.5 25t23.5 33q0 20 -24 31.5t-87 11.5q-48 0 -95 -7t-93 -22v82
q38 13 93 21t109 8q111 0 162.5 -29.5t51.5 -84.5q0 -37 -23.5 -57.5t-55 -34t-57 -29.5t-29.5 -46h-112z" />
    <glyph glyph-name="uni1EAA" unicode="&#x1eaa;" horiz-adv-x="1382" 
d="M24 0l515 1480h304l515 -1480h-212l-471 1383h29l-470 -1383h-210zM319 454l48 173h647l48 -173h-743zM350 1604l248 272h186l248 -272h-171l-190 217h40l-190 -217h-171zM844 1921q-60 0 -112 17t-100 34t-95 17q-52 0 -95.5 -16.5t-91.5 -52.5v107q42 34 87.5 48
t100.5 14q60 0 112 -17t100 -34t95 -17q53 0 96 16t91 53v-108q-41 -33 -86.5 -47t-101.5 -14z" />
    <glyph glyph-name="uni1EAB" unicode="&#x1eab;" horiz-adv-x="1057" 
d="M420 -18q-158 0 -247.5 81t-89.5 221q0 145 98 227t314 101l273 27l21 -127l-276 -28q-118 -12 -169.5 -56.5t-51.5 -124.5q0 -81 47.5 -124.5t139.5 -43.5q64 0 128 26t115 87v456q0 92 -29 143t-89 72t-153 21q-62 0 -140 -11t-154 -36v164q73 24 161 36t165 12
q149 0 247.5 -38.5t147 -128.5t48.5 -246v-692h-173l-15 117h-12q-52 -67 -132.5 -101t-173.5 -34zM196 1247l235 338h186l235 -338h-165l-183 279h40l-183 -279h-165zM678 1644q-61 0 -112.5 18.5t-100 36t-98.5 17.5q-53 0 -94.5 -16.5t-81.5 -50.5v120q34 32 77.5 47.5
t101.5 15.5q61 0 112.5 -18t100 -36t98.5 -18q54 0 95 16.5t81 49.5v-119q-33 -31 -77 -47t-102 -16z" />
    <glyph glyph-name="uni1EAC" unicode="&#x1eac;" horiz-adv-x="1382" 
d="M24 0l515 1480h304l515 -1480h-212l-471 1383h29l-470 -1383h-210zM319 454l48 173h647l48 -173h-743zM692 -371q-66 0 -101.5 29t-35.5 80t35.5 80.5t101.5 29.5t101.5 -29.5t35.5 -80.5t-35.5 -80t-101.5 -29zM350 1604l248 290h186l248 -290h-171l-190 228h40
l-190 -228h-171z" />
    <glyph glyph-name="uni1EAD" unicode="&#x1ead;" horiz-adv-x="1057" 
d="M420 -18q-158 0 -247.5 81t-89.5 221q0 145 98 227t314 101l273 27l21 -127l-276 -28q-118 -12 -169.5 -56.5t-51.5 -124.5q0 -81 47.5 -124.5t139.5 -43.5q64 0 128 26t115 87v456q0 92 -29 143t-89 72t-153 21q-62 0 -140 -11t-154 -36v164q73 24 161 36t165 12
q149 0 247.5 -38.5t147 -128.5t48.5 -246v-692h-173l-15 117h-12q-52 -67 -132.5 -101t-173.5 -34zM533 -385q-59 0 -91.5 31.5t-32.5 84.5t32.5 85t91.5 32t91.5 -32t32.5 -85t-32.5 -84.5t-91.5 -31.5zM208 1247l226 369h180l226 -369h-159l-176 298h38l-176 -298h-159z
" />
    <glyph glyph-name="uni1EAE" unicode="&#x1eae;" horiz-adv-x="1382" 
d="M24 0l515 1480h304l515 -1480h-212l-471 1383h29l-470 -1383h-210zM319 454l48 173h647l48 -173h-743zM692 1611q-155 0 -235.5 68t-93.5 180h121q11 -71 56.5 -109t151.5 -38t151 38t59 109h117q-13 -112 -93 -180t-234 -68zM628 1839l144 246h157l-175 -246h-126z" />
    <glyph glyph-name="uni1EAF" unicode="&#x1eaf;" horiz-adv-x="1057" 
d="M420 -18q-158 0 -247.5 81t-89.5 221q0 145 98 227t314 101l273 27l21 -127l-276 -28q-118 -12 -169.5 -56.5t-51.5 -124.5q0 -81 47.5 -124.5t139.5 -43.5q64 0 128 26t115 87v456q0 92 -29 143t-89 72t-153 21q-62 0 -140 -11t-154 -36v164q73 24 161 36t165 12
q149 0 247.5 -38.5t147 -128.5t48.5 -246v-692h-173l-15 117h-12q-52 -67 -132.5 -101t-173.5 -34zM525 1259q-101 0 -171.5 38t-109.5 108t-46 167h135q9 -98 55.5 -149.5t136.5 -51.5q91 0 136.5 51.5t53.5 149.5h135q-7 -97 -45.5 -167.5t-108.5 -108t-171 -37.5z
M447 1597l178 271h186l-211 -271h-153z" />
    <glyph glyph-name="uni1EB0" unicode="&#x1eb0;" horiz-adv-x="1382" 
d="M24 0l515 1480h304l515 -1480h-212l-471 1383h29l-470 -1383h-210zM319 454l48 173h647l48 -173h-743zM690 1611q-154 0 -234 67.5t-93 180.5h117q14 -71 59.5 -109t150.5 -38q107 0 151.5 38t56.5 109h121q-13 -112 -94 -180t-235 -68zM628 1839l-175 246h157l144 -246
h-126z" />
    <glyph glyph-name="uni1EB1" unicode="&#x1eb1;" horiz-adv-x="1057" 
d="M420 -18q-158 0 -247.5 81t-89.5 221q0 145 98 227t314 101l273 27l21 -127l-276 -28q-118 -12 -169.5 -56.5t-51.5 -124.5q0 -81 47.5 -124.5t139.5 -43.5q64 0 128 26t115 87v456q0 92 -29 143t-89 72t-153 21q-62 0 -140 -11t-154 -36v164q73 24 161 36t165 12
q149 0 247.5 -38.5t147 -128.5t48.5 -246v-692h-173l-15 117h-12q-52 -67 -132.5 -101t-173.5 -34zM525 1259q-101 0 -171.5 38t-109.5 108t-46 167h135q9 -98 55.5 -149.5t136.5 -51.5q91 0 136.5 51.5t53.5 149.5h135q-7 -97 -45.5 -167.5t-108.5 -108t-171 -37.5z
M448 1597l-211 271h186l178 -271h-153z" />
    <glyph glyph-name="uni1EB2" unicode="&#x1eb2;" horiz-adv-x="1382" 
d="M24 0l515 1480h304l515 -1480h-212l-471 1383h29l-470 -1383h-210zM319 454l48 173h647l48 -173h-743zM690 1611q-154 0 -234 67.5t-93 180.5h121q11 -71 55.5 -109t150.5 -38t152 38t60 109h117q-13 -112 -94 -180t-235 -68zM632 1839q2 40 27.5 61.5t58 34.5t57 25.5
t24.5 34.5q0 19 -25 30.5t-90 11.5q-49 0 -96 -6.5t-98 -22.5v83q41 14 96.5 21.5t111.5 7.5q115 0 168 -30.5t53 -83.5q0 -39 -24 -60t-57 -35t-59 -29.5t-29 -42.5h-118z" />
    <glyph glyph-name="uni1EB3" unicode="&#x1eb3;" horiz-adv-x="1057" 
d="M420 -18q-158 0 -247.5 81t-89.5 221q0 145 98 227t314 101l273 27l21 -127l-276 -28q-118 -12 -169.5 -56.5t-51.5 -124.5q0 -81 47.5 -124.5t139.5 -43.5q64 0 128 26t115 87v456q0 92 -29 143t-89 72t-153 21q-62 0 -140 -11t-154 -36v164q73 24 161 36t165 12
q149 0 247.5 -38.5t147 -128.5t48.5 -246v-692h-173l-15 117h-12q-52 -67 -132.5 -101t-173.5 -34zM525 1259q-101 0 -171.5 38t-109.5 108t-46 167h135q9 -98 55.5 -149.5t136.5 -51.5q91 0 136.5 51.5t53.5 149.5h135q-7 -97 -45.5 -167.5t-108.5 -108t-171 -37.5z
M465 1597q2 40 27.5 61.5t58 34.5t57 25.5t24.5 34.5q0 19 -25 30.5t-90 11.5q-49 0 -96 -6.5t-98 -22.5v83q41 13 96.5 21t111.5 8q115 0 168 -30.5t53 -83.5q0 -39 -24 -60t-57 -35t-59 -29.5t-29 -42.5h-118z" />
    <glyph glyph-name="uni1EB4" unicode="&#x1eb4;" horiz-adv-x="1382" 
d="M24 0l515 1480h304l515 -1480h-212l-471 1383h29l-470 -1383h-210zM319 454l48 173h647l48 -173h-743zM690 1611q-154 0 -234 67.5t-93 180.5h121q11 -71 55.5 -109t150.5 -38t151 38t57 109h121q-13 -112 -94 -180t-235 -68zM835 1921q-56 0 -105 17t-94.5 34t-89.5 17
q-51 0 -93 -16.5t-90 -52.5v107q42 34 86 48t98 14q56 0 105 -17t94.5 -34t89.5 -17q51 0 93 16t90 53v-108q-42 -33 -86 -47t-98 -14z" />
    <glyph glyph-name="uni1EB5" unicode="&#x1eb5;" horiz-adv-x="1057" 
d="M420 -18q-158 0 -247.5 81t-89.5 221q0 145 98 227t314 101l273 27l21 -127l-276 -28q-118 -12 -169.5 -56.5t-51.5 -124.5q0 -81 47.5 -124.5t139.5 -43.5q64 0 128 26t115 87v456q0 92 -29 143t-89 72t-153 21q-62 0 -140 -11t-154 -36v164q73 24 161 36t165 12
q149 0 247.5 -38.5t147 -128.5t48.5 -246v-692h-173l-15 117h-12q-52 -67 -132.5 -101t-173.5 -34zM525 1259q-101 0 -171.5 38t-109.5 108t-46 167h135q9 -98 55.5 -149.5t136.5 -51.5q91 0 136.5 51.5t53.5 149.5h135q-7 -97 -45.5 -167.5t-108.5 -108t-171 -37.5z
M680 1644q-61 0 -113.5 18t-101.5 36t-101 18q-54 0 -96 -16.5t-83 -50.5v120q34 32 79 47.5t104 15.5q61 0 113.5 -18t101.5 -36t101 -18q55 0 97 16.5t82 49.5v-119q-34 -31 -78.5 -47t-104.5 -16z" />
    <glyph glyph-name="uni1EB6" unicode="&#x1eb6;" horiz-adv-x="1382" 
d="M24 0l515 1480h304l515 -1480h-212l-471 1383h29l-470 -1383h-210zM319 454l48 173h647l48 -173h-743zM692 -371q-66 0 -101.5 29t-35.5 80t35.5 80.5t101.5 29.5t101.5 -29.5t35.5 -80.5t-35.5 -80t-101.5 -29zM692 1611q-106 0 -178.5 33t-112.5 92.5t-48 140.5h134
q12 -75 59 -113.5t146 -38.5q100 0 146 38.5t57 113.5h134q-8 -81 -47.5 -140.5t-111.5 -92.5t-178 -33z" />
    <glyph glyph-name="uni1EB7" unicode="&#x1eb7;" horiz-adv-x="1057" 
d="M420 -18q-158 0 -247.5 81t-89.5 221q0 145 98 227t314 101l273 27l21 -127l-276 -28q-118 -12 -169.5 -56.5t-51.5 -124.5q0 -81 47.5 -124.5t139.5 -43.5q64 0 128 26t115 87v456q0 92 -29 143t-89 72t-153 21q-62 0 -140 -11t-154 -36v164q73 24 161 36t165 12
q149 0 247.5 -38.5t147 -128.5t48.5 -246v-692h-173l-15 117h-12q-52 -67 -132.5 -101t-173.5 -34zM533 -385q-59 0 -91.5 31.5t-32.5 84.5t32.5 85t91.5 32t91.5 -32t32.5 -85t-32.5 -84.5t-91.5 -31.5zM525 1257q-145 0 -228.5 86.5t-91.5 247.5h134q8 -108 53 -163
t133 -55q89 0 133.5 55t50.5 163h134q-7 -161 -89.5 -247.5t-228.5 -86.5z" />
    <glyph glyph-name="uni1EB8" unicode="&#x1eb8;" horiz-adv-x="1193" 
d="M158 0v1480h954v-175h-744v-1130h754v-175h-964zM288 671v175h725v-175h-725zM658 -371q-66 0 -101.5 29t-35.5 80t35.5 80.5t101.5 29.5t101.5 -29.5t35.5 -80.5t-35.5 -80t-101.5 -29z" />
    <glyph glyph-name="uni1EB9" unicode="&#x1eb9;" horiz-adv-x="1054" 
d="M627 -20q-180 0 -300.5 58t-180.5 182.5t-60 323.5q0 188 55.5 312.5t158.5 186.5t246 62q140 0 237.5 -62t148 -187.5t50.5 -316.5v-60h-780v132h623l-40 -22q0 138 -28 220t-82 117.5t-131 35.5t-132.5 -35t-85.5 -117t-30 -221v-78q0 -135 37 -215.5t116 -115.5
t205 -35q62 0 130 10.5t142 30.5v-164q-81 -22 -154 -32t-145 -10zM543 -385q-59 0 -91.5 31.5t-32.5 84.5t32.5 85t91.5 32t91.5 -32t32.5 -85t-32.5 -84.5t-91.5 -31.5z" />
    <glyph glyph-name="uni1EBA" unicode="&#x1eba;" horiz-adv-x="1193" 
d="M158 0v1480h954v-175h-744v-1130h754v-175h-964zM288 671v175h725v-175h-725zM598 1604q2 49 36 72t68 39q26 11 44.5 22.5t18.5 31.5q0 21 -25 32.5t-90 11.5q-49 0 -96 -7t-98 -23v91q41 15 96.5 23t111.5 8q115 0 168 -33t53 -90q0 -45 -30.5 -68t-64.5 -40
q-27 -13 -49 -28.5t-25 -41.5h-118z" />
    <glyph glyph-name="uni1EBB" unicode="&#x1ebb;" horiz-adv-x="1054" 
d="M627 -20q-180 0 -300.5 58t-180.5 182.5t-60 323.5q0 188 55.5 312.5t158.5 186.5t246 62q140 0 237.5 -62t148 -187.5t50.5 -316.5v-60h-780v132h623l-40 -22q0 138 -28 220t-82 117.5t-131 35.5t-132.5 -35t-85.5 -117t-30 -221v-78q0 -135 37 -215.5t116 -115.5
t205 -35q62 0 130 10.5t142 30.5v-164q-81 -22 -154 -32t-145 -10zM485 1247q1 55 25 86.5t54 52t53 39.5t23 48q0 31 -26.5 46t-84.5 15q-37 0 -79.5 -6t-80.5 -18v93q34 12 81.5 18.5t89.5 6.5q113 0 166.5 -36.5t53.5 -107.5q0 -50 -23 -78t-53.5 -48.5t-55 -44.5
t-26.5 -66h-117z" />
    <glyph glyph-name="uni1EBC" unicode="&#x1ebc;" horiz-adv-x="1193" 
d="M158 0v1480h954v-175h-744v-1130h754v-175h-964zM288 671v175h725v-175h-725zM817 1653q-50 0 -92.5 13t-83.5 28q-36 14 -72 24.5t-75 10.5q-56 0 -98 -17.5t-82 -52.5v132q34 34 78 50.5t105 16.5q50 0 93 -12.5t83 -28.5q37 -13 73 -24t74 -11q56 0 98 17.5t82 52.5
v-132q-34 -33 -78 -50t-105 -17z" />
    <glyph glyph-name="uni1EBD" unicode="&#x1ebd;" horiz-adv-x="1054" 
d="M627 -20q-180 0 -300.5 58t-180.5 182.5t-60 323.5q0 188 55.5 312.5t158.5 186.5t246 62q140 0 237.5 -62t148 -187.5t50.5 -316.5v-60h-780v132h623l-40 -22q0 138 -28 220t-82 117.5t-131 35.5t-132.5 -35t-85.5 -117t-30 -221v-78q0 -135 37 -215.5t116 -115.5
t205 -35q62 0 130 10.5t142 30.5v-164q-81 -22 -154 -32t-145 -10zM690 1327q-44 0 -84.5 14.5t-78.5 30.5q-34 16 -67.5 28t-67.5 12q-50 0 -91 -19t-82 -60v141q67 71 177 71q45 0 85.5 -15t77.5 -31q35 -15 68 -27.5t67 -12.5q51 0 92 19.5t81 59.5v-141
q-67 -70 -177 -70z" />
    <glyph glyph-name="uni1EBE" unicode="&#x1ebe;" horiz-adv-x="1193" 
d="M158 0v1480h954v-175h-744v-1130h754v-175h-964zM288 671v175h725v-175h-725zM316 1604l248 272h186l248 -272h-171l-190 217h40l-190 -217h-171zM891 1806l144 258h157l-175 -258h-126z" />
    <glyph glyph-name="uni1EBF" unicode="&#x1ebf;" horiz-adv-x="1054" 
d="M627 -20q-180 0 -300.5 58t-180.5 182.5t-60 323.5q0 188 55.5 312.5t158.5 186.5t246 62q140 0 237.5 -62t148 -187.5t50.5 -316.5v-60h-780v132h623l-40 -22q0 138 -28 220t-82 117.5t-131 35.5t-132.5 -35t-85.5 -117t-30 -221v-78q0 -135 37 -215.5t116 -115.5
t205 -35q62 0 130 10.5t142 30.5v-164q-81 -22 -154 -32t-145 -10zM227 1247l226 369h180l226 -369h-159l-176 298h38l-176 -298h-159zM759 1597l179 271h186l-212 -271h-153z" />
    <glyph glyph-name="uni1EC0" unicode="&#x1ec0;" horiz-adv-x="1193" 
d="M158 0v1480h954v-175h-744v-1130h754v-175h-964zM288 671v175h725v-175h-725zM320 1604l248 272h186l248 -272h-171l-190 217h40l-190 -217h-171zM923 1806l-175 258h157l144 -258h-126z" />
    <glyph glyph-name="uni1EC1" unicode="&#x1ec1;" horiz-adv-x="1054" 
d="M627 -20q-180 0 -300.5 58t-180.5 182.5t-60 323.5q0 188 55.5 312.5t158.5 186.5t246 62q140 0 237.5 -62t148 -187.5t50.5 -316.5v-60h-780v132h623l-40 -22q0 138 -28 220t-82 117.5t-131 35.5t-132.5 -35t-85.5 -117t-30 -221v-78q0 -135 37 -215.5t116 -115.5
t205 -35q62 0 130 10.5t142 30.5v-164q-81 -22 -154 -32t-145 -10zM227 1247l226 369h180l227 -369h-160l-176 298h38l-176 -298h-159zM786 1597l-211 271h186l178 -271h-153z" />
    <glyph glyph-name="uni1EC2" unicode="&#x1ec2;" horiz-adv-x="1193" 
d="M158 0v1480h954v-175h-744v-1130h754v-175h-964zM288 671v175h725v-175h-725zM316 1604l248 272h186l248 -272h-171l-190 217h40l-190 -217h-171zM891 1806q2 40 28 61.5t58 34.5t56.5 25.5t24.5 34.5q0 20 -25 31t-89 11q-50 0 -97 -6.5t-98 -22.5v83q41 14 97 22t111 8
q115 0 168.5 -30.5t53.5 -84.5q0 -38 -24.5 -59.5t-57 -35t-59 -29t-29.5 -43.5h-118z" />
    <glyph glyph-name="uni1EC3" unicode="&#x1ec3;" horiz-adv-x="1054" 
d="M627 -20q-180 0 -300.5 58t-180.5 182.5t-60 323.5q0 188 55.5 312.5t158.5 186.5t246 62q140 0 237.5 -62t148 -187.5t50.5 -316.5v-60h-780v132h623l-40 -22q0 138 -28 220t-82 117.5t-131 35.5t-132.5 -35t-85.5 -117t-30 -221v-78q0 -135 37 -215.5t116 -115.5
t205 -35q62 0 130 10.5t142 30.5v-164q-81 -22 -154 -32t-145 -10zM227 1247l226 369h180l226 -369h-159l-176 298h38l-176 -298h-159zM763 1597q2 41 26.5 63t55.5 35t54.5 25t23.5 33q0 20 -24 31.5t-87 11.5q-48 0 -95 -7t-93 -22v82q38 13 93 21t109 8
q111 0 162.5 -29.5t51.5 -84.5q0 -37 -23.5 -57.5t-55 -34t-57 -29.5t-29.5 -46h-112z" />
    <glyph glyph-name="uni1EC4" unicode="&#x1ec4;" horiz-adv-x="1193" 
d="M158 0v1480h954v-175h-744v-1130h754v-175h-964zM288 671v175h725v-175h-725zM316 1604l248 272h186l248 -272h-171l-190 217h40l-190 -217h-171zM810 1921q-60 0 -112 17t-100 34t-95 17q-52 0 -95.5 -16.5t-91.5 -52.5v107q42 34 87.5 48t100.5 14q60 0 112 -17
t100 -34t95 -17q53 0 96 16t91 53v-108q-41 -33 -86.5 -47t-101.5 -14z" />
    <glyph glyph-name="uni1EC5" unicode="&#x1ec5;" horiz-adv-x="1054" 
d="M627 -20q-180 0 -300.5 58t-180.5 182.5t-60 323.5q0 188 55.5 312.5t158.5 186.5t246 62q140 0 237.5 -62t148 -187.5t50.5 -316.5v-60h-780v132h623l-40 -22q0 138 -28 220t-82 117.5t-131 35.5t-132.5 -35t-85.5 -117t-30 -221v-78q0 -135 37 -215.5t116 -115.5
t205 -35q62 0 130 10.5t142 30.5v-164q-81 -22 -154 -32t-145 -10zM215 1247l235 338h186l235 -338h-165l-183 279h40l-183 -279h-165zM697 1644q-61 0 -112.5 18.5t-100 36t-98.5 17.5q-53 0 -94.5 -16.5t-81.5 -50.5v120q34 32 77.5 47.5t101.5 15.5q61 0 112.5 -18
t100 -36t98.5 -18q54 0 95 16.5t81 49.5v-119q-33 -31 -77 -47t-102 -16z" />
    <glyph glyph-name="uni1EC6" unicode="&#x1ec6;" horiz-adv-x="1193" 
d="M158 0v1480h954v-175h-744v-1130h754v-175h-964zM288 671v175h725v-175h-725zM658 -371q-66 0 -101.5 29t-35.5 80t35.5 80.5t101.5 29.5t101.5 -29.5t35.5 -80.5t-35.5 -80t-101.5 -29zM316 1604l248 290h186l248 -290h-171l-190 228h40l-190 -228h-171z" />
    <glyph glyph-name="uni1EC7" unicode="&#x1ec7;" horiz-adv-x="1054" 
d="M627 -20q-180 0 -300.5 58t-180.5 182.5t-60 323.5q0 188 55.5 312.5t158.5 186.5t246 62q140 0 237.5 -62t148 -187.5t50.5 -316.5v-60h-780v132h623l-40 -22q0 138 -28 220t-82 117.5t-131 35.5t-132.5 -35t-85.5 -117t-30 -221v-78q0 -135 37 -215.5t116 -115.5
t205 -35q62 0 130 10.5t142 30.5v-164q-81 -22 -154 -32t-145 -10zM543 -385q-59 0 -91.5 31.5t-32.5 84.5t32.5 85t91.5 32t91.5 -32t32.5 -85t-32.5 -84.5t-91.5 -31.5zM227 1247l226 369h180l226 -369h-159l-176 298h38l-176 -298h-159z" />
    <glyph glyph-name="uni1EC8" unicode="&#x1ec8;" horiz-adv-x="528" 
d="M158 0v1480h212v-1480h-212zM205 1604q2 49 36 72t68 39q26 11 44.5 22.5t18.5 31.5q0 21 -25 32.5t-90 11.5q-49 0 -96 -7t-98 -23v91q41 15 96.5 23t111.5 8q115 0 168 -33t53 -90q0 -45 -30.5 -68t-64.5 -40q-27 -13 -49 -28.5t-25 -41.5h-118z" />
    <glyph glyph-name="uni1EC9" unicode="&#x1ec9;" horiz-adv-x="492" 
d="M141 0v1088h209v-1088h-209zM188 1247q1 55 25 86.5t54 52t53 39.5t23 48q0 31 -26.5 46t-84.5 15q-37 0 -79.5 -6t-80.5 -18v93q34 12 81.5 18.5t89.5 6.5q113 0 166.5 -36.5t53.5 -107.5q0 -50 -23 -78t-53.5 -48.5t-55 -44.5t-26.5 -66h-117z" />
    <glyph glyph-name="uni1ECA" unicode="&#x1eca;" horiz-adv-x="528" 
d="M158 0v1480h212v-1480h-212zM264 -371q-66 0 -101.5 29t-35.5 80t35.5 80.5t101.5 29.5t101.5 -29.5t35.5 -80.5t-35.5 -80t-101.5 -29z" />
    <glyph glyph-name="uni1ECB" unicode="&#x1ecb;" horiz-adv-x="492" 
d="M141 0v1088h209v-1088h-209zM246 1300q-68 0 -103 32t-35 88q0 58 35 90t103 32q69 0 103.5 -32t34.5 -90q0 -56 -34.5 -88t-103.5 -32zM246 -385q-59 0 -91.5 31.5t-32.5 84.5t32.5 85t91.5 32t91.5 -32t32.5 -85t-32.5 -84.5t-91.5 -31.5z" />
    <glyph glyph-name="uni1ECC" unicode="&#x1ecc;" horiz-adv-x="1477" 
d="M738 -19q-192 0 -336 79.5t-223.5 247.5t-79.5 432t80 432t223.5 247.5t335.5 79.5q193 0 337 -80t223.5 -247.5t79.5 -431.5t-80 -431.5t-224 -247.5t-336 -80zM738 158q129 0 223.5 56.5t146 183t51.5 336.5q0 217 -52 345.5t-146.5 185.5t-222.5 57t-222.5 -56
t-146.5 -182.5t-52 -337.5q0 -217 52 -346t146.5 -185.5t222.5 -56.5zM738 -371q-66 0 -101.5 29t-35.5 80t35.5 80.5t101.5 29.5t101.5 -29.5t35.5 -80.5t-35.5 -80t-101.5 -29z" />
    <glyph glyph-name="uni1ECD" unicode="&#x1ecd;" horiz-adv-x="1140" 
d="M570 -20q-147 0 -255.5 60t-168.5 184t-60 318q0 195 59 319t167.5 184t257.5 60t257.5 -60t167.5 -184t59 -318q0 -193 -59.5 -318t-168.5 -185t-256 -60zM570 145q84 0 145 36.5t94 123t33 236.5q0 152 -33 239t-94 123.5t-145 36.5t-145 -36t-94 -122.5t-33 -236.5
q0 -152 32.5 -239t94 -124t145.5 -37zM570 -385q-59 0 -91.5 31.5t-32.5 84.5t32.5 85t91.5 32t91.5 -32t32.5 -85t-32.5 -84.5t-91.5 -31.5z" />
    <glyph glyph-name="uni1ECE" unicode="&#x1ece;" horiz-adv-x="1477" 
d="M738 -19q-192 0 -336 79.5t-223.5 247.5t-79.5 432t80 432t223.5 247.5t335.5 79.5q193 0 337 -80t223.5 -247.5t79.5 -431.5t-80 -431.5t-224 -247.5t-336 -80zM738 158q129 0 223.5 56.5t146 183t51.5 336.5q0 217 -52 345.5t-146.5 185.5t-222.5 57t-222.5 -56
t-146.5 -182.5t-52 -337.5q0 -217 52 -346t146.5 -185.5t222.5 -56.5zM679 1604q2 49 36 72t68 39q26 11 44.5 22.5t18.5 31.5q0 21 -25 32.5t-90 11.5q-49 0 -96 -7t-98 -23v91q41 15 96.5 23t111.5 8q115 0 168 -33t53 -90q0 -45 -30.5 -68t-64.5 -40q-27 -13 -49 -28.5
t-25 -41.5h-118z" />
    <glyph glyph-name="uni1ECF" unicode="&#x1ecf;" horiz-adv-x="1140" 
d="M570 -20q-147 0 -255.5 60t-168.5 184t-60 318q0 195 59 319t167.5 184t257.5 60t257.5 -60t167.5 -184t59 -318q0 -193 -59.5 -318t-168.5 -185t-256 -60zM570 145q84 0 145 36.5t94 123t33 236.5q0 152 -33 239t-94 123.5t-145 36.5t-145 -36t-94 -122.5t-33 -236.5
q0 -152 32.5 -239t94 -124t145.5 -37zM512 1247q1 55 25 86.5t54 52t53 39.5t23 48q0 31 -26.5 46t-84.5 15q-37 0 -79.5 -6t-80.5 -18v93q34 12 81.5 18.5t89.5 6.5q113 0 166.5 -36.5t53.5 -107.5q0 -50 -23 -78t-53.5 -48.5t-55 -44.5t-26.5 -66h-117z" />
    <glyph glyph-name="uni1ED0" unicode="&#x1ed0;" horiz-adv-x="1477" 
d="M738 -19q-192 0 -336 79.5t-223.5 247.5t-79.5 432t80 432t223.5 247.5t335.5 79.5q193 0 337 -80t223.5 -247.5t79.5 -431.5t-80 -431.5t-224 -247.5t-336 -80zM738 158q129 0 223.5 56.5t146 183t51.5 336.5q0 217 -52 345.5t-146.5 185.5t-222.5 57t-222.5 -56
t-146.5 -182.5t-52 -337.5q0 -217 52 -346t146.5 -185.5t222.5 -56.5zM397 1604l248 272h186l248 -272h-171l-190 217h40l-190 -217h-171zM972 1806l144 258h157l-175 -258h-126z" />
    <glyph glyph-name="uni1ED1" unicode="&#x1ed1;" horiz-adv-x="1140" 
d="M570 -20q-147 0 -255.5 60t-168.5 184t-60 318q0 195 59 319t167.5 184t257.5 60t257.5 -60t167.5 -184t59 -318q0 -193 -59.5 -318t-168.5 -185t-256 -60zM570 145q84 0 145 36.5t94 123t33 236.5q0 152 -33 239t-94 123.5t-145 36.5t-145 -36t-94 -122.5t-33 -236.5
q0 -152 32.5 -239t94 -124t145.5 -37zM254 1247l226 369h180l226 -369h-159l-176 298h38l-176 -298h-159zM786 1597l179 271h186l-212 -271h-153z" />
    <glyph glyph-name="uni1ED2" unicode="&#x1ed2;" horiz-adv-x="1477" 
d="M738 -19q-192 0 -336 79.5t-223.5 247.5t-79.5 432t80 432t223.5 247.5t335.5 79.5q193 0 337 -80t223.5 -247.5t79.5 -431.5t-80 -431.5t-224 -247.5t-336 -80zM738 158q129 0 223.5 56.5t146 183t51.5 336.5q0 217 -52 345.5t-146.5 185.5t-222.5 57t-222.5 -56
t-146.5 -182.5t-52 -337.5q0 -217 52 -346t146.5 -185.5t222.5 -56.5zM401 1604l248 272h186l248 -272h-171l-190 217h40l-190 -217h-171zM1004 1806l-175 258h157l144 -258h-126z" />
    <glyph glyph-name="uni1ED3" unicode="&#x1ed3;" horiz-adv-x="1140" 
d="M570 -20q-147 0 -255.5 60t-168.5 184t-60 318q0 195 59 319t167.5 184t257.5 60t257.5 -60t167.5 -184t59 -318q0 -193 -59.5 -318t-168.5 -185t-256 -60zM570 145q84 0 145 36.5t94 123t33 236.5q0 152 -33 239t-94 123.5t-145 36.5t-145 -36t-94 -122.5t-33 -236.5
q0 -152 32.5 -239t94 -124t145.5 -37zM254 1247l226 369h180l227 -369h-160l-176 298h38l-176 -298h-159zM813 1597l-211 271h186l178 -271h-153z" />
    <glyph glyph-name="uni1ED4" unicode="&#x1ed4;" horiz-adv-x="1477" 
d="M738 -19q-192 0 -336 79.5t-223.5 247.5t-79.5 432t80 432t223.5 247.5t335.5 79.5q193 0 337 -80t223.5 -247.5t79.5 -431.5t-80 -431.5t-224 -247.5t-336 -80zM738 158q129 0 223.5 56.5t146 183t51.5 336.5q0 217 -52 345.5t-146.5 185.5t-222.5 57t-222.5 -56
t-146.5 -182.5t-52 -337.5q0 -217 52 -346t146.5 -185.5t222.5 -56.5zM397 1604l248 272h186l248 -272h-171l-190 217h40l-190 -217h-171zM972 1806q2 40 28 61.5t58 34.5t56.5 25.5t24.5 34.5q0 20 -25 31t-89 11q-50 0 -97 -6.5t-98 -22.5v83q41 14 97 22t111 8
q115 0 168.5 -30.5t53.5 -84.5q0 -38 -24.5 -59.5t-57 -35t-59 -29t-29.5 -43.5h-118z" />
    <glyph glyph-name="uni1ED5" unicode="&#x1ed5;" horiz-adv-x="1140" 
d="M570 -20q-147 0 -255.5 60t-168.5 184t-60 318q0 195 59 319t167.5 184t257.5 60t257.5 -60t167.5 -184t59 -318q0 -193 -59.5 -318t-168.5 -185t-256 -60zM570 145q84 0 145 36.5t94 123t33 236.5q0 152 -33 239t-94 123.5t-145 36.5t-145 -36t-94 -122.5t-33 -236.5
q0 -152 32.5 -239t94 -124t145.5 -37zM254 1247l226 369h180l226 -369h-159l-176 298h38l-176 -298h-159zM790 1597q2 41 26.5 63t55.5 35t54.5 25t23.5 33q0 20 -24 31.5t-87 11.5q-48 0 -95 -7t-93 -22v82q38 13 93 21t109 8q111 0 162.5 -29.5t51.5 -84.5
q0 -37 -23.5 -57.5t-55 -34t-57 -29.5t-29.5 -46h-112z" />
    <glyph glyph-name="uni1ED6" unicode="&#x1ed6;" horiz-adv-x="1477" 
d="M738 -19q-192 0 -336 79.5t-223.5 247.5t-79.5 432t80 432t223.5 247.5t335.5 79.5q193 0 337 -80t223.5 -247.5t79.5 -431.5t-80 -431.5t-224 -247.5t-336 -80zM738 158q129 0 223.5 56.5t146 183t51.5 336.5q0 217 -52 345.5t-146.5 185.5t-222.5 57t-222.5 -56
t-146.5 -182.5t-52 -337.5q0 -217 52 -346t146.5 -185.5t222.5 -56.5zM397 1604l248 272h186l248 -272h-171l-190 217h40l-190 -217h-171zM891 1921q-60 0 -112 17t-100 34t-95 17q-52 0 -95.5 -16.5t-91.5 -52.5v107q42 34 87.5 48t100.5 14q60 0 112 -17t100 -34t95 -17
q53 0 96 16t91 53v-108q-41 -33 -86.5 -47t-101.5 -14z" />
    <glyph glyph-name="uni1ED7" unicode="&#x1ed7;" horiz-adv-x="1140" 
d="M570 -20q-147 0 -255.5 60t-168.5 184t-60 318q0 195 59 319t167.5 184t257.5 60t257.5 -60t167.5 -184t59 -318q0 -193 -59.5 -318t-168.5 -185t-256 -60zM570 145q84 0 145 36.5t94 123t33 236.5q0 152 -33 239t-94 123.5t-145 36.5t-145 -36t-94 -122.5t-33 -236.5
q0 -152 32.5 -239t94 -124t145.5 -37zM242 1247l235 338h186l235 -338h-165l-183 279h40l-183 -279h-165zM724 1644q-61 0 -112.5 18.5t-100 36t-98.5 17.5q-53 0 -94.5 -16.5t-81.5 -50.5v120q34 32 77.5 47.5t101.5 15.5q61 0 112.5 -18t100 -36t98.5 -18q54 0 95 16.5
t81 49.5v-119q-33 -31 -77 -47t-102 -16z" />
    <glyph glyph-name="uni1ED8" unicode="&#x1ed8;" horiz-adv-x="1477" 
d="M738 -19q-192 0 -336 79.5t-223.5 247.5t-79.5 432t80 432t223.5 247.5t335.5 79.5q193 0 337 -80t223.5 -247.5t79.5 -431.5t-80 -431.5t-224 -247.5t-336 -80zM738 158q129 0 223.5 56.5t146 183t51.5 336.5q0 217 -52 345.5t-146.5 185.5t-222.5 57t-222.5 -56
t-146.5 -182.5t-52 -337.5q0 -217 52 -346t146.5 -185.5t222.5 -56.5zM738 -371q-66 0 -101.5 29t-35.5 80t35.5 80.5t101.5 29.5t101.5 -29.5t35.5 -80.5t-35.5 -80t-101.5 -29zM397 1604l248 290h186l248 -290h-171l-190 228h40l-190 -228h-171z" />
    <glyph glyph-name="uni1ED9" unicode="&#x1ed9;" horiz-adv-x="1140" 
d="M570 -20q-147 0 -255.5 60t-168.5 184t-60 318q0 195 59 319t167.5 184t257.5 60t257.5 -60t167.5 -184t59 -318q0 -193 -59.5 -318t-168.5 -185t-256 -60zM570 145q84 0 145 36.5t94 123t33 236.5q0 152 -33 239t-94 123.5t-145 36.5t-145 -36t-94 -122.5t-33 -236.5
q0 -152 32.5 -239t94 -124t145.5 -37zM570 -385q-59 0 -91.5 31.5t-32.5 84.5t32.5 85t91.5 32t91.5 -32t32.5 -85t-32.5 -84.5t-91.5 -31.5zM254 1247l226 369h180l226 -369h-159l-176 298h38l-176 -298h-159z" />
    <glyph glyph-name="uni1EDA" unicode="&#x1eda;" horiz-adv-x="1477" 
d="M738 -19q-192 0 -336 79.5t-223.5 247.5t-79.5 432t80 432t223.5 247.5t335.5 79.5q57 0 106 -5.5t96.5 -11.5t100.5 -6q91 0 142 37.5t51 121.5q0 37 -5.5 70t-15.5 71h149q13 -37 18 -72t5 -78q0 -87 -36.5 -146t-103.5 -88.5t-158 -29.5l14 42q130 -82 203.5 -245.5
t73.5 -418.5q0 -266 -79.5 -433.5t-223.5 -246.5t-337 -79zM738 158q129 0 223.5 56.5t146 183t51.5 336.5q0 217 -52 345.5t-146.5 185.5t-222.5 57t-222.5 -56t-146.5 -182.5t-52 -337.5q0 -217 52 -346t146.5 -185.5t222.5 -56.5zM643 1604l178 290h223l-212 -290h-189z
" />
    </font>
</defs>
</svg>
