<?xml version="1.0" standalone="no"?>
<!DOCTYPE svg PUBLIC "-//W3C//DTD SVG 1.1//EN" "http://www.w3.org/Graphics/SVG/1.1/DTD/svg11.dtd" >
<svg xmlns="http://www.w3.org/2000/svg" xmlns:xlink="http://www.w3.org/1999/xlink" version="1.1">
<metadata>
Created by FontForge 20170731 at Wed Jun 24 20:56:00 2020
 By Aleksey,,,
Copyright 2020 The Encode Project Authors (https://github.com/thundernixon/Encode-Sans), with Reserved Font Name 'Encode Sans'.
</metadata>
<defs>
<font id="EncodeSans-ExtraBold" horiz-adv-x="0" >
  <font-face 
    font-family="Encode Sans ExtraBold"
    font-weight="800"
    font-stretch="normal"
    units-per-em="2000"
    panose-1="0 0 0 0 0 0 0 0 0 0"
    ascent="1600"
    descent="-400"
    x-height="1097"
    cap-height="1480"
    bbox="-358 -508 3026 2291"
    underline-thickness="50"
    underline-position="-175"
    unicode-range="U+000D-FB02"
  />
<missing-glyph horiz-adv-x="1214" 
d="M607 -10q-114 0 -214.5 5.5t-216.5 20.5v1438q99 21 216.5 30.5t214.5 9.5t214.5 -9.5t216.5 -30.5v-1438q-116 -15 -216.5 -20.5t-214.5 -5.5zM607 1428q-85 0 -174 -7t-189 -21v-1322q65 -10 153.5 -16t209.5 -6t210 6t153 16v1322q-184 28 -363 28zM941 49l-335 635
l-35 64l-349 659l54 26l330 -623l35 -62l357 -674zM271 49l-57 25l357 674l35 62l330 623l54 -26l-349 -659l-35 -64z" />
    <glyph glyph-name=".notdef" horiz-adv-x="1214" 
d="M607 -10q-114 0 -214.5 5.5t-216.5 20.5v1438q99 21 216.5 30.5t214.5 9.5t214.5 -9.5t216.5 -30.5v-1438q-116 -15 -216.5 -20.5t-214.5 -5.5zM607 1428q-85 0 -174 -7t-189 -21v-1322q65 -10 153.5 -16t209.5 -6t210 6t153 16v1322q-184 28 -363 28zM941 49l-335 635
l-35 64l-349 659l54 26l330 -623l35 -62l357 -674zM271 49l-57 25l357 674l35 62l330 623l54 -26l-349 -659l-35 -64z" />
    <glyph glyph-name=".null" 
 />
    <glyph glyph-name="nonmarkingreturn" horiz-adv-x="666" 
 />
    <glyph glyph-name="NULL" 
 />
    <glyph glyph-name="NULL" 
 />
    <glyph glyph-name="CR" unicode="&#xd;" horiz-adv-x="508" 
 />
    <glyph glyph-name="space" unicode=" " horiz-adv-x="508" 
 />
    <glyph glyph-name="exclam" unicode="!" horiz-adv-x="631" 
d="M203 503l-88 479v498h401v-498l-84 -479h-229zM315 -19q-109 0 -174.5 57.5t-65.5 155.5t64.5 155t175.5 57q112 0 176 -58.5t64 -153.5t-65 -154t-175 -59z" />
    <glyph glyph-name="quotedbl" unicode="&#x22;" horiz-adv-x="967" 
d="M133 820l-69 796h369l-70 -796h-230zM603 820l-69 796h369l-70 -796h-230z" />
    <glyph glyph-name="numbersign" unicode="#" horiz-adv-x="1290" 
d="M643 0l154 1480h286l-154 -1480h-286zM100 370v282h1090v-282h-1090zM207 0l154 1480h286l-154 -1480h-286zM100 828v282h1090v-282h-1090z" />
    <glyph glyph-name="dollar" unicode="$" horiz-adv-x="1186" 
d="M509 -20q-107 0 -217.5 16.5t-203.5 44.5v309q62 -20 136 -33.5t146.5 -21.5t131.5 -8q98 0 153.5 16.5t78.5 47.5t23 73q0 53 -37.5 84.5t-149.5 60.5l-122 31q-197 49 -298.5 155t-101.5 279q0 220 163 343t498 123q97 0 187.5 -11t161.5 -28v-309q-69 19 -157 30
t-166 11q-120 0 -186.5 -18t-93 -49.5t-26.5 -70.5q0 -49 32.5 -78.5t127.5 -55.5l123 -31q146 -36 240.5 -94.5t140 -144t45.5 -201.5q0 -145 -74.5 -250.5t-215 -162.5t-339.5 -57zM416 -240v309l354 1v-310h-354zM416 1428v292h354v-292h-354z" />
    <glyph glyph-name="percent" unicode="%" horiz-adv-x="2184" 
d="M606 0l668 1480h305l-669 -1480h-304zM500 568q-126 0 -221.5 52t-149 155.5t-53.5 258.5q0 154 53.5 258t149 156t221.5 52t221 -52t148.5 -156t53.5 -258q0 -155 -53.5 -258.5t-149 -155.5t-220.5 -52zM499 799q38 0 67.5 21.5t46.5 73t17 139.5q0 89 -17 140.5
t-46.5 73t-67.5 21.5q-37 0 -66.5 -21.5t-46 -73t-16.5 -139.5q0 -89 16.5 -140t46 -73t66.5 -22zM1684 -18q-125 0 -220.5 52t-149 155.5t-53.5 258.5t53.5 258.5t149 155.5t220.5 52q126 0 221.5 -52t149 -155.5t53.5 -258.5t-53.5 -258.5t-149 -155.5t-221.5 -52z
M1684 213q38 0 67.5 22t46.5 73t17 140t-17 140t-46.5 73t-67.5 22q-37 0 -66.5 -22t-46.5 -73t-17 -140q0 -88 17 -139.5t46.5 -73.5t66.5 -22z" />
    <glyph glyph-name="ampersand" unicode="&#x26;" horiz-adv-x="1641" 
d="M1469 -20l-904 583q-136 87 -210 165t-102.5 153t-28.5 153q0 217 161 341.5t493 124.5q77 0 143.5 -6.5t126.5 -16.5v-309q-52 11 -116 18t-124 7q-116 0 -182 -20.5t-93.5 -58.5t-27.5 -89q0 -34 13 -63t42 -58t78 -62l903 -583zM700 -18q-201 0 -336 52.5t-203 147.5
t-68 223q0 98 38.5 175.5t104 131t145.5 79.5l196 -141q-48 -37 -76 -86t-28 -116q0 -63 31.5 -107.5t92 -68.5t147.5 -24q102 0 182.5 36.5t127 121.5t46.5 231q0 58 -8.5 123t-24.5 126h300q16 -61 24 -125t8 -120q0 -218 -84.5 -364.5t-241 -220.5t-373.5 -74z" />
    <glyph glyph-name="quotesingle" unicode="'" horiz-adv-x="497" 
d="M133 820l-69 796h369l-70 -796h-230z" />
    <glyph glyph-name="parenleft" unicode="(" horiz-adv-x="737" 
d="M438 -440q-182 204 -262 465t-80 563t80 563t262 465h392q-123 -151 -200 -312.5t-113 -339t-36 -376.5t36 -376.5t113 -339t200 -312.5h-392z" />
    <glyph glyph-name="parenright" unicode=")" horiz-adv-x="737" 
d="M-94 -440q124 151 201 312.5t112.5 339t35.5 376.5t-35.5 376.5t-112.5 339t-201 312.5h392q183 -204 263 -465t80 -563t-80 -563t-263 -465h-392z" />
    <glyph glyph-name="asterisk" unicode="*" horiz-adv-x="1037" 
d="M659 1122l140 -126l89 -124l-199 -144l-89 123l-81 186l-82 -186l-89 -123l-199 144l89 124l141 126l-185 21l-164 53l76 233l163 -53l167 -97l-40 189v148h245v-148l-40 -189l167 97l163 53l76 -233l-163 -53z" />
    <glyph glyph-name="plus" unicode="+" horiz-adv-x="1109" 
d="M405 305v312h-299v286h299v312h298v-312h300v-286h-300v-312h-298z" />
    <glyph glyph-name="comma" unicode="," horiz-adv-x="591" 
d="M143 -352q55 112 85 207t30 192l84 -66h-47q-107 0 -173.5 60.5t-66.5 163.5q0 106 63.5 165t171.5 59q119 0 181.5 -73t62.5 -218q0 -128 -48.5 -258t-128.5 -232h-214z" />
    <glyph glyph-name="hyphen" unicode="-" horiz-adv-x="934" 
d="M106 417v304h723v-304h-723z" />
    <glyph glyph-name="period" unicode="." horiz-adv-x="591" 
d="M296 -19q-110 0 -175.5 60.5t-65.5 163.5q0 104 64.5 164t176.5 60q111 0 175 -61.5t64 -162.5t-65 -162.5t-174 -61.5z" />
    <glyph glyph-name="slash" unicode="/" horiz-adv-x="850" 
d="M0 -240l480 1856h370l-480 -1856h-370z" />
    <glyph glyph-name="zero" unicode="0" horiz-adv-x="1370" 
d="M685 -20q-187 0 -321.5 81t-206 249.5t-71.5 429.5t71.5 429.5t205.5 249.5t322 81q187 0 321.5 -81t206 -249.5t71.5 -429.5t-72 -429.5t-206.5 -249.5t-320.5 -81zM685 292q72 0 121.5 41t75.5 138.5t26 267.5q0 172 -26 269.5t-75.5 138.5t-121.5 41q-71 0 -121.5 -41
t-76 -138.5t-25.5 -267.5q0 -172 25.5 -269.5t75.5 -138.5t122 -41z" />
    <glyph glyph-name="one" unicode="1" horiz-adv-x="867" 
d="M353 0v1266l137 -137l-462 -315v356l462 316h247v-1486h-384z" />
    <glyph glyph-name="two" unicode="2" horiz-adv-x="1105" 
d="M44 0v205l403 490q60 74 95.5 131t51.5 104t16 91q0 87 -58 129.5t-196 42.5q-88 0 -176 -16t-155 -42v309q45 16 109 28.5t133 20t131 7.5q293 0 441.5 -105.5t148.5 -335.5q0 -73 -19.5 -147t-64.5 -153.5t-123 -170.5l-313 -368l-7 95h595v-315h-1012z" />
    <glyph glyph-name="three" unicode="3" horiz-adv-x="1114" 
d="M435 -20q-107 0 -206.5 13t-188.5 37v283q85 -22 186.5 -36t192.5 -14q149 0 213.5 45.5t64.5 131.5q0 84 -62 128t-218 44h-231v287h195q145 0 203.5 43t58.5 118q0 77 -57 117t-186 40q-83 0 -173 -14.5t-165 -40.5v283q49 16 113 28.5t134 19.5t134 7
q284 0 425.5 -106t141.5 -299q0 -130 -73.5 -220t-201.5 -119v14q155 -24 239 -113.5t84 -241.5q0 -135 -68 -232.5t-206.5 -150t-348.5 -52.5z" />
    <glyph glyph-name="four" unicode="4" horiz-adv-x="1306" 
d="M33 286v209l495 985h366l-487 -985l-40 85h909v-294h-1243zM749 0v580l37 400h306v-980h-343z" />
    <glyph glyph-name="five" unicode="5" horiz-adv-x="1127" 
d="M462 -20q-107 0 -206.5 15t-188.5 40v283q84 -23 185.5 -37t193.5 -14q147 0 211.5 44.5t64.5 129.5q0 58 -33.5 97.5t-125 63t-264.5 33.5l-189 10l52 835h861v-293h-675l166 167l-38 -560l-222 130l189 -11q229 -12 370 -67t205.5 -153.5t64.5 -242.5
q0 -229 -156.5 -349.5t-464.5 -120.5z" />
    <glyph glyph-name="six" unicode="6" horiz-adv-x="1286" 
d="M696 -20q-134 0 -244.5 41.5t-190 127.5t-123 221t-43.5 322q0 270 87.5 449.5t254.5 269t406 89.5q88 0 167 -10t147 -36v-290q-69 24 -143 35t-152 11q-134 0 -222 -45.5t-130.5 -138t-42.5 -232.5v-162q0 -112 16 -185.5t46 -115.5t72.5 -59.5t96.5 -17.5
q56 0 99.5 20t68 62t24.5 107t-26 107t-73.5 62t-111.5 20q-49 0 -97.5 -11t-92.5 -35.5t-81 -61.5v259q56 58 151.5 89.5t196.5 31.5q136 0 244.5 -47t171.5 -147t63 -257q0 -146 -65 -252t-186 -163.5t-288 -57.5z" />
    <glyph glyph-name="seven" unicode="7" horiz-adv-x="1053" 
d="M148 0l483 1275l128 -110h-748v315h984v-205l-454 -1275h-393z" />
    <glyph glyph-name="eight" unicode="8" horiz-adv-x="1370" 
d="M688 -20q-215 0 -350.5 50.5t-199.5 138t-64 200.5q0 127 82 223.5t238 145.5l244 -91q-110 -36 -158.5 -101t-48.5 -133q0 -82 62.5 -127t195.5 -45q131 0 189.5 40.5t58.5 111.5q0 50 -27 86.5t-97 67t-201 63.5q-189 48 -298 117t-155 157.5t-46 194.5q0 124 66 219
t198 148.5t331 53.5q259 0 402.5 -100.5t143.5 -275.5q0 -74 -28 -142t-91 -125.5t-171 -99.5l-224 94q100 51 142.5 108t42.5 127q0 74 -55.5 113.5t-165.5 39.5q-122 0 -176.5 -41.5t-54.5 -103.5q0 -48 24.5 -83.5t94.5 -67.5t208 -70q190 -52 297.5 -117.5t151.5 -149
t44 -191.5q0 -124 -67 -222t-201 -155.5t-337 -57.5z" />
    <glyph glyph-name="nine" unicode="9" horiz-adv-x="1286" 
d="M590 1500q134 0 244.5 -41.5t190 -127.5t123 -221t43.5 -322q0 -270 -87.5 -449.5t-254.5 -269t-406 -89.5q-88 0 -167 10t-147 36v290q69 -24 143 -35t152 -11q134 0 222 45.5t130.5 138t42.5 232.5v162q0 112 -16 185.5t-46 115.5t-72.5 59.5t-96.5 17.5
q-56 0 -99.5 -20t-68 -62t-24.5 -107t26 -107t73.5 -62t111.5 -20q49 0 97.5 11t92.5 35.5t81 61.5v-259q-56 -58 -151.5 -89.5t-196.5 -31.5q-136 0 -244.5 47t-171.5 147t-63 257q0 146 65 252t186 163.5t288 57.5z" />
    <glyph glyph-name="colon" unicode=":" horiz-adv-x="591" 
d="M296 -19q-110 0 -175.5 60.5t-65.5 163.5q0 104 64.5 164t176.5 60q111 0 175 -61.5t64 -162.5t-65 -162.5t-174 -61.5zM296 668q-110 0 -175.5 60.5t-65.5 163.5q0 104 64.5 164t176.5 60q111 0 175 -61.5t64 -162.5t-65 -162.5t-174 -61.5z" />
    <glyph glyph-name="semicolon" unicode=";" horiz-adv-x="591" 
d="M143 -352q55 112 85 207t30 192l84 -66h-47q-107 0 -173.5 60.5t-66.5 163.5q0 106 63.5 165t171.5 59q119 0 181.5 -73t62.5 -218q0 -128 -48.5 -258t-128.5 -232h-214zM296 668q-110 0 -175.5 60.5t-65.5 163.5q0 104 64.5 164t176.5 60q111 0 175 -61.5t64 -162.5
t-65 -162.5t-174 -61.5z" />
    <glyph glyph-name="less" unicode="&#x3c;" horiz-adv-x="1109" 
d="M1003 251l-897 329v360l897 329v-286l-693 -240v39l693 -245v-286z" />
    <glyph glyph-name="equal" unicode="=" horiz-adv-x="1109" 
d="M106 850v285h897v-285h-897zM106 385v285h897v-285h-897z" />
    <glyph glyph-name="greater" unicode="&#x3e;" horiz-adv-x="1109" 
d="M106 251v286l692 245v-39l-692 240v286l897 -329v-360z" />
    <glyph glyph-name="question" unicode="?" horiz-adv-x="1023" 
d="M343 500l-65 354q131 22 203 51.5t100 67.5t28 85q0 74 -57 112t-188 38q-83 0 -172 -14t-164 -41v292q49 16 113 28.5t134 19.5t134 7q284 0 425.5 -106t141.5 -303q0 -108 -45.5 -188.5t-130 -136.5t-202.5 -90l-27 -176h-228zM457 -19q-109 0 -174.5 57.5t-65.5 155.5
t64.5 155t175.5 57q112 0 176 -58.5t64 -153.5t-65 -154t-175 -59z" />
    <glyph glyph-name="at" unicode="@" horiz-adv-x="2154" 
d="M1123 -460q-337 0 -570.5 104t-355 321t-121.5 555q0 337 119.5 553.5t345.5 320.5t545 104t540.5 -101t337 -303.5t115.5 -507.5q0 -222 -62 -355.5t-172 -192.5t-255 -59q-119 0 -204 37.5t-135 114.5h-19q-33 -85 -110 -118.5t-168 -33.5q-173 0 -268.5 89.5
t-95.5 234.5q0 159 112.5 247.5t362.5 104.5l210 15l41 -195l-213 -16q-73 -5 -108 -33t-35 -83q0 -54 35 -78.5t87 -24.5q29 0 70 11t68 35v355q0 64 -21.5 102t-72 55t-134.5 17q-66 0 -145.5 -13.5t-150.5 -38.5l2 280q82 26 178.5 40.5t184.5 14.5q183 0 299 -45
t171.5 -149t55.5 -279v-297q0 -58 23.5 -83.5t65.5 -25.5q43 0 75.5 28.5t51 106t18.5 224.5q0 184 -44.5 313.5t-135 211t-229 119t-326.5 37.5t-325.5 -40t-227.5 -127t-134 -228t-44 -343q0 -203 44.5 -345t138 -229.5t239 -127.5t346.5 -40q122 0 239.5 13.5t235.5 40.5
v-239q-115 -27 -233.5 -40.5t-241.5 -13.5z" />
    <glyph glyph-name="A" unicode="A" horiz-adv-x="1497" 
d="M8 0l459 1480h563l458 -1480h-376l-384 1315h36l-383 -1315h-373zM361 365l81 302h611l80 -302h-772z" />
    <glyph glyph-name="B" unicode="B" horiz-adv-x="1359" 
d="M556 -19q-62 0 -139 4.5t-154.5 11t-142.5 16.5v1431q71 16 156 28.5t173 19.5t170 7q229 0 373.5 -46t212.5 -139.5t68 -232.5q0 -82 -31.5 -149t-89 -113t-135.5 -63l1 12q129 -20 212 -105.5t83 -242.5q0 -105 -40.5 -186.5t-129.5 -137.5t-233.5 -85.5t-353.5 -29.5z
M662 258q114 0 179 19.5t92 59t27 99.5q0 93 -57 135t-192 42h-255v285h223q87 0 138.5 18t74 53.5t22.5 90.5q0 85 -54 123.5t-189 38.5q-48 0 -91.5 -4t-84.5 -12v-941q48 -4 87 -5.5t80 -1.5z" />
    <glyph glyph-name="C" unicode="C" horiz-adv-x="1269" 
d="M884 -20q-195 0 -345.5 44.5t-253.5 137t-156 235.5t-53 339q0 250 95.5 420t279.5 257t449 87q84 0 163.5 -8t154.5 -25v-314q-68 15 -138.5 23t-146.5 8q-156 0 -257 -45.5t-149.5 -143.5t-48.5 -255q0 -160 48 -257.5t146.5 -142t249.5 -44.5q74 0 148.5 11.5
t147.5 31.5v-313q-70 -21 -157.5 -33.5t-176.5 -12.5z" />
    <glyph glyph-name="D" unicode="D" horiz-adv-x="1536" 
d="M546 -16q-64 0 -136.5 2.5t-146.5 8t-143 13.5v1436q72 16 155.5 28t171.5 18.5t172 6.5q417 0 629 -183.5t212 -573.5q0 -266 -100.5 -433t-303.5 -245t-510 -78zM649 294q140 0 233 43.5t139 141.5t46 263q0 163 -47.5 261t-140.5 142t-231 44q-32 0 -72 -3.5
t-72 -10.5v-877q38 -3 73.5 -3.5t71.5 -0.5z" />
    <glyph glyph-name="E" unicode="E" horiz-adv-x="1286" 
d="M120 0v1480h1084v-304h-705v-872h715v-304h-1094zM345 604v304h756v-304h-756z" />
    <glyph glyph-name="F" unicode="F" horiz-adv-x="1245" 
d="M120 0v1480h1083v-310h-699v-1170h-384zM361 559v310h738v-310h-738z" />
    <glyph glyph-name="G" unicode="G" horiz-adv-x="1455" 
d="M953 -19q-294 0 -488.5 83t-291.5 250.5t-97 421.5q0 250 100 420t296 257t485 87q87 0 171 -9t163 -27v-313q-74 16 -148 24.5t-151 8.5q-182 0 -295.5 -46t-167 -146t-53.5 -262q0 -150 49 -246.5t148 -143t249 -46.5q57 0 116 4.5t107 12.5l-165 -142v551h356v-705
q-96 -15 -192.5 -24.5t-190.5 -9.5z" />
    <glyph glyph-name="H" unicode="H" horiz-adv-x="1555" 
d="M120 0v1480h384v-556h547v556h384v-1480h-384v587h-547v-587h-384z" />
    <glyph glyph-name="I" unicode="I" horiz-adv-x="624" 
d="M120 0v1480h384v-1480h-384z" />
    <glyph glyph-name="J" unicode="J" horiz-adv-x="624" 
d="M216 -352l-243 162q56 75 88.5 147t46.5 155t14 190v1178h382v-1169q0 -125 -27.5 -235t-90.5 -215t-170 -213z" />
    <glyph glyph-name="K" unicode="K" horiz-adv-x="1364" 
d="M1003 0l-493 753l463 727h402l-491 -770l7 99l527 -809h-415zM120 0v1480h384v-1480h-384zM452 587v337h205v-337h-205z" />
    <glyph glyph-name="L" unicode="L" horiz-adv-x="1176" 
d="M120 0v1480h384v-1163h663v-317h-1047z" />
    <glyph glyph-name="M" unicode="M" horiz-adv-x="1920" 
d="M124 0v1480h469l394 -916h-41l381 916h469v-1480h-358v1144h71l-394 -927h-310l-410 927h87v-1144h-358z" />
    <glyph glyph-name="N" unicode="N" horiz-adv-x="1570" 
d="M120 0v1480h384l646 -999h-61v999h360v-1480h-384l-646 999h62v-999h-361z" />
    <glyph glyph-name="O" unicode="O" horiz-adv-x="1606" 
d="M803 -20q-220 0 -383.5 84t-253.5 253t-90 423t90 423t253.5 253t383.5 84q221 0 384.5 -84.5t253.5 -253.5t90 -422t-90 -422t-254 -253.5t-384 -84.5zM803 288q107 0 181.5 46t113.5 144t39 255q0 164 -39.5 265t-114.5 147.5t-180 46.5t-179.5 -45.5t-114.5 -143.5
t-40 -256q0 -165 39.5 -266t114 -147t180.5 -46z" />
    <glyph glyph-name="P" unicode="P" horiz-adv-x="1347" 
d="M120 0v1451q109 23 226 35.5t247 12.5q344 0 515.5 -131t171.5 -415q0 -268 -165.5 -406.5t-485.5 -138.5q-34 0 -63.5 1.5t-61.5 3.5v-413h-384zM633 694q141 0 208 58.5t67 198.5q0 139 -67.5 201t-211.5 62q-37 0 -66 -2t-59 -8v-502q33 -4 62.5 -6t66.5 -2z" />
    <glyph glyph-name="Q" unicode="Q" horiz-adv-x="1606" 
d="M1450 -348q-321 51 -554.5 125.5t-391.5 172.5t-252 218t-135 261t-41 302q0 259 90 429.5t253.5 255t383.5 84.5q221 0 384.5 -84.5t253.5 -253t90 -422.5q0 -223 -76 -386t-226.5 -251.5t-377.5 -88.5q-40 0 -82 3t-86 9l124 93q122 -46 239.5 -78.5t233 -54.5
t233.5 -36zM803 288q107 0 181.5 46t113.5 144t39 255q0 164 -39.5 265t-114.5 147.5t-180 46.5t-179.5 -45.5t-114.5 -143.5t-40 -256q0 -166 39 -266.5t113.5 -146.5t181.5 -46z" />
    <glyph glyph-name="R" unicode="R" horiz-adv-x="1403" 
d="M120 0v1444q70 16 151.5 28.5t167 19.5t168.5 7q329 0 496.5 -119t167.5 -370q0 -162 -78 -271.5t-220.5 -165t-336.5 -55.5q-38 0 -71 1.5t-68 2.5v-522h-377zM980 0l-460 680h408l469 -680h-417zM644 801q134 0 201 48t67 160q0 73 -29.5 120t-87.5 69t-145 22
q-43 0 -81 -3.5t-72 -10.5v-397q25 -3 48.5 -5t48 -2.5t50.5 -0.5z" />
    <glyph glyph-name="S" unicode="S" horiz-adv-x="1186" 
d="M518 -20q-114 0 -225.5 17.5t-204.5 47.5v309q62 -21 136 -35.5t149.5 -23t142.5 -8.5q136 0 188.5 37t52.5 100q0 53 -37.5 84.5t-149.5 60.5l-122 31q-197 49 -298.5 155t-101.5 279q0 220 161 343t487 123q106 0 198.5 -12t163.5 -32v-309q-69 22 -159 34t-180 12
q-112 0 -175 -18t-89 -49.5t-26 -70.5q0 -49 32.5 -78.5t127.5 -55.5l123 -31q146 -36 240.5 -94.5t140 -144t45.5 -201.5q0 -145 -74 -250.5t-212.5 -162.5t-333.5 -57z" />
    <glyph glyph-name="T" unicode="T" horiz-adv-x="1325" 
d="M470 0v1163h-457v317h1299v-317h-457v-1163h-385z" />
    <glyph glyph-name="U" unicode="U" horiz-adv-x="1523" 
d="M766 -20q-226 0 -370 72t-213 217t-69 364v847h384v-884q0 -161 67.5 -232t200.5 -71q132 0 199 71t67 232v884h377v-847q0 -219 -68 -364t-210.5 -217t-364.5 -72z" />
    <glyph glyph-name="V" unicode="V" horiz-adv-x="1474" 
d="M452 0l-455 1480h401l390 -1325h-83l399 1325h373l-455 -1480h-570z" />
    <glyph glyph-name="W" unicode="W" horiz-adv-x="2338" 
d="M403 0l-382 1480h388l316 -1313h-97l342 1313h421l326 -1313h-88l325 1313h362l-381 -1480h-491l-318 1247h102l-334 -1247h-491z" />
    <glyph glyph-name="X" unicode="X" horiz-adv-x="1411" 
d="M1033 0l-331 497l-223 274l-485 709h424l288 -428l222 -276l527 -776h-422zM-47 0l526 771l227 281l287 428h413l-478 -704l-226 -279l-332 -497h-417z" />
    <glyph glyph-name="Y" unicode="Y" horiz-adv-x="1325" 
d="M473 0v769l77 -280l-610 991h406l380 -630h-105l376 630h376l-593 -991l77 275v-764h-384z" />
    <glyph glyph-name="Z" unicode="Z" horiz-adv-x="1271" 
d="M59 0v210l694 1023l2 -70h-686v317h1133v-210l-695 -1023l-2 70h707v-317h-1153z" />
    <glyph glyph-name="bracketleft" unicode="[" horiz-adv-x="737" 
d="M140 -440v2056h624v-294h-248v-1468h240v-294h-616z" />
    <glyph glyph-name="backslash" unicode="\" horiz-adv-x="851" 
d="M480 -240l-480 1856h371l480 -1856h-371z" />
    <glyph glyph-name="bracketright" unicode="]" horiz-adv-x="737" 
d="M-19 -440v294h239v1468h-248v294h625v-2056h-616z" />
    <glyph glyph-name="asciicircum" unicode="^" horiz-adv-x="1290" 
d="M54 740l416 740h350l416 -740h-363l-307 559h158l-307 -559h-363z" />
    <glyph glyph-name="underscore" unicode="_" horiz-adv-x="1241" 
d="M86 -295v294h1069v-294h-1069z" />
    <glyph glyph-name="grave" unicode="`" horiz-adv-x="1173" 
d="M428 1226l-283 390h397l230 -390h-344z" />
    <glyph glyph-name="a" unicode="a" horiz-adv-x="1149" 
d="M417 -21q-173 0 -268.5 90.5t-95.5 233.5q0 159 112 249t364 105l208 14l42 -202l-209 -14q-78 -5 -113 -34.5t-35 -80.5q0 -49 31.5 -76t90.5 -27q34 0 70.5 10t67.5 35v372q0 66 -22 105t-74 56t-141 17q-64 0 -144.5 -10.5t-153.5 -31.5v279q85 23 184 34.5t184 11.5
q187 0 305 -45.5t173.5 -152t55.5 -288.5v-629h-308l-26 105h-17q-47 -67 -120.5 -96.5t-160.5 -29.5z" />
    <glyph glyph-name="b" unicode="b" horiz-adv-x="1266" 
d="M560 -21q-112 0 -231.5 16t-221.5 50v1571h376v-623h18q47 59 116.5 90.5t160.5 31.5q115 0 212.5 -58t156.5 -178t59 -308q0 -287 -159 -439.5t-487 -152.5zM593 261q118 0 176.5 64t58.5 217q0 104 -24.5 162t-69 81.5t-105.5 23.5q-38 0 -76.5 -10.5t-69.5 -33.5v-491
q23 -6 51 -9.5t59 -3.5z" />
    <glyph glyph-name="c" unicode="c" horiz-adv-x="993" 
d="M660 -21q-194 0 -327.5 63t-203 189t-69.5 315q0 192 74.5 318t215 188.5t340.5 62.5q70 0 132.5 -6t119.5 -19v-294q-51 9 -99.5 13.5t-98.5 4.5q-104 0 -169.5 -27.5t-96 -86t-30.5 -151.5q0 -97 30.5 -156.5t90.5 -86.5t150 -27q52 0 103.5 8.5t119.5 25.5v-294
q-59 -19 -132 -29.5t-150 -10.5z" />
    <glyph glyph-name="d" unicode="d" horiz-adv-x="1266" 
d="M517 -20q-123 0 -227 56.5t-167 176.5t-63 313q0 189 70 321t206.5 200.5t338.5 68.5q28 0 56 -2t52 -4v506h376v-1616h-315l-23 114h-16q-47 -61 -119 -97.5t-169 -36.5zM631 286q42 0 82 12.5t70 39.5v485q-23 4 -51.5 7t-56.5 3q-118 0 -177.5 -63.5t-59.5 -214.5
q0 -105 24.5 -163.5t67.5 -82t101 -23.5z" />
    <glyph glyph-name="e" unicode="e" horiz-adv-x="1138" 
d="M693 -21q-220 0 -360 59.5t-206.5 185.5t-66.5 326q0 177 61.5 304t180.5 194t291 67q164 0 274 -67.5t165.5 -197t55.5 -313.5v-95h-812v211h520l-56 -18q0 92 -16 146.5t-50 77t-85 22.5q-52 0 -86 -22.5t-51 -76.5t-17 -146v-154q0 -83 25.5 -131.5t93 -69.5
t193.5 -21q65 0 136.5 8.5t141.5 22.5v-278q-90 -18 -171 -26t-161 -8z" />
    <glyph glyph-name="f" unicode="f" horiz-adv-x="834" 
d="M195 0v1144q0 154 60.5 264t178 169t288.5 59q45 0 84.5 -3t79.5 -9v-291q-28 4 -52.5 5.5t-51.5 1.5q-113 0 -163 -43.5t-50 -134.5v-1162h-374zM27 804v293h811v-293h-811z" />
    <glyph glyph-name="g" unicode="g" horiz-adv-x="1266" 
d="M522 -460q-91 0 -189.5 10t-193.5 33v291q95 -24 185.5 -36t166.5 -12q155 0 223.5 54.5t68.5 177.5v60h-17q-47 -58 -117 -90t-161 -32q-112 0 -209.5 57.5t-158 175t-60.5 298.5q0 279 159.5 433.5t487.5 154.5q75 0 155 -7.5t156.5 -22t140.5 -35.5v-921
q0 -309 -156.5 -449t-480.5 -140zM637 299q39 0 77.5 11t68.5 33v479q-23 5 -51 8t-59 3q-113 0 -174 -63t-61 -212q0 -100 24 -156.5t68.5 -79.5t106.5 -23z" />
    <glyph glyph-name="h" unicode="h" horiz-adv-x="1254" 
d="M107 0v1616h376v-625h18q52 60 125 92t165 32q101 0 183.5 -44.5t131 -142.5t48.5 -259v-669h-377v642q0 86 -34 118t-94 32q-30 0 -60.5 -8t-58 -23.5t-47.5 -37.5v-723h-376z" />
    <glyph glyph-name="i" unicode="i" horiz-adv-x="591" 
d="M107 0v1097h377v-1097h-377zM296 1229q-117 0 -172.5 49.5t-55.5 139.5q0 92 55.5 141.5t172.5 49.5q118 0 173 -49.5t55 -141.5q0 -90 -55 -139.5t-173 -49.5z" />
    <glyph glyph-name="j" unicode="j" horiz-adv-x="591" 
d="M200 -474l-242 160q56 75 88.5 148t46.5 156t14 188v919h377v-904q0 -126 -27 -237t-89.5 -216.5t-167.5 -213.5zM291 1230q-117 0 -172.5 49.5t-55.5 139.5q0 92 55.5 141.5t172.5 49.5q118 0 173 -49.5t55 -141.5q0 -90 -55 -139.5t-173 -49.5z" />
    <glyph glyph-name="k" unicode="k" horiz-adv-x="1230" 
d="M860 0l-369 564l342 533h398l-360 -574v98l396 -621h-407zM453 415v299h167v-299h-167zM107 0v1616h376v-1616h-376z" />
    <glyph glyph-name="l" unicode="l" horiz-adv-x="590" 
d="M107 0v1616h376v-1616h-376z" />
    <glyph glyph-name="m" unicode="m" horiz-adv-x="1844" 
d="M107 0v1097h310l25 -107h16q57 61 133 93t171 32q100 0 179.5 -43.5t126 -139t46.5 -252.5v-680h-369v646q0 84 -30 115t-83 31q-29 0 -56.5 -8t-51.5 -23.5t-41 -37.5v-723h-376zM1368 0v646q0 84 -33 115t-86 31q-31 0 -60 -8t-53 -24.5t-42 -40.5l-73 235
q72 84 162.5 122.5t184.5 38.5q109 0 194 -44.5t133.5 -143t48.5 -260.5v-667h-376z" />
    <glyph glyph-name="n" unicode="n" horiz-adv-x="1254" 
d="M107 0v1097h310l25 -107h16q59 61 139 93t175 32q110 0 196.5 -44.5t136 -143t49.5 -258.5v-669h-377v645q0 84 -33.5 115.5t-94.5 31.5q-31 0 -61.5 -7.5t-57.5 -23t-47 -38.5v-723h-376z" />
    <glyph glyph-name="o" unicode="o" horiz-adv-x="1238" 
d="M619 -21q-172 0 -297.5 63.5t-193.5 189.5t-68 313q0 189 66 315.5t191 190.5t302 64t302 -64.5t190.5 -191t65.5 -312.5q0 -188 -67.5 -314.5t-193 -190t-297.5 -63.5zM619 260q58 0 98.5 25.5t61 87.5t20.5 172q0 112 -21 174.5t-61.5 88t-97.5 25.5q-58 0 -98.5 -25
t-61.5 -87.5t-21 -173.5t21 -173.5t61 -88t99 -25.5z" />
    <glyph glyph-name="p" unicode="p" horiz-adv-x="1266" 
d="M107 -440v1537h316l22 -116h17q46 61 118.5 97.5t168.5 36.5q123 0 227 -56t167 -176.5t63 -312.5q0 -189 -69.5 -321t-206.5 -201t-338 -69q-29 0 -56.5 2t-52.5 4v-425h-376zM591 262q119 0 178 63.5t59 215.5q0 105 -24 163t-67.5 82t-101.5 24q-41 0 -81.5 -12.5
t-70.5 -40.5v-485q23 -3 52 -6.5t56 -3.5z" />
    <glyph glyph-name="q" unicode="q" horiz-adv-x="1266" 
d="M783 -440v542h-17q-47 -59 -117 -91t-161 -32q-115 0 -212.5 58t-156.5 178.5t-59 307.5q0 288 159 440t487 152q75 0 155.5 -7.5t157 -22t140.5 -35.5v-1490h-376zM637 286q39 0 77.5 10.5t68.5 32.5v493q-23 5 -51 8t-59 3q-113 0 -174 -63.5t-61 -216.5
q0 -104 24.5 -162.5t69 -81.5t105.5 -23z" />
    <glyph glyph-name="r" unicode="r" horiz-adv-x="841" 
d="M107 0v1097h307l29 -140h17q43 83 116 120t164 37q24 0 48 -2.5t42 -5.5v-339q-26 6 -56.5 7.5t-56.5 1.5q-45 0 -89.5 -10t-82.5 -29.5t-62 -47.5v-689h-376z" />
    <glyph glyph-name="s" unicode="s" horiz-adv-x="1006" 
d="M452 -21q-99 0 -193 12.5t-175 36.5v272q80 -24 173 -37.5t188 -13.5q97 0 134 22t37 59q0 29 -16 43.5t-58 22.5l-189 33q-156 28 -228.5 107.5t-72.5 215.5q0 165 134.5 264t411.5 99q84 0 164 -9.5t141 -26.5v-272q-63 18 -139 27.5t-155 9.5q-86 0 -131 -12
t-61.5 -31t-16.5 -41q0 -24 17 -39t58 -23l189 -33q144 -26 222 -98.5t78 -223.5q0 -169 -134.5 -266.5t-377.5 -97.5z" />
    <glyph glyph-name="t" unicode="t" horiz-adv-x="877" 
d="M621 -21q-210 0 -322 104t-112 326v688l70 383h307v-1012q0 -103 37 -142t126 -39q24 0 50 3t59 8v-294q-44 -10 -102 -17.5t-113 -7.5zM19 804v293h814v-293h-814z" />
    <glyph glyph-name="u" unicode="u" horiz-adv-x="1245" 
d="M487 -19q-112 0 -199.5 44.5t-137.5 142t-50 257.5v672h376v-645q0 -84 34 -116t89 -32q29 0 59 8t57 23.5t46 37.5v724h377v-1097h-310l-25 107h-15q-60 -62 -136.5 -94t-164.5 -32z" />
    <glyph glyph-name="v" unicode="v" horiz-adv-x="1205" 
d="M367 0l-374 1097h392l241 -795h-25l242 795h369l-375 -1097h-470z" />
    <glyph glyph-name="w" unicode="w" horiz-adv-x="1854" 
d="M323 0l-286 1097h355l168 -724h-15l185 724h412l180 -724h-22l177 724h340l-285 -1097h-412l-199 777h19l-205 -777h-412z" />
    <glyph glyph-name="x" unicode="x" horiz-adv-x="1168" 
d="M774 0l-193 296l-219 257l-371 544h412l186 -281l214 -259l382 -557h-411zM-16 0l378 553l227 263l183 281h400l-369 -540l-222 -261l-197 -296h-400z" />
    <glyph glyph-name="y" unicode="y" horiz-adv-x="1205" 
d="M318 -440l152 440l131 302l242 795h369l-527 -1537h-367zM367 0l-374 1097h392l330 -1097h-348z" />
    <glyph glyph-name="z" unicode="z" horiz-adv-x="1046" 
d="M66 0v239l511 630v-65h-501v293h912v-238l-511 -631v66h521v-294h-932z" />
    <glyph glyph-name="braceleft" unicode="{" horiz-adv-x="777" 
d="M618 -460q-217 0 -327.5 103t-110.5 299v422q0 56 -32 88t-87 32h-61v294h61q55 0 87 32t32 87v337q0 196 110.5 299t327.5 103q55 0 101 -4t85 -9v-286h-119q-64 0 -96.5 -26.5t-32.5 -89.5v-317q0 -141 -82 -216.5t-278 -78.5v43q196 -2 278 -77.5t82 -216.5v-403
q0 -62 32.5 -89t96.5 -27h119v-286q-39 -5 -85 -9t-101 -4z" />
    <glyph glyph-name="bar" unicode="|" horiz-adv-x="578" 
d="M120 -440v2056h338v-2056h-338z" />
    <glyph glyph-name="braceright" unicode="}" horiz-adv-x="777" 
d="M159 -460q-55 0 -101 4t-86 9v286h120q63 0 95.5 27t32.5 89v403q0 141 83.5 216.5t276.5 77.5v-43q-193 3 -276.5 78.5t-83.5 216.5v317q0 63 -32.5 89.5t-95.5 26.5h-120v286q40 5 86 9t101 4q218 0 328 -103t110 -299v-337q0 -55 32 -87t87 -32h61v-294h-61
q-55 0 -87 -32t-32 -88v-422q0 -196 -110 -299t-328 -103z" />
    <glyph glyph-name="asciitilde" unicode="~" horiz-adv-x="1109" 
d="M756 560q-61 0 -116.5 20t-108.5 43q-48 21 -94 38t-92 17q-70 0 -125 -25.5t-114 -84.5v290q94 100 247 100q61 0 116.5 -20t107.5 -43q49 -21 95 -38t91 -17q71 0 126.5 26.5t113.5 83.5v-289q-93 -101 -247 -101z" />
    <glyph glyph-name="uni00A0" unicode="&#xa0;" horiz-adv-x="508" 
 />
    <glyph glyph-name="exclamdown" unicode="&#xa1;" horiz-adv-x="631" 
d="M203 572h229l84 -467v-485h-401v484zM316 1116q109 0 174 -61t65 -163q0 -100 -64 -161.5t-175 -61.5q-112 0 -176.5 60t-64.5 163q0 105 65.5 164.5t175.5 59.5z" />
    <glyph glyph-name="cent" unicode="&#xa2;" horiz-adv-x="998" 
d="M660 -21q-194 0 -327.5 63t-203 189t-69.5 315q0 192 74.5 318t215 188.5t340.5 62.5q70 0 132.5 -6t119.5 -19v-294q-52 9 -100 13.5t-99 4.5q-103 0 -168.5 -27.5t-96 -86t-30.5 -151.5q0 -97 30.5 -156.5t90.5 -86.5t150 -27q52 0 103.5 8.5t119.5 25.5v-294
q-59 -19 -132 -29.5t-150 -10.5zM462 -240v292h320v-292h-320zM462 1045v292h320v-292h-320z" />
    <glyph glyph-name="sterling" unicode="&#xa3;" horiz-adv-x="1371" 
d="M259 111v877q0 249 163.5 380.5t498.5 131.5q97 0 187.5 -11t161.5 -28v-309q-69 19 -157 30t-166 11q-121 0 -190 -19.5t-97.5 -61t-28.5 -108.5v-893h-372zM71 0v304h1245v-304h-1245zM71 612v276h1003v-276h-1003z" />
    <glyph glyph-name="currency" unicode="&#xa4;" horiz-adv-x="1290" 
d="M421 819l-220 188l-117 115l178 179l115 -117l189 -220zM869 819l-145 145l189 220l115 117l178 -179l-117 -115zM1027 179l-115 117l-187 218l145 146l219 -187l117 -115zM263 179l-179 179l117 115l219 187l145 -146l-187 -218zM645 363q-108 0 -194 47.5t-135.5 132
t-49.5 197.5q0 112 49.5 196t135.5 131.5t194 47.5t194 -47.5t135.5 -131.5t49.5 -196q0 -113 -49.5 -197.5t-136 -132t-193.5 -47.5zM645 565q70 0 116 46.5t46 128.5q0 76 -44 125.5t-116 49.5q-71 0 -117.5 -46.5t-46.5 -128.5t46.5 -128.5t115.5 -46.5z" />
    <glyph glyph-name="yen" unicode="&#xa5;" horiz-adv-x="1331" 
d="M475 0v769l77 -280l-608 991h405l380 -630h-105l376 630h376l-593 -991l77 275v-764h-385zM164 248v218h1007v-218h-1007zM164 582v218h1007v-218h-1007z" />
    <glyph glyph-name="brokenbar" unicode="&#xa6;" horiz-adv-x="578" 
d="M120 836v780h338v-780h-338zM120 -440v780h338v-780h-338z" />
    <glyph glyph-name="section" unicode="&#xa7;" horiz-adv-x="1143" 
d="M482 -21q-82 0 -173 10.5t-172 30.5v257q82 -22 168 -32t172 -10q77 0 119 10t58 28.5t16 41.5q0 31 -17.5 46.5t-57.5 23.5l-234 45q-125 26 -202 100t-77 212q0 91 47 157.5t127 111.5l193 -127q-32 -35 -46.5 -63.5t-14.5 -58.5q0 -36 22 -61t79 -37l235 -45
q135 -27 210 -94t75 -189q0 -164 -133.5 -260.5t-393.5 -96.5zM872 459l-202 133q48 37 66.5 64t18.5 59q0 37 -21 61.5t-79 36.5l-234 45q-139 28 -217.5 97t-78.5 182q0 109 57.5 190t181 126t320.5 45q74 0 148 -7t136 -20v-256q-64 14 -127.5 20.5t-128.5 6.5
q-103 0 -156 -12.5t-72.5 -32t-19.5 -39.5q0 -27 18.5 -42.5t58.5 -23.5l243 -43q129 -25 203 -97t74 -212q0 -96 -51.5 -165t-137.5 -116z" />
    <glyph glyph-name="dieresis" unicode="&#xa8;" horiz-adv-x="1173" 
d="M855 1235q-96 0 -146.5 49t-50.5 135t50.5 135t146.5 49q97 0 147.5 -49t50.5 -135t-50.5 -135t-147.5 -49zM345 1235q-96 0 -147 49t-51 135t51 135t147 49t146.5 -49t50.5 -135t-50.5 -135t-146.5 -49z" />
    <glyph glyph-name="copyright" unicode="&#xa9;" horiz-adv-x="1650" 
d="M825 -22q-226 0 -394 95t-261.5 266.5t-93.5 400.5t93.5 400.5t261.5 266.5t394 95q225 0 393.5 -95t262 -266.5t93.5 -400.5t-93.5 -400.5t-262 -266.5t-393.5 -95zM890 324q-200 0 -319 107t-119 301q0 196 121.5 304t330.5 108q55 0 102 -5.5t90 -17.5v-225
q-45 9 -84.5 13.5t-83.5 4.5q-106 0 -156.5 -46.5t-50.5 -134.5q0 -87 50.5 -133t143.5 -46q42 0 82 6t99 21v-225q-39 -15 -91.5 -23.5t-114.5 -8.5zM825 170q173 0 296 69.5t187.5 197.5t64.5 303t-64.5 303t-187.5 197.5t-296 69.5q-174 0 -296.5 -69.5t-187 -197.5
t-64.5 -303t64.5 -303t187 -197.5t296.5 -69.5z" />
    <glyph glyph-name="ordfeminine" unicode="&#xaa;" horiz-adv-x="961" 
d="M332 593q-149 0 -226.5 74t-77.5 188q0 133 92 202.5t300 78.5l175 10l42 -164l-164 -7q-55 -3 -79.5 -22.5t-24.5 -55.5q0 -38 24 -57.5t70 -19.5q19 0 41 5t41 17v299q0 36 -15 59.5t-56 35t-118 11.5q-58 0 -123.5 -8.5t-124.5 -25.5v250q75 19 158.5 28.5t157.5 9.5
q164 0 267.5 -39t151.5 -127.5t48 -238.5v-486h-288l-25 84h-15q-38 -54 -99 -77.5t-132 -23.5z" />
    <glyph glyph-name="guillemotleft" unicode="&#xab;" horiz-adv-x="1303" 
d="M324 131l-250 438l250 437h381l-249 -437l249 -438h-381zM888 131l-250 438l250 437h381l-249 -437l249 -438h-381z" />
    <glyph glyph-name="logicalnot" unicode="&#xac;" horiz-adv-x="1332" 
d="M935 199v418h-829v286h1126v-704h-297z" />
    <glyph glyph-name="uni00AD" unicode="&#xad;" horiz-adv-x="934" 
d="M106 417v304h723v-304h-723z" />
    <glyph glyph-name="registered" unicode="&#xae;" horiz-adv-x="1414" 
d="M707 268q-181 0 -318.5 77.5t-214.5 216t-77 320.5t77 321t214.5 217t318.5 78t318.5 -78t214.5 -217t77 -321t-77 -320.5t-214.5 -216t-318.5 -77.5zM823 600l-138 199l150 26l155 -225h-167zM707 412q138 0 240.5 58t159 163.5t56.5 248.5t-56.5 249.5t-159 164.5
t-240.5 58t-240.5 -58t-159 -164.5t-56.5 -249.5t56.5 -248.5t159 -163.5t240.5 -58zM487 600v592h211q132 0 196.5 -50t64.5 -151t-64 -150.5t-197 -49.5h-54l-5 -191h-152zM644 914h78q88 0 88 77q0 79 -88 79h-78v-156z" />
    <glyph glyph-name="macron" unicode="&#xaf;" horiz-adv-x="1173" 
d="M228 1308v223h744v-223h-744z" />
    <glyph glyph-name="degree" unicode="&#xb0;" horiz-adv-x="968" 
d="M484 737q-111 0 -199 49.5t-138 135.5t-50 197t50 197t138 134.5t199 48.5q112 0 199.5 -48.5t138 -134.5t50.5 -197t-50.5 -197t-138 -135.5t-199.5 -49.5zM485 950q68 0 113.5 45.5t45.5 123.5q0 79 -46.5 123t-113.5 44t-113 -44t-46 -123q0 -78 45.5 -123.5
t114.5 -45.5z" />
    <glyph glyph-name="plusminus" unicode="&#xb1;" horiz-adv-x="1109" 
d="M405 387v286h-299v285h299v286h298v-286h300v-285h-300v-286h-298zM106 1v285h897v-285h-897z" />
    <glyph glyph-name="uni00B2" unicode="&#xb2;" horiz-adv-x="879" 
d="M78 616v154l279 322q59 69 85 116.5t26 87.5q0 52 -37.5 78t-135.5 26q-60 0 -122 -11t-107 -28v232q53 17 127 27t146 10q209 0 316 -72.5t107 -231.5q0 -76 -34 -150.5t-112 -163.5l-204 -231l1 72h393v-237h-728z" />
    <glyph glyph-name="uni00B3" unicode="&#xb3;" horiz-adv-x="879" 
d="M349 602q-72 0 -143.5 8.5t-137.5 24.5v214q64 -17 135.5 -26t131.5 -9q99 0 140 26.5t41 77.5q0 50 -37.5 75.5t-129.5 25.5h-187v215h168q82 0 115 24.5t33 66.5q0 46 -37 69.5t-125 23.5q-55 0 -120 -10t-115 -29v214q50 16 126 26.5t145 10.5q207 0 308.5 -72
t101.5 -206q0 -86 -47.5 -146t-130.5 -79v8q100 -15 155.5 -75t55.5 -161q0 -139 -110 -218t-336 -79z" />
    <glyph glyph-name="acute" unicode="&#xb4;" horiz-adv-x="1173" 
d="M428 1226l230 390h397l-283 -390h-344z" />
    <glyph glyph-name="uni00B5" unicode="&#xb5;" horiz-adv-x="1245" 
d="M569 -19q-81 0 -143 44.5t-97.5 142t-35.5 257.5v244h183v-217q0 -84 34 -116t90 -32q28 0 58 8t57 23.5t46 37.5v724h377v-1097h-310l-25 107h-15q-44 -62 -99.5 -94t-119.5 -32zM100 -440v1536h376v-1536h-376z" />
    <glyph glyph-name="paragraph" unicode="&#xb6;" horiz-adv-x="1347" 
d="M573 0v411q-20 -2 -38.5 -2.5t-39.5 -0.5q-211 0 -319.5 138.5t-108.5 406.5q0 284 116.5 415t366.5 131q73 0 147 -5t138 -14v-1480h-262zM965 0v1480h262v-1480h-262z" />
    <glyph glyph-name="periodcentered" unicode="&#xb7;" horiz-adv-x="591" 
d="M296 336q-110 0 -175.5 60t-65.5 164t64.5 164t176.5 60q111 0 175 -61.5t64 -162.5t-65 -162.5t-174 -61.5z" />
    <glyph glyph-name="cedilla" unicode="&#xb8;" horiz-adv-x="1173" 
d="M593 -452q-51 0 -98 8t-87 22v139q40 -15 86.5 -22.5t80.5 -7.5q48 0 72.5 15t24.5 51q0 68 -98 68h-50v199h176v-145l-83 50q122 0 185 -50t63 -138q0 -87 -66.5 -138t-205.5 -51z" />
    <glyph glyph-name="uni00B9" unicode="&#xb9;" horiz-adv-x="879" 
d="M332 645v814l105 -95l-304 -189v256l304 189h193v-975h-298zM128 616v237h696v-237h-696z" />
    <glyph glyph-name="ordmasculine" unicode="&#xba;" horiz-adv-x="1034" 
d="M517 593q-231 0 -356.5 119t-125.5 335t125.5 335t356.5 119t356.5 -120.5t125.5 -333.5q0 -142 -56.5 -243.5t-164 -156t-261.5 -54.5zM517 846q41 0 71 18t46.5 61.5t16.5 121.5t-16.5 121.5t-46.5 61t-71 17.5t-71 -17.5t-46.5 -61t-16.5 -121.5t16.5 -121.5
t46.5 -61.5t71 -18z" />
    <glyph glyph-name="guillemotright" unicode="&#xbb;" horiz-adv-x="1303" 
d="M34 131l250 438l-250 437h382l249 -437l-249 -438h-382zM598 131l250 438l-250 437h382l249 -437l-249 -438h-382z" />
    <glyph glyph-name="onequarter" unicode="&#xbc;" horiz-adv-x="2161" 
d="M332 645v814l105 -95l-304 -189v256l304 189h193v-975h-298zM128 616v237h696v-237h-696zM521 -136l808 1752h311l-809 -1752h-310zM1305 48v157l295 659h274l-291 -659l-25 63h582v-220h-835zM1763 -136v404l53 258h206v-662h-259z" />
    <glyph glyph-name="onehalf" unicode="&#xbd;" horiz-adv-x="2161" 
d="M332 645v814l105 -95l-304 -189v256l304 189h193v-975h-298zM128 616v237h696v-237h-696zM521 -136l808 1752h311l-809 -1752h-310zM1360 -136v154l279 322q59 69 85 116.5t26 87.5q0 52 -37.5 78t-135.5 26q-60 0 -122 -11t-107 -28v232q53 17 127 27t146 10
q209 0 316 -72.5t107 -231.5q0 -76 -34 -150.5t-112 -163.5l-204 -231l1 72h393v-237h-728z" />
    <glyph glyph-name="threequarters" unicode="&#xbe;" horiz-adv-x="2161" 
d="M349 602q-72 0 -143.5 8.5t-137.5 24.5v214q64 -17 135.5 -26t131.5 -9q99 0 140 26.5t41 77.5q0 50 -37.5 75.5t-129.5 25.5h-187v215h168q82 0 115 24.5t33 66.5q0 46 -37 69.5t-125 23.5q-55 0 -120 -10t-115 -29v214q50 16 126 26.5t145 10.5q207 0 308.5 -72
t101.5 -206q0 -86 -47.5 -146t-130.5 -79v8q100 -15 155.5 -75t55.5 -161q0 -139 -110 -218t-336 -79zM521 -136l808 1752h311l-809 -1752h-310zM1305 48v157l295 659h274l-291 -659l-25 63h582v-220h-835zM1763 -136v404l53 258h206v-662h-259z" />
    <glyph glyph-name="questiondown" unicode="&#xbf;" horiz-adv-x="1023" 
d="M680 597l65 -353q-131 -22 -203 -52t-100 -68t-28 -84q0 -72 57.5 -110.5t187.5 -38.5q84 0 173 15t163 41v-292q-49 -16 -113 -28.5t-133.5 -19.5t-134.5 -7q-284 0 -425 106t-141 301q0 107 45 188t129.5 137t202.5 89l27 176h228zM566 1116q109 0 174.5 -57.5
t65.5 -154.5q0 -98 -64 -155.5t-176 -57.5t-176 59t-64 154t65.5 153.5t174.5 58.5z" />
    <glyph glyph-name="Agrave" unicode="&#xc0;" horiz-adv-x="1497" 
d="M8 0l459 1480h563l458 -1480h-376l-384 1315h36l-383 -1315h-373zM361 365l81 302h611l80 -302h-772zM579 1590l-238 310h394l182 -310h-338z" />
    <glyph glyph-name="Aacute" unicode="&#xc1;" horiz-adv-x="1497" 
d="M8 0l459 1480h563l458 -1480h-376l-384 1315h36l-383 -1315h-373zM361 365l81 302h611l80 -302h-772zM577 1590l182 310h394l-237 -310h-339z" />
    <glyph glyph-name="Acircumflex" unicode="&#xc2;" horiz-adv-x="1497" 
d="M8 0l459 1480h563l458 -1480h-376l-384 1315h36l-383 -1315h-373zM361 365l81 302h611l80 -302h-772zM331 1590l259 310h316l259 -310h-279l-166 210h56l-166 -210h-279z" />
    <glyph glyph-name="Atilde" unicode="&#xc3;" horiz-adv-x="1497" 
d="M8 0l459 1480h563l458 -1480h-376l-384 1315h36l-383 -1315h-373zM361 365l81 302h611l80 -302h-772zM927 1601q-56 0 -103.5 13t-93.5 27q-40 14 -81 25t-86 11q-65 0 -113 -17t-97 -53v210q43 39 94 57t122 18q57 0 104.5 -13t92.5 -28q41 -13 82 -25t85 -12
q65 0 113 17.5t97 53.5v-211q-42 -38 -93.5 -55.5t-122.5 -17.5z" />
    <glyph glyph-name="Adieresis" unicode="&#xc4;" horiz-adv-x="1497" 
d="M8 0l459 1480h563l458 -1480h-376l-384 1315h36l-383 -1315h-373zM361 365l81 302h611l80 -302h-772zM1014 1586q-98 0 -147.5 43.5t-49.5 120.5q0 78 49.5 121t147.5 43t147.5 -43t49.5 -121q0 -77 -49.5 -120.5t-147.5 -43.5zM482 1586q-98 0 -147.5 43.5t-49.5 120.5
q0 78 49.5 121t147.5 43t147.5 -43t49.5 -121q0 -77 -49.5 -120.5t-147.5 -43.5z" />
    <glyph glyph-name="Aring" unicode="&#xc5;" horiz-adv-x="1497" 
d="M8 0l459 1480h563l458 -1480h-376l-384 1315h36l-383 -1315h-373zM361 365l81 302h611l80 -302h-772zM748 1576q-96 0 -159 60.5t-63 154.5q0 93 63 154t159 61q97 0 159.5 -61t62.5 -154q0 -94 -62.5 -154.5t-159.5 -60.5zM748 1702q38 0 61.5 24t23.5 65t-23.5 64.5
t-61.5 23.5q-37 0 -61 -23.5t-24 -64.5t24 -65t61 -24z" />
    <glyph glyph-name="AE" unicode="&#xc6;" horiz-adv-x="2063" 
d="M8 0l460 1480h586v-304h-324l-346 -1176h-376zM362 364l81 304h612v-304h-693zM991 0l-114 1480h1104v-304h-711l76 -872h645v-304h-1000zM1127 604v304h751v-304h-751z" />
    <glyph glyph-name="Ccedilla" unicode="&#xc7;" horiz-adv-x="1269" 
d="M884 -20q-195 0 -345.5 44.5t-253.5 137t-156 235.5t-53 339q0 250 95.5 420t279.5 257t449 87q84 0 163.5 -8t154.5 -25v-314q-68 15 -138.5 23t-146.5 8q-156 0 -257 -45.5t-149.5 -143.5t-48.5 -255q0 -160 48 -257.5t146.5 -142t249.5 -44.5q74 0 148.5 11.5
t147.5 31.5v-313q-70 -21 -157.5 -33.5t-176.5 -12.5zM731 -452q-59 0 -110 8t-96 23v138q45 -15 95.5 -22.5t91.5 -7.5q58 0 87.5 15t29.5 51t-30 52t-88 16h-50v199h175v-145l-81 50q134 0 200.5 -48.5t66.5 -136.5t-70.5 -140t-220.5 -52z" />
    <glyph glyph-name="Egrave" unicode="&#xc8;" horiz-adv-x="1286" 
d="M120 0v1480h1084v-304h-705v-872h715v-304h-1094zM345 604v304h756v-304h-756zM515 1590l-238 310h394l182 -310h-338z" />
    <glyph glyph-name="Eacute" unicode="&#xc9;" horiz-adv-x="1286" 
d="M120 0v1480h1084v-304h-705v-872h715v-304h-1094zM345 604v304h756v-304h-756zM513 1590l182 310h394l-237 -310h-339z" />
    <glyph glyph-name="Ecircumflex" unicode="&#xca;" horiz-adv-x="1286" 
d="M120 0v1480h1084v-304h-705v-872h715v-304h-1094zM345 604v304h756v-304h-756zM267 1590l259 310h316l259 -310h-279l-166 210h56l-166 -210h-279z" />
    <glyph glyph-name="Edieresis" unicode="&#xcb;" horiz-adv-x="1286" 
d="M120 0v1480h1084v-304h-705v-872h715v-304h-1094zM345 604v304h756v-304h-756zM950 1586q-98 0 -147.5 43.5t-49.5 120.5q0 78 49.5 121t147.5 43t147.5 -43t49.5 -121q0 -77 -49.5 -120.5t-147.5 -43.5zM418 1586q-98 0 -147.5 43.5t-49.5 120.5q0 78 49.5 121t147.5 43
t147.5 -43t49.5 -121q0 -77 -49.5 -120.5t-147.5 -43.5z" />
    <glyph glyph-name="Igrave" unicode="&#xcc;" horiz-adv-x="624" 
d="M120 0v1480h384v-1480h-384zM143 1590l-238 310h394l182 -310h-338z" />
    <glyph glyph-name="Iacute" unicode="&#xcd;" horiz-adv-x="624" 
d="M120 0v1480h384v-1480h-384zM141 1590l182 310h394l-237 -310h-339z" />
    <glyph glyph-name="Icircumflex" unicode="&#xce;" horiz-adv-x="624" 
d="M120 0v1480h384v-1480h-384zM-105 1590l259 310h316l259 -310h-279l-166 210h56l-166 -210h-279z" />
    <glyph glyph-name="Idieresis" unicode="&#xcf;" horiz-adv-x="624" 
d="M120 0v1480h384v-1480h-384zM578 1586q-98 0 -147.5 43.5t-49.5 120.5q0 78 49.5 121t147.5 43t147.5 -43t49.5 -121q0 -77 -49.5 -120.5t-147.5 -43.5zM46 1586q-98 0 -147.5 43.5t-49.5 120.5q0 78 49.5 121t147.5 43t147.5 -43t49.5 -121q0 -77 -49.5 -120.5
t-147.5 -43.5z" />
    <glyph glyph-name="Eth" unicode="&#xd0;" horiz-adv-x="1536" 
d="M4 641v242h753v-242h-753zM546 -16q-64 0 -136.5 2.5t-146.5 8t-143 13.5v1436q72 16 155.5 28t171.5 18.5t172 6.5q417 0 629 -183.5t212 -573.5q0 -266 -100.5 -433t-303.5 -245t-510 -78zM649 294q140 0 233 43.5t139 141.5t46 263q0 163 -47.5 261t-140.5 142
t-231 44q-32 0 -72 -3.5t-72 -10.5v-877q38 -3 73.5 -3.5t71.5 -0.5z" />
    <glyph glyph-name="Ntilde" unicode="&#xd1;" horiz-adv-x="1570" 
d="M120 0v1480h384l646 -999h-61v999h360v-1480h-384l-646 999h62v-999h-361zM964 1601q-56 0 -103.5 13t-93.5 27q-40 14 -81 25t-86 11q-65 0 -113 -17t-97 -53v210q43 39 94 57t122 18q57 0 104.5 -13t92.5 -28q41 -13 82 -25t85 -12q65 0 113 17.5t97 53.5v-211
q-42 -38 -93.5 -55.5t-122.5 -17.5z" />
    <glyph glyph-name="Ograve" unicode="&#xd2;" horiz-adv-x="1606" 
d="M803 -20q-220 0 -383.5 84t-253.5 253t-90 423t90 423t253.5 253t383.5 84q221 0 384.5 -84.5t253.5 -253.5t90 -422t-90 -422t-254 -253.5t-384 -84.5zM803 288q107 0 181.5 46t113.5 144t39 255q0 164 -39.5 265t-114.5 147.5t-180 46.5t-179.5 -45.5t-114.5 -143.5
t-40 -256q0 -165 39.5 -266t114 -147t180.5 -46zM634 1590l-238 310h394l182 -310h-338z" />
    <glyph glyph-name="Oacute" unicode="&#xd3;" horiz-adv-x="1606" 
d="M803 -20q-220 0 -383.5 84t-253.5 253t-90 423t90 423t253.5 253t383.5 84q221 0 384.5 -84.5t253.5 -253.5t90 -422t-90 -422t-254 -253.5t-384 -84.5zM803 288q107 0 181.5 46t113.5 144t39 255q0 164 -39.5 265t-114.5 147.5t-180 46.5t-179.5 -45.5t-114.5 -143.5
t-40 -256q0 -165 39.5 -266t114 -147t180.5 -46zM632 1590l182 310h394l-237 -310h-339z" />
    <glyph glyph-name="Ocircumflex" unicode="&#xd4;" horiz-adv-x="1606" 
d="M803 -20q-220 0 -383.5 84t-253.5 253t-90 423t90 423t253.5 253t383.5 84q221 0 384.5 -84.5t253.5 -253.5t90 -422t-90 -422t-254 -253.5t-384 -84.5zM803 288q107 0 181.5 46t113.5 144t39 255q0 164 -39.5 265t-114.5 147.5t-180 46.5t-179.5 -45.5t-114.5 -143.5
t-40 -256q0 -165 39.5 -266t114 -147t180.5 -46zM386 1590l259 310h316l259 -310h-279l-166 210h56l-166 -210h-279z" />
    <glyph glyph-name="Otilde" unicode="&#xd5;" horiz-adv-x="1606" 
d="M803 -20q-220 0 -383.5 84t-253.5 253t-90 423t90 423t253.5 253t383.5 84q221 0 384.5 -84.5t253.5 -253.5t90 -422t-90 -422t-254 -253.5t-384 -84.5zM803 288q107 0 181.5 46t113.5 144t39 255q0 164 -39.5 265t-114.5 147.5t-180 46.5t-179.5 -45.5t-114.5 -143.5
t-40 -256q0 -165 39.5 -266t114 -147t180.5 -46zM982 1601q-56 0 -103.5 13t-93.5 27q-40 14 -81 25t-86 11q-65 0 -113 -17t-97 -53v210q43 39 94 57t122 18q57 0 104.5 -13t92.5 -28q41 -13 82 -25t85 -12q65 0 113 17.5t97 53.5v-211q-42 -38 -93.5 -55.5t-122.5 -17.5z
" />
    <glyph glyph-name="Odieresis" unicode="&#xd6;" horiz-adv-x="1606" 
d="M803 -20q-220 0 -383.5 84t-253.5 253t-90 423t90 423t253.5 253t383.5 84q221 0 384.5 -84.5t253.5 -253.5t90 -422t-90 -422t-254 -253.5t-384 -84.5zM803 288q107 0 181.5 46t113.5 144t39 255q0 164 -39.5 265t-114.5 147.5t-180 46.5t-179.5 -45.5t-114.5 -143.5
t-40 -256q0 -165 39.5 -266t114 -147t180.5 -46zM1069 1586q-98 0 -147.5 43.5t-49.5 120.5q0 78 49.5 121t147.5 43t147.5 -43t49.5 -121q0 -77 -49.5 -120.5t-147.5 -43.5zM537 1586q-98 0 -147.5 43.5t-49.5 120.5q0 78 49.5 121t147.5 43t147.5 -43t49.5 -121
q0 -77 -49.5 -120.5t-147.5 -43.5z" />
    <glyph glyph-name="multiply" unicode="&#xd7;" horiz-adv-x="1055" 
d="M277 308l-201 201l251 251l-251 251l201 201l251 -251l251 251l201 -201l-251 -251l251 -251l-201 -201l-251 251z" />
    <glyph glyph-name="Oslash" unicode="&#xd8;" horiz-adv-x="1606" 
d="M341 -3h-251l1172 1484h252zM803 -20q-220 0 -383.5 84t-253.5 253t-90 423t90 423t253.5 253t383.5 84q221 0 384.5 -84.5t253.5 -253.5t90 -422t-90 -422t-254 -253.5t-384 -84.5zM803 288q107 0 181.5 46t113.5 144t39 255q0 164 -39.5 265t-114.5 147.5t-180 46.5
t-179.5 -45.5t-114.5 -143.5t-40 -256q0 -165 39.5 -266t114 -147t180.5 -46z" />
    <glyph glyph-name="Ugrave" unicode="&#xd9;" horiz-adv-x="1523" 
d="M766 -20q-226 0 -370 72t-213 217t-69 364v847h384v-884q0 -161 67.5 -232t200.5 -71q132 0 199 71t67 232v884h377v-847q0 -219 -68 -364t-210.5 -217t-364.5 -72zM597 1590l-238 310h394l182 -310h-338z" />
    <glyph glyph-name="Uacute" unicode="&#xda;" horiz-adv-x="1523" 
d="M766 -20q-226 0 -370 72t-213 217t-69 364v847h384v-884q0 -161 67.5 -232t200.5 -71q132 0 199 71t67 232v884h377v-847q0 -219 -68 -364t-210.5 -217t-364.5 -72zM595 1590l182 310h394l-237 -310h-339z" />
    <glyph glyph-name="Ucircumflex" unicode="&#xdb;" horiz-adv-x="1523" 
d="M766 -20q-226 0 -370 72t-213 217t-69 364v847h384v-884q0 -161 67.5 -232t200.5 -71q132 0 199 71t67 232v884h377v-847q0 -219 -68 -364t-210.5 -217t-364.5 -72zM349 1590l259 310h316l259 -310h-279l-166 210h56l-166 -210h-279z" />
    <glyph glyph-name="Udieresis" unicode="&#xdc;" horiz-adv-x="1523" 
d="M766 -20q-226 0 -370 72t-213 217t-69 364v847h384v-884q0 -161 67.5 -232t200.5 -71q132 0 199 71t67 232v884h377v-847q0 -219 -68 -364t-210.5 -217t-364.5 -72zM1032 1586q-98 0 -147.5 43.5t-49.5 120.5q0 78 49.5 121t147.5 43t147.5 -43t49.5 -121
q0 -77 -49.5 -120.5t-147.5 -43.5zM500 1586q-98 0 -147.5 43.5t-49.5 120.5q0 78 49.5 121t147.5 43t147.5 -43t49.5 -121q0 -77 -49.5 -120.5t-147.5 -43.5z" />
    <glyph glyph-name="Yacute" unicode="&#xdd;" horiz-adv-x="1325" 
d="M473 0v769l77 -280l-610 991h406l380 -630h-105l376 630h376l-593 -991l77 275v-764h-384zM492 1590l182 310h394l-237 -310h-339z" />
    <glyph glyph-name="Thorn" unicode="&#xde;" horiz-adv-x="1357" 
d="M120 0v1480h384v-179q23 2 49.5 3.5t52.5 1.5q335 0 504.5 -131t169.5 -415q0 -270 -165 -407.5t-483 -137.5q-34 0 -65 1t-63 3v-219h-384zM633 500q141 0 208 59t67 199q0 139 -67.5 200.5t-211.5 61.5q-37 0 -66 -2t-59 -7v-504q33 -3 62.5 -5t66.5 -2z" />
    <glyph glyph-name="germandbls" unicode="&#xdf;" horiz-adv-x="1632" 
d="M1054 -21q-79 0 -171.5 10.5t-173.5 30.5v272q49 -12 107 -22t118.5 -15.5t114.5 -5.5q113 0 153 22t40 59q0 29 -16.5 43.5t-57.5 22.5l-189 33q-156 28 -228.5 107.5t-72.5 215.5q0 165 131.5 258.5t390.5 93.5q20 0 51.5 -0.5t63.5 -2t53 -3.5l-211 -171
q13 46 20 93.5t7 97.5q0 94 -36 151.5t-100 84t-149 26.5q-112 0 -184.5 -39.5t-107.5 -119.5t-35 -202v-1019h-377v1014q0 194 80 333.5t231 214t363 74.5q171 0 301.5 -58t204.5 -179t74 -312q0 -67 -10 -129t-26 -122q-35 5 -74.5 6.5t-83.5 1.5q-96 0 -145.5 -12
t-66.5 -31t-17 -41q0 -24 16.5 -39t58.5 -23l188 -33q145 -26 223 -98.5t78 -223.5q0 -169 -138 -266.5t-398 -97.5zM27 798v299h306v-299h-306z" />
    <glyph glyph-name="agrave" unicode="&#xe0;" horiz-adv-x="1149" 
d="M417 -21q-173 0 -268.5 90.5t-95.5 233.5q0 159 112 249t364 105l208 14l42 -202l-209 -14q-78 -5 -113 -34.5t-35 -80.5q0 -49 31.5 -76t90.5 -27q34 0 70.5 10t67.5 35v372q0 66 -22 105t-74 56t-141 17q-64 0 -144.5 -10.5t-153.5 -31.5v279q85 23 184 34.5t184 11.5
q187 0 305 -45.5t173.5 -152t55.5 -288.5v-629h-308l-26 105h-17q-47 -67 -120.5 -96.5t-160.5 -29.5zM399 1226l-283 390h397l230 -390h-344z" />
    <glyph glyph-name="aacute" unicode="&#xe1;" horiz-adv-x="1149" 
d="M417 -21q-173 0 -268.5 90.5t-95.5 233.5q0 159 112 249t364 105l208 14l42 -202l-209 -14q-78 -5 -113 -34.5t-35 -80.5q0 -49 31.5 -76t90.5 -27q34 0 70.5 10t67.5 35v372q0 66 -22 105t-74 56t-141 17q-64 0 -144.5 -10.5t-153.5 -31.5v279q85 23 184 34.5t184 11.5
q187 0 305 -45.5t173.5 -152t55.5 -288.5v-629h-308l-26 105h-17q-47 -67 -120.5 -96.5t-160.5 -29.5zM399 1226l230 390h397l-283 -390h-344z" />
    <glyph glyph-name="acircumflex" unicode="&#xe2;" horiz-adv-x="1149" 
d="M417 -21q-173 0 -268.5 90.5t-95.5 233.5q0 159 112 249t364 105l208 14l42 -202l-209 -14q-78 -5 -113 -34.5t-35 -80.5q0 -49 31.5 -76t90.5 -27q34 0 70.5 10t67.5 35v372q0 66 -22 105t-74 56t-141 17q-64 0 -144.5 -10.5t-153.5 -31.5v279q85 23 184 34.5t184 11.5
q187 0 305 -45.5t173.5 -152t55.5 -288.5v-629h-308l-26 105h-17q-47 -67 -120.5 -96.5t-160.5 -29.5zM183 1226l236 390h304l236 -390h-264l-150 264h52l-150 -264h-264z" />
    <glyph glyph-name="atilde" unicode="&#xe3;" horiz-adv-x="1149" 
d="M417 -21q-173 0 -268.5 90.5t-95.5 233.5q0 159 112 249t364 105l208 14l42 -202l-209 -14q-78 -5 -113 -34.5t-35 -80.5q0 -49 31.5 -76t90.5 -27q34 0 70.5 10t67.5 35v372q0 66 -22 105t-74 56t-141 17q-64 0 -144.5 -10.5t-153.5 -31.5v279q85 23 184 34.5t184 11.5
q187 0 305 -45.5t173.5 -152t55.5 -288.5v-629h-308l-26 105h-17q-47 -67 -120.5 -96.5t-160.5 -29.5zM734 1263q-50 0 -94.5 16.5t-86.5 34.5q-38 18 -75.5 31.5t-76.5 13.5q-59 0 -106 -20.5t-96 -67.5v230q81 81 209 81q50 0 94.5 -16t86.5 -35q38 -17 75.5 -31t76.5 -14
q59 0 106 21.5t96 67.5v-231q-81 -81 -209 -81z" />
    <glyph glyph-name="adieresis" unicode="&#xe4;" horiz-adv-x="1149" 
d="M417 -21q-173 0 -268.5 90.5t-95.5 233.5q0 159 112 249t364 105l208 14l42 -202l-209 -14q-78 -5 -113 -34.5t-35 -80.5q0 -49 31.5 -76t90.5 -27q34 0 70.5 10t67.5 35v372q0 66 -22 105t-74 56t-141 17q-64 0 -144.5 -10.5t-153.5 -31.5v279q85 23 184 34.5t184 11.5
q187 0 305 -45.5t173.5 -152t55.5 -288.5v-629h-308l-26 105h-17q-47 -67 -120.5 -96.5t-160.5 -29.5zM826 1235q-96 0 -146.5 49t-50.5 135t50.5 135t146.5 49q97 0 147.5 -49t50.5 -135t-50.5 -135t-147.5 -49zM316 1235q-96 0 -147 49t-51 135t51 135t147 49t146.5 -49
t50.5 -135t-50.5 -135t-146.5 -49z" />
    <glyph glyph-name="aring" unicode="&#xe5;" horiz-adv-x="1149" 
d="M417 -21q-173 0 -268.5 90.5t-95.5 233.5q0 159 112 249t364 105l208 14l42 -202l-209 -14q-78 -5 -113 -34.5t-35 -80.5q0 -49 31.5 -76t90.5 -27q34 0 70.5 10t67.5 35v372q0 66 -22 105t-74 56t-141 17q-64 0 -144.5 -10.5t-153.5 -31.5v279q85 23 184 34.5t184 11.5
q187 0 305 -45.5t173.5 -152t55.5 -288.5v-629h-308l-26 105h-17q-47 -67 -120.5 -96.5t-160.5 -29.5zM571 1220q-96 0 -159 61t-63 154q0 94 63 154.5t159 60.5q97 0 159.5 -60.5t62.5 -154.5q0 -93 -62.5 -154t-159.5 -61zM571 1347q38 0 61.5 24t23.5 65t-23.5 64.5
t-61.5 23.5q-37 0 -61 -23.5t-24 -64.5t24 -65t61 -24z" />
    <glyph glyph-name="ae" unicode="&#xe6;" horiz-adv-x="1744" 
d="M1302 -21q-216 0 -352 59.5t-200 186t-64 325.5l59 27q0 163 56 284t163 187.5t257 66.5q149 0 255 -66.5t162.5 -195t56.5 -315.5v-96h-708v211h416l-57 -19q0 93 -16 147.5t-48.5 77.5t-82.5 23t-83 -23t-50 -77t-17 -146v-154q0 -83 25.5 -131.5t91.5 -69.5t188 -21
q65 0 136.5 8.5t141.5 22.5v-278q-91 -18 -171.5 -26t-158.5 -8zM452 -21q-133 0 -221.5 41t-133 114.5t-44.5 172.5q0 103 49.5 181t156 121.5t276.5 43.5h216v-203h-177q-56 0 -89 -14.5t-48 -40t-15 -58.5q0 -48 32.5 -74t93.5 -26q52 0 98 19.5t94 70.5l103 -169
q-82 -99 -182.5 -139t-208.5 -40zM686 550v101q0 68 -24 107.5t-77.5 56.5t-141.5 17q-62 0 -142 -10.5t-153 -31.5v279q91 24 180 35t170 11q174 0 283 -48.5t159.5 -153.5t50.5 -274v-92z" />
    <glyph glyph-name="ccedilla" unicode="&#xe7;" horiz-adv-x="993" 
d="M660 -21q-194 0 -327.5 63t-203 189t-69.5 315q0 192 74.5 318t215 188.5t340.5 62.5q70 0 132.5 -6t119.5 -19v-294q-51 9 -99.5 13.5t-98.5 4.5q-104 0 -169.5 -27.5t-96 -86t-30.5 -151.5q0 -97 30.5 -156.5t90.5 -86.5t150 -27q52 0 103.5 8.5t119.5 25.5v-294
q-59 -19 -132 -29.5t-150 -10.5zM559 -452q-51 0 -98 8t-87 22v139q40 -15 86.5 -22.5t80.5 -7.5q48 0 72.5 15t24.5 51q0 68 -98 68h-50v199h176v-145l-83 50q122 0 185 -50t63 -138q0 -87 -66.5 -138t-205.5 -51z" />
    <glyph glyph-name="egrave" unicode="&#xe8;" horiz-adv-x="1138" 
d="M693 -21q-220 0 -360 59.5t-206.5 185.5t-66.5 326q0 177 61.5 304t180.5 194t291 67q164 0 274 -67.5t165.5 -197t55.5 -313.5v-95h-812v211h520l-56 -18q0 92 -16 146.5t-50 77t-85 22.5q-52 0 -86 -22.5t-51 -76.5t-17 -146v-154q0 -83 25.5 -131.5t93 -69.5
t193.5 -21q65 0 136.5 8.5t141.5 22.5v-278q-90 -18 -171 -26t-161 -8zM414 1226l-283 390h397l230 -390h-344z" />
    <glyph glyph-name="eacute" unicode="&#xe9;" horiz-adv-x="1138" 
d="M693 -21q-220 0 -360 59.5t-206.5 185.5t-66.5 326q0 177 61.5 304t180.5 194t291 67q164 0 274 -67.5t165.5 -197t55.5 -313.5v-95h-812v211h520l-56 -18q0 92 -16 146.5t-50 77t-85 22.5q-52 0 -86 -22.5t-51 -76.5t-17 -146v-154q0 -83 25.5 -131.5t93 -69.5
t193.5 -21q65 0 136.5 8.5t141.5 22.5v-278q-90 -18 -171 -26t-161 -8zM414 1226l230 390h397l-283 -390h-344z" />
    <glyph glyph-name="ecircumflex" unicode="&#xea;" horiz-adv-x="1138" 
d="M693 -21q-220 0 -360 59.5t-206.5 185.5t-66.5 326q0 177 61.5 304t180.5 194t291 67q164 0 274 -67.5t165.5 -197t55.5 -313.5v-95h-812v211h520l-56 -18q0 92 -16 146.5t-50 77t-85 22.5q-52 0 -86 -22.5t-51 -76.5t-17 -146v-154q0 -83 25.5 -131.5t93 -69.5
t193.5 -21q65 0 136.5 8.5t141.5 22.5v-278q-90 -18 -171 -26t-161 -8zM198 1226l236 390h304l236 -390h-264l-150 264h52l-150 -264h-264z" />
    <glyph glyph-name="edieresis" unicode="&#xeb;" horiz-adv-x="1138" 
d="M693 -21q-220 0 -360 59.5t-206.5 185.5t-66.5 326q0 177 61.5 304t180.5 194t291 67q164 0 274 -67.5t165.5 -197t55.5 -313.5v-95h-812v211h520l-56 -18q0 92 -16 146.5t-50 77t-85 22.5q-52 0 -86 -22.5t-51 -76.5t-17 -146v-154q0 -83 25.5 -131.5t93 -69.5
t193.5 -21q65 0 136.5 8.5t141.5 22.5v-278q-90 -18 -171 -26t-161 -8zM841 1235q-96 0 -146.5 49t-50.5 135t50.5 135t146.5 49q97 0 147.5 -49t50.5 -135t-50.5 -135t-147.5 -49zM331 1235q-96 0 -147 49t-51 135t51 135t147 49t146.5 -49t50.5 -135t-50.5 -135
t-146.5 -49z" />
    <glyph glyph-name="igrave" unicode="&#xec;" horiz-adv-x="591" 
d="M107 0v1097h377v-1097h-377zM124 1226l-283 390h397l230 -390h-344z" />
    <glyph glyph-name="iacute" unicode="&#xed;" horiz-adv-x="591" 
d="M107 0v1097h377v-1097h-377zM124 1226l230 390h397l-283 -390h-344z" />
    <glyph glyph-name="icircumflex" unicode="&#xee;" horiz-adv-x="591" 
d="M107 0v1097h377v-1097h-377zM-92 1226l236 390h304l236 -390h-264l-150 264h52l-150 -264h-264z" />
    <glyph glyph-name="idieresis" unicode="&#xef;" horiz-adv-x="591" 
d="M107 0v1097h377v-1097h-377zM551 1235q-96 0 -146.5 49t-50.5 135t50.5 135t146.5 49q97 0 147.5 -49t50.5 -135t-50.5 -135t-147.5 -49zM41 1235q-96 0 -147 49t-51 135t51 135t147 49t146.5 -49t50.5 -135t-50.5 -135t-146.5 -49z" />
    <glyph glyph-name="eth" unicode="&#xf0;" horiz-adv-x="1238" 
d="M619 -23q-174 0 -299 64t-192.5 191t-67.5 313q0 190 66 314.5t184 185.5t273 61q87 0 167 -36t131 -118l-118 -18q-36 125 -115 246.5t-189 232t-239 203.5h442q110 -83 204 -197.5t164.5 -247t109.5 -275t39 -282.5q0 -221 -66.5 -362t-192 -208t-301.5 -67zM619 259
q59 0 99 26t60.5 88t20.5 169q0 111 -20.5 174.5t-61 89.5t-98.5 26q-59 0 -99 -25.5t-61 -88.5t-21 -173t20.5 -172.5t61 -88t99.5 -25.5zM180 1168l-40 200l966 177l40 -201z" />
    <glyph glyph-name="ntilde" unicode="&#xf1;" horiz-adv-x="1254" 
d="M107 0v1097h310l25 -107h16q59 61 139 93t175 32q110 0 196.5 -44.5t136 -143t49.5 -258.5v-669h-377v645q0 84 -33.5 115.5t-94.5 31.5q-31 0 -61.5 -7.5t-57.5 -23t-47 -38.5v-723h-376zM794 1263q-50 0 -94.5 16.5t-86.5 34.5q-38 18 -75.5 31.5t-76.5 13.5
q-59 0 -106 -20.5t-96 -67.5v230q81 81 209 81q50 0 94.5 -16t86.5 -35q38 -17 75.5 -31t76.5 -14q59 0 106 21.5t96 67.5v-231q-81 -81 -209 -81z" />
    <glyph glyph-name="ograve" unicode="&#xf2;" horiz-adv-x="1238" 
d="M619 -21q-172 0 -297.5 63.5t-193.5 189.5t-68 313q0 189 66 315.5t191 190.5t302 64t302 -64.5t190.5 -191t65.5 -312.5q0 -188 -67.5 -314.5t-193 -190t-297.5 -63.5zM619 260q58 0 98.5 25.5t61 87.5t20.5 172q0 112 -21 174.5t-61.5 88t-97.5 25.5q-58 0 -98.5 -25
t-61.5 -87.5t-21 -173.5t21 -173.5t61 -88t99 -25.5zM447 1226l-283 390h397l230 -390h-344z" />
    <glyph glyph-name="oacute" unicode="&#xf3;" horiz-adv-x="1238" 
d="M619 -21q-172 0 -297.5 63.5t-193.5 189.5t-68 313q0 189 66 315.5t191 190.5t302 64t302 -64.5t190.5 -191t65.5 -312.5q0 -188 -67.5 -314.5t-193 -190t-297.5 -63.5zM619 260q58 0 98.5 25.5t61 87.5t20.5 172q0 112 -21 174.5t-61.5 88t-97.5 25.5q-58 0 -98.5 -25
t-61.5 -87.5t-21 -173.5t21 -173.5t61 -88t99 -25.5zM447 1226l230 390h397l-283 -390h-344z" />
    <glyph glyph-name="ocircumflex" unicode="&#xf4;" horiz-adv-x="1238" 
d="M619 -21q-172 0 -297.5 63.5t-193.5 189.5t-68 313q0 189 66 315.5t191 190.5t302 64t302 -64.5t190.5 -191t65.5 -312.5q0 -188 -67.5 -314.5t-193 -190t-297.5 -63.5zM619 260q58 0 98.5 25.5t61 87.5t20.5 172q0 112 -21 174.5t-61.5 88t-97.5 25.5q-58 0 -98.5 -25
t-61.5 -87.5t-21 -173.5t21 -173.5t61 -88t99 -25.5zM231 1226l236 390h304l236 -390h-264l-150 264h52l-150 -264h-264z" />
    <glyph glyph-name="otilde" unicode="&#xf5;" horiz-adv-x="1238" 
d="M619 -21q-172 0 -297.5 63.5t-193.5 189.5t-68 313q0 189 66 315.5t191 190.5t302 64t302 -64.5t190.5 -191t65.5 -312.5q0 -188 -67.5 -314.5t-193 -190t-297.5 -63.5zM619 260q58 0 98.5 25.5t61 87.5t20.5 172q0 112 -21 174.5t-61.5 88t-97.5 25.5q-58 0 -98.5 -25
t-61.5 -87.5t-21 -173.5t21 -173.5t61 -88t99 -25.5zM782 1263q-50 0 -94.5 16.5t-86.5 34.5q-38 18 -75.5 31.5t-76.5 13.5q-59 0 -106 -20.5t-96 -67.5v230q81 81 209 81q50 0 94.5 -16t86.5 -35q38 -17 75.5 -31t76.5 -14q59 0 106 21.5t96 67.5v-231q-81 -81 -209 -81z
" />
    <glyph glyph-name="odieresis" unicode="&#xf6;" horiz-adv-x="1238" 
d="M619 -21q-172 0 -297.5 63.5t-193.5 189.5t-68 313q0 189 66 315.5t191 190.5t302 64t302 -64.5t190.5 -191t65.5 -312.5q0 -188 -67.5 -314.5t-193 -190t-297.5 -63.5zM619 260q58 0 98.5 25.5t61 87.5t20.5 172q0 112 -21 174.5t-61.5 88t-97.5 25.5q-58 0 -98.5 -25
t-61.5 -87.5t-21 -173.5t21 -173.5t61 -88t99 -25.5zM874 1235q-96 0 -146.5 49t-50.5 135t50.5 135t146.5 49q97 0 147.5 -49t50.5 -135t-50.5 -135t-147.5 -49zM364 1235q-96 0 -147 49t-51 135t51 135t147 49t146.5 -49t50.5 -135t-50.5 -135t-146.5 -49z" />
    <glyph glyph-name="divide" unicode="&#xf7;" horiz-adv-x="1109" 
d="M106 617v286h897v-286h-897zM555 137q-99 0 -158.5 54t-59.5 148t58 148t160 54q101 0 159 -55.5t58 -146.5t-59.5 -146.5t-157.5 -55.5zM555 979q-99 0 -158.5 54.5t-59.5 147.5q0 95 58 148.5t160 53.5q101 0 159 -55t58 -147q0 -91 -59.5 -146.5t-157.5 -55.5z" />
    <glyph glyph-name="oslash" unicode="&#xf8;" horiz-adv-x="1238" 
d="M1033 964q70 -71 107 -176t37 -241q0 -188 -67.5 -314.5t-193 -190t-297.5 -63.5q-75 0 -141 12.5t-122 38.5l-36 -49h-229l111 154q-68 71 -105 173.5t-37 236.5q0 189 66 315.5t191 190.5t302 64q74 0 139 -12t120 -37l37 51h228zM619 838q-61 0 -104 -25.5t-65.5 -89
t-22.5 -176.5q0 -32 4 -59.5t12 -48.5l268 371q-19 15 -42 21.5t-50 6.5zM619 255q62 0 104.5 26t65 89t22.5 175q0 36 -4 65.5t-12 53.5l-272 -377q19 -17 43.5 -24.5t52.5 -7.5z" />
    <glyph glyph-name="ugrave" unicode="&#xf9;" horiz-adv-x="1245" 
d="M487 -19q-112 0 -199.5 44.5t-137.5 142t-50 257.5v672h376v-645q0 -84 34 -116t89 -32q29 0 59 8t57 23.5t46 37.5v724h377v-1097h-310l-25 107h-15q-60 -62 -136.5 -94t-164.5 -32zM447 1226l-283 390h397l230 -390h-344z" />
    <glyph glyph-name="uacute" unicode="&#xfa;" horiz-adv-x="1245" 
d="M487 -19q-112 0 -199.5 44.5t-137.5 142t-50 257.5v672h376v-645q0 -84 34 -116t89 -32q29 0 59 8t57 23.5t46 37.5v724h377v-1097h-310l-25 107h-15q-60 -62 -136.5 -94t-164.5 -32zM447 1226l230 390h397l-283 -390h-344z" />
    <glyph glyph-name="ucircumflex" unicode="&#xfb;" horiz-adv-x="1245" 
d="M487 -19q-112 0 -199.5 44.5t-137.5 142t-50 257.5v672h376v-645q0 -84 34 -116t89 -32q29 0 59 8t57 23.5t46 37.5v724h377v-1097h-310l-25 107h-15q-60 -62 -136.5 -94t-164.5 -32zM231 1226l236 390h304l236 -390h-264l-150 264h52l-150 -264h-264z" />
    <glyph glyph-name="udieresis" unicode="&#xfc;" horiz-adv-x="1245" 
d="M487 -19q-112 0 -199.5 44.5t-137.5 142t-50 257.5v672h376v-645q0 -84 34 -116t89 -32q29 0 59 8t57 23.5t46 37.5v724h377v-1097h-310l-25 107h-15q-60 -62 -136.5 -94t-164.5 -32zM874 1235q-96 0 -146.5 49t-50.5 135t50.5 135t146.5 49q97 0 147.5 -49t50.5 -135
t-50.5 -135t-147.5 -49zM364 1235q-96 0 -147 49t-51 135t51 135t147 49t146.5 -49t50.5 -135t-50.5 -135t-146.5 -49z" />
    <glyph glyph-name="yacute" unicode="&#xfd;" horiz-adv-x="1205" 
d="M318 -440l152 440l131 302l242 795h369l-527 -1537h-367zM367 0l-374 1097h392l330 -1097h-348zM431 1226l230 390h397l-283 -390h-344z" />
    <glyph glyph-name="thorn" unicode="&#xfe;" horiz-adv-x="1266" 
d="M107 -440v2056h376v-624h18q47 60 116.5 91.5t160.5 31.5q115 0 212.5 -58t156.5 -178.5t59 -308.5q0 -189 -69.5 -321t-206.5 -201t-338 -69q-29 0 -56.5 2t-52.5 4v-425h-376zM591 262q119 0 178 63.5t59 215.5q0 104 -24.5 162.5t-69 82t-104.5 23.5q-38 0 -78 -11.5
t-69 -37.5v-488q23 -3 52 -6.5t56 -3.5z" />
    <glyph glyph-name="ydieresis" unicode="&#xff;" horiz-adv-x="1205" 
d="M318 -440l152 440l131 302l242 795h369l-527 -1537h-367zM367 0l-374 1097h392l330 -1097h-348zM858 1235q-96 0 -146.5 49t-50.5 135t50.5 135t146.5 49q97 0 147.5 -49t50.5 -135t-50.5 -135t-147.5 -49zM348 1235q-96 0 -147 49t-51 135t51 135t147 49t146.5 -49
t50.5 -135t-50.5 -135t-146.5 -49z" />
    <glyph glyph-name="Amacron" unicode="&#x100;" horiz-adv-x="1497" 
d="M8 0l459 1480h563l458 -1480h-376l-384 1315h36l-383 -1315h-373zM361 365l81 302h611l80 -302h-772zM357 1626v223h782v-223h-782z" />
    <glyph glyph-name="amacron" unicode="&#x101;" horiz-adv-x="1149" 
d="M417 -21q-173 0 -268.5 90.5t-95.5 233.5q0 159 112 249t364 105l208 14l42 -202l-209 -14q-78 -5 -113 -34.5t-35 -80.5q0 -49 31.5 -76t90.5 -27q34 0 70.5 10t67.5 35v372q0 66 -22 105t-74 56t-141 17q-64 0 -144.5 -10.5t-153.5 -31.5v279q85 23 184 34.5t184 11.5
q187 0 305 -45.5t173.5 -152t55.5 -288.5v-629h-308l-26 105h-17q-47 -67 -120.5 -96.5t-160.5 -29.5zM199 1308v223h744v-223h-744z" />
    <glyph glyph-name="Abreve" unicode="&#x102;" horiz-adv-x="1497" 
d="M8 0l459 1480h563l458 -1480h-376l-384 1315h36l-383 -1315h-373zM361 365l81 302h611l80 -302h-772zM748 1592q-126 0 -212 38t-134 106.5t-60 159.5h227q12 -61 54.5 -93.5t124.5 -32.5q83 0 125 32.5t54 93.5h227q-12 -92 -60 -160t-134 -106t-212 -38z" />
    <glyph glyph-name="abreve" unicode="&#x103;" horiz-adv-x="1149" 
d="M417 -21q-173 0 -268.5 90.5t-95.5 233.5q0 159 112 249t364 105l208 14l42 -202l-209 -14q-78 -5 -113 -34.5t-35 -80.5q0 -49 31.5 -76t90.5 -27q34 0 70.5 10t67.5 35v372q0 66 -22 105t-74 56t-141 17q-64 0 -144.5 -10.5t-153.5 -31.5v279q85 23 184 34.5t184 11.5
q187 0 305 -45.5t173.5 -152t55.5 -288.5v-629h-308l-26 105h-17q-47 -67 -120.5 -96.5t-160.5 -29.5zM571 1235q-175 0 -276 91t-111 269h224q8 -88 48 -131t115 -43q77 0 116.5 43t46.5 131h224q-9 -178 -110 -269t-277 -91z" />
    <glyph glyph-name="Aogonek" unicode="&#x104;" horiz-adv-x="1497" 
d="M8 0l459 1480h563l458 -1480h-376l-384 1315h36l-383 -1315h-373zM361 365l81 302h611l80 -302h-772zM1335 -452q-151 0 -224.5 59t-73.5 158q0 64 33 120t109.5 104t208.5 88l100 -77q-95 -34 -147 -68t-72 -69t-20 -72q0 -46 33 -72t107 -26q28 0 61.5 6.5t74.5 21.5
v-142q-41 -13 -87 -22t-103 -9z" />
    <glyph glyph-name="aogonek" unicode="&#x105;" horiz-adv-x="1149" 
d="M417 -21q-173 0 -268.5 90.5t-95.5 233.5q0 159 112 249t364 105l208 14l42 -202l-209 -14q-78 -5 -113 -34.5t-35 -80.5q0 -49 31.5 -76t90.5 -27q34 0 70.5 10t67.5 35v372q0 66 -22 105t-74 56t-141 17q-64 0 -144.5 -10.5t-153.5 -31.5v279q85 23 184 34.5t184 11.5
q187 0 305 -45.5t173.5 -152t55.5 -288.5v-629l-287 -17l-47 122h-17q-47 -67 -120.5 -96.5t-160.5 -29.5zM897 -452q-138 0 -208 59t-70 158q0 64 30 120t102 104t198 88l100 -77q-86 -34 -133.5 -67.5t-66.5 -69.5t-19 -74q0 -44 30.5 -70t89.5 -26q26 0 57 7t66 21v-141
q-37 -14 -78.5 -23t-97.5 -9z" />
    <glyph glyph-name="Cacute" unicode="&#x106;" horiz-adv-x="1269" 
d="M884 -20q-195 0 -345.5 44.5t-253.5 137t-156 235.5t-53 339q0 250 95.5 420t279.5 257t449 87q84 0 163.5 -8t154.5 -25v-314q-68 15 -138.5 23t-146.5 8q-156 0 -257 -45.5t-149.5 -143.5t-48.5 -255q0 -160 48 -257.5t146.5 -142t249.5 -44.5q74 0 148.5 11.5
t147.5 31.5v-313q-70 -21 -157.5 -33.5t-176.5 -12.5zM598 1590l182 310h394l-237 -310h-339z" />
    <glyph glyph-name="cacute" unicode="&#x107;" horiz-adv-x="993" 
d="M660 -21q-194 0 -327.5 63t-203 189t-69.5 315q0 192 74.5 318t215 188.5t340.5 62.5q70 0 132.5 -6t119.5 -19v-294q-51 9 -99.5 13.5t-98.5 4.5q-104 0 -169.5 -27.5t-96 -86t-30.5 -151.5q0 -97 30.5 -156.5t90.5 -86.5t150 -27q52 0 103.5 8.5t119.5 25.5v-294
q-59 -19 -132 -29.5t-150 -10.5zM374 1226l230 390h397l-283 -390h-344z" />
    <glyph glyph-name="Ccircumflex" unicode="&#x108;" horiz-adv-x="1269" 
d="M884 -20q-195 0 -345.5 44.5t-253.5 137t-156 235.5t-53 339q0 250 95.5 420t279.5 257t449 87q84 0 163.5 -8t154.5 -25v-314q-68 15 -138.5 23t-146.5 8q-156 0 -257 -45.5t-149.5 -143.5t-48.5 -255q0 -160 48 -257.5t146.5 -142t249.5 -44.5q74 0 148.5 11.5
t147.5 31.5v-313q-70 -21 -157.5 -33.5t-176.5 -12.5zM352 1590l259 310h316l259 -310h-279l-166 210h56l-166 -210h-279z" />
    <glyph glyph-name="ccircumflex" unicode="&#x109;" horiz-adv-x="993" 
d="M660 -21q-194 0 -327.5 63t-203 189t-69.5 315q0 192 74.5 318t215 188.5t340.5 62.5q70 0 132.5 -6t119.5 -19v-294q-51 9 -99.5 13.5t-98.5 4.5q-104 0 -169.5 -27.5t-96 -86t-30.5 -151.5q0 -97 30.5 -156.5t90.5 -86.5t150 -27q52 0 103.5 8.5t119.5 25.5v-294
q-59 -19 -132 -29.5t-150 -10.5zM158 1226l236 390h304l236 -390h-264l-150 264h52l-150 -264h-264z" />
    <glyph glyph-name="Cdotaccent" unicode="&#x10a;" horiz-adv-x="1269" 
d="M884 -20q-195 0 -345.5 44.5t-253.5 137t-156 235.5t-53 339q0 250 95.5 420t279.5 257t449 87q84 0 163.5 -8t154.5 -25v-314q-68 15 -138.5 23t-146.5 8q-156 0 -257 -45.5t-149.5 -143.5t-48.5 -255q0 -160 48 -257.5t146.5 -142t249.5 -44.5q74 0 148.5 11.5
t147.5 31.5v-313q-70 -21 -157.5 -33.5t-176.5 -12.5zM769 1586q-113 0 -169.5 43.5t-56.5 120.5q0 79 56.5 121.5t169.5 42.5t169.5 -42.5t56.5 -121.5q0 -77 -56.5 -120.5t-169.5 -43.5z" />
    <glyph glyph-name="cdotaccent" unicode="&#x10b;" horiz-adv-x="993" 
d="M660 -21q-194 0 -327.5 63t-203 189t-69.5 315q0 192 74.5 318t215 188.5t340.5 62.5q70 0 132.5 -6t119.5 -19v-294q-51 9 -99.5 13.5t-98.5 4.5q-104 0 -169.5 -27.5t-96 -86t-30.5 -151.5q0 -97 30.5 -156.5t90.5 -86.5t150 -27q52 0 103.5 8.5t119.5 25.5v-294
q-59 -19 -132 -29.5t-150 -10.5zM546 1229q-117 0 -172.5 49.5t-55.5 139.5q0 92 55.5 141.5t172.5 49.5q118 0 173 -49.5t55 -141.5q0 -90 -55 -139.5t-173 -49.5z" />
    <glyph glyph-name="Ccaron" unicode="&#x10c;" horiz-adv-x="1269" 
d="M884 -20q-195 0 -345.5 44.5t-253.5 137t-156 235.5t-53 339q0 250 95.5 420t279.5 257t449 87q84 0 163.5 -8t154.5 -25v-314q-68 15 -138.5 23t-146.5 8q-156 0 -257 -45.5t-149.5 -143.5t-48.5 -255q0 -160 48 -257.5t146.5 -142t249.5 -44.5q74 0 148.5 11.5
t147.5 31.5v-313q-70 -21 -157.5 -33.5t-176.5 -12.5zM611 1590l-259 310h279l166 -210h-56l166 210h279l-259 -310h-316z" />
    <glyph glyph-name="ccaron" unicode="&#x10d;" horiz-adv-x="993" 
d="M660 -21q-194 0 -327.5 63t-203 189t-69.5 315q0 192 74.5 318t215 188.5t340.5 62.5q70 0 132.5 -6t119.5 -19v-294q-51 9 -99.5 13.5t-98.5 4.5q-104 0 -169.5 -27.5t-96 -86t-30.5 -151.5q0 -97 30.5 -156.5t90.5 -86.5t150 -27q52 0 103.5 8.5t119.5 25.5v-294
q-59 -19 -132 -29.5t-150 -10.5zM394 1226l-237 390h265l150 -264h-52l150 264h265l-237 -390h-304z" />
    <glyph glyph-name="Dcaron" unicode="&#x10e;" horiz-adv-x="1536" 
d="M546 -16q-64 0 -136.5 2.5t-146.5 8t-143 13.5v1436q72 16 155.5 28t171.5 18.5t172 6.5q417 0 629 -183.5t212 -573.5q0 -266 -100.5 -433t-303.5 -245t-510 -78zM649 294q140 0 233 43.5t139 141.5t46 263q0 163 -47.5 261t-140.5 142t-231 44q-32 0 -72 -3.5
t-72 -10.5v-877q38 -3 73.5 -3.5t71.5 -0.5zM526 1590l-259 310h279l166 -210h-56l166 210h279l-259 -310h-316z" />
    <glyph glyph-name="dcaron" unicode="&#x10f;" horiz-adv-x="1266" 
d="M517 -20q-123 0 -227 56.5t-167 176.5t-63 313q0 189 70 321t206.5 200.5t338.5 68.5q28 0 56 -2t52 -4v506h376v-1616h-315l-23 114h-16q-47 -61 -119 -97.5t-169 -36.5zM631 286q42 0 82 12.5t70 39.5v485q-23 4 -51.5 7t-56.5 3q-118 0 -177.5 -63.5t-59.5 -214.5
q0 -105 24.5 -163.5t67.5 -82t101 -23.5zM1221 1180q18 115 25 216t7 220h247q0 -123 -20.5 -236.5t-56.5 -199.5h-202z" />
    <glyph glyph-name="Dcroat" unicode="&#x110;" horiz-adv-x="1536" 
d="M4 641v242h753v-242h-753zM546 -16q-64 0 -136.5 2.5t-146.5 8t-143 13.5v1436q72 16 155.5 28t171.5 18.5t172 6.5q417 0 629 -183.5t212 -573.5q0 -266 -100.5 -433t-303.5 -245t-510 -78zM649 294q140 0 233 43.5t139 141.5t46 263q0 163 -47.5 261t-140.5 142
t-231 44q-32 0 -72 -3.5t-72 -10.5v-877q38 -3 73.5 -3.5t71.5 -0.5z" />
    <glyph glyph-name="dcroat" unicode="&#x111;" horiz-adv-x="1266" 
d="M452 1237v233h812v-233h-812zM517 -20q-123 0 -227 56.5t-167 176.5t-63 313q0 189 70 321t206.5 200.5t338.5 68.5q28 0 56 -2t52 -4v506h376v-1616h-315l-23 114h-16q-47 -61 -119 -97.5t-169 -36.5zM631 286q42 0 82 12.5t70 39.5v485q-23 4 -51.5 7t-56.5 3
q-118 0 -177.5 -63.5t-59.5 -214.5q0 -105 24.5 -163.5t67.5 -82t101 -23.5z" />
    <glyph glyph-name="Emacron" unicode="&#x112;" horiz-adv-x="1286" 
d="M120 0v1480h1084v-304h-705v-872h715v-304h-1094zM345 604v304h756v-304h-756zM293 1626v223h782v-223h-782z" />
    <glyph glyph-name="emacron" unicode="&#x113;" horiz-adv-x="1138" 
d="M693 -21q-220 0 -360 59.5t-206.5 185.5t-66.5 326q0 177 61.5 304t180.5 194t291 67q164 0 274 -67.5t165.5 -197t55.5 -313.5v-95h-812v211h520l-56 -18q0 92 -16 146.5t-50 77t-85 22.5q-52 0 -86 -22.5t-51 -76.5t-17 -146v-154q0 -83 25.5 -131.5t93 -69.5
t193.5 -21q65 0 136.5 8.5t141.5 22.5v-278q-90 -18 -171 -26t-161 -8zM214 1308v223h744v-223h-744z" />
    <glyph glyph-name="Ebreve" unicode="&#x114;" horiz-adv-x="1286" 
d="M120 0v1480h1084v-304h-705v-872h715v-304h-1094zM345 604v304h756v-304h-756zM684 1592q-126 0 -212 38t-134 106.5t-60 159.5h227q12 -61 54.5 -93.5t124.5 -32.5q83 0 125 32.5t54 93.5h227q-12 -92 -60 -160t-134 -106t-212 -38z" />
    <glyph glyph-name="ebreve" unicode="&#x115;" horiz-adv-x="1138" 
d="M693 -21q-220 0 -360 59.5t-206.5 185.5t-66.5 326q0 177 61.5 304t180.5 194t291 67q164 0 274 -67.5t165.5 -197t55.5 -313.5v-95h-812v211h520l-56 -18q0 92 -16 146.5t-50 77t-85 22.5q-52 0 -86 -22.5t-51 -76.5t-17 -146v-154q0 -83 25.5 -131.5t93 -69.5
t193.5 -21q65 0 136.5 8.5t141.5 22.5v-278q-90 -18 -171 -26t-161 -8zM586 1235q-175 0 -276 91t-111 269h224q8 -88 48 -131t115 -43q77 0 116.5 43t46.5 131h224q-9 -178 -110 -269t-277 -91z" />
    <glyph glyph-name="Edotaccent" unicode="&#x116;" horiz-adv-x="1286" 
d="M120 0v1480h1084v-304h-705v-872h715v-304h-1094zM345 604v304h756v-304h-756zM684 1586q-113 0 -169.5 43.5t-56.5 120.5q0 79 56.5 121.5t169.5 42.5t169.5 -42.5t56.5 -121.5q0 -77 -56.5 -120.5t-169.5 -43.5z" />
    <glyph glyph-name="edotaccent" unicode="&#x117;" horiz-adv-x="1138" 
d="M693 -21q-220 0 -360 59.5t-206.5 185.5t-66.5 326q0 177 61.5 304t180.5 194t291 67q164 0 274 -67.5t165.5 -197t55.5 -313.5v-95h-812v211h520l-56 -18q0 92 -16 146.5t-50 77t-85 22.5q-52 0 -86 -22.5t-51 -76.5t-17 -146v-154q0 -83 25.5 -131.5t93 -69.5
t193.5 -21q65 0 136.5 8.5t141.5 22.5v-278q-90 -18 -171 -26t-161 -8zM586 1229q-117 0 -172.5 49.5t-55.5 139.5q0 92 55.5 141.5t172.5 49.5q118 0 173 -49.5t55 -141.5q0 -90 -55 -139.5t-173 -49.5z" />
    <glyph glyph-name="Eogonek" unicode="&#x118;" horiz-adv-x="1286" 
d="M120 0v1480h1084v-304h-705v-872h715v-304h-1094zM345 604v304h756v-304h-756zM1061 -452q-151 0 -224.5 59t-73.5 158q0 64 33 120t109.5 104t208.5 88l100 -77q-95 -34 -147 -68t-72 -69t-20 -72q0 -46 33 -72t107 -26q28 0 61.5 6.5t74.5 21.5v-142q-41 -13 -87 -22
t-103 -9z" />
    <glyph glyph-name="eogonek" unicode="&#x119;" horiz-adv-x="1138" 
d="M849 -452q-138 0 -208 59t-70 158q0 88 58 161t211 126l11 -67q-40 -3 -81 -4.5t-77 -1.5q-220 0 -360 59.5t-206.5 185.5t-66.5 326q0 177 61.5 304t180.5 194t291 67q164 0 274 -67.5t165.5 -197t55.5 -313.5v-95h-812v202h520l-56 -18q0 93 -16 147t-50 77t-85 23
q-52 0 -86 -23t-51 -76.5t-17 -146.5v-145q0 -83 25.5 -131.5t93 -69.5t193.5 -21q65 0 136.5 8.5t141.5 22.5v-278q-97 -34 -149.5 -71.5t-72.5 -76t-20 -76.5q0 -44 30 -70t89 -26q27 0 57.5 7t65.5 21v-141q-36 -14 -77.5 -23t-98.5 -9z" />
    <glyph glyph-name="Ecaron" unicode="&#x11a;" horiz-adv-x="1286" 
d="M120 0v1480h1084v-304h-705v-872h715v-304h-1094zM345 604v304h756v-304h-756zM526 1590l-259 310h279l166 -210h-56l166 210h279l-259 -310h-316z" />
    <glyph glyph-name="ecaron" unicode="&#x11b;" horiz-adv-x="1138" 
d="M693 -21q-220 0 -360 59.5t-206.5 185.5t-66.5 326q0 177 61.5 304t180.5 194t291 67q164 0 274 -67.5t165.5 -197t55.5 -313.5v-95h-812v211h520l-56 -18q0 92 -16 146.5t-50 77t-85 22.5q-52 0 -86 -22.5t-51 -76.5t-17 -146v-154q0 -83 25.5 -131.5t93 -69.5
t193.5 -21q65 0 136.5 8.5t141.5 22.5v-278q-90 -18 -171 -26t-161 -8zM434 1226l-237 390h265l150 -264h-52l150 264h265l-237 -390h-304z" />
    <glyph glyph-name="Gcircumflex" unicode="&#x11c;" horiz-adv-x="1455" 
d="M953 -19q-294 0 -488.5 83t-291.5 250.5t-97 421.5q0 250 100 420t296 257t485 87q87 0 171 -9t163 -27v-313q-74 16 -148 24.5t-151 8.5q-182 0 -295.5 -46t-167 -146t-53.5 -262q0 -150 49 -246.5t148 -143t249 -46.5q57 0 116 4.5t107 12.5l-165 -142v551h356v-705
q-96 -15 -192.5 -24.5t-190.5 -9.5zM409 1590l259 310h316l259 -310h-279l-166 210h56l-166 -210h-279z" />
    <glyph glyph-name="gcircumflex" unicode="&#x11d;" horiz-adv-x="1266" 
d="M522 -460q-91 0 -189.5 10t-193.5 33v291q95 -24 185.5 -36t166.5 -12q155 0 223.5 54.5t68.5 177.5v60h-17q-47 -58 -117 -90t-161 -32q-112 0 -209.5 57.5t-158 175t-60.5 298.5q0 279 159.5 433.5t487.5 154.5q75 0 155 -7.5t156.5 -22t140.5 -35.5v-921
q0 -309 -156.5 -449t-480.5 -140zM637 299q39 0 77.5 11t68.5 33v479q-23 5 -51 8t-59 3q-113 0 -174 -63t-61 -212q0 -100 24 -156.5t68.5 -79.5t106.5 -23zM271 1226l236 390h304l236 -390h-264l-150 264h52l-150 -264h-264z" />
    <glyph glyph-name="Gbreve" unicode="&#x11e;" horiz-adv-x="1455" 
d="M953 -19q-294 0 -488.5 83t-291.5 250.5t-97 421.5q0 250 100 420t296 257t485 87q87 0 171 -9t163 -27v-313q-74 16 -148 24.5t-151 8.5q-182 0 -295.5 -46t-167 -146t-53.5 -262q0 -150 49 -246.5t148 -143t249 -46.5q57 0 116 4.5t107 12.5l-165 -142v551h356v-705
q-96 -15 -192.5 -24.5t-190.5 -9.5zM826 1592q-126 0 -212 38t-134 106.5t-60 159.5h227q12 -61 54.5 -93.5t124.5 -32.5q83 0 125 32.5t54 93.5h227q-12 -92 -60 -160t-134 -106t-212 -38z" />
    <glyph glyph-name="gbreve" unicode="&#x11f;" horiz-adv-x="1266" 
d="M522 -460q-91 0 -189.5 10t-193.5 33v291q95 -24 185.5 -36t166.5 -12q155 0 223.5 54.5t68.5 177.5v60h-17q-47 -58 -117 -90t-161 -32q-112 0 -209.5 57.5t-158 175t-60.5 298.5q0 279 159.5 433.5t487.5 154.5q75 0 155 -7.5t156.5 -22t140.5 -35.5v-921
q0 -309 -156.5 -449t-480.5 -140zM637 299q39 0 77.5 11t68.5 33v479q-23 5 -51 8t-59 3q-113 0 -174 -63t-61 -212q0 -100 24 -156.5t68.5 -79.5t106.5 -23zM659 1235q-175 0 -276 91t-111 269h224q8 -88 48 -131t115 -43q77 0 116.5 43t46.5 131h224q-9 -178 -110 -269
t-277 -91z" />
    <glyph glyph-name="Gdotaccent" unicode="&#x120;" horiz-adv-x="1455" 
d="M953 -19q-294 0 -488.5 83t-291.5 250.5t-97 421.5q0 250 100 420t296 257t485 87q87 0 171 -9t163 -27v-313q-74 16 -148 24.5t-151 8.5q-182 0 -295.5 -46t-167 -146t-53.5 -262q0 -150 49 -246.5t148 -143t249 -46.5q57 0 116 4.5t107 12.5l-165 -142v551h356v-705
q-96 -15 -192.5 -24.5t-190.5 -9.5zM826 1586q-113 0 -169.5 43.5t-56.5 120.5q0 79 56.5 121.5t169.5 42.5t169.5 -42.5t56.5 -121.5q0 -77 -56.5 -120.5t-169.5 -43.5z" />
    <glyph glyph-name="gdotaccent" unicode="&#x121;" horiz-adv-x="1266" 
d="M522 -460q-91 0 -189.5 10t-193.5 33v291q95 -24 185.5 -36t166.5 -12q155 0 223.5 54.5t68.5 177.5v60h-17q-47 -58 -117 -90t-161 -32q-112 0 -209.5 57.5t-158 175t-60.5 298.5q0 279 159.5 433.5t487.5 154.5q75 0 155 -7.5t156.5 -22t140.5 -35.5v-921
q0 -309 -156.5 -449t-480.5 -140zM637 299q39 0 77.5 11t68.5 33v479q-23 5 -51 8t-59 3q-113 0 -174 -63t-61 -212q0 -100 24 -156.5t68.5 -79.5t106.5 -23zM659 1229q-117 0 -172.5 49.5t-55.5 139.5q0 92 55.5 141.5t172.5 49.5q118 0 173 -49.5t55 -141.5
q0 -90 -55 -139.5t-173 -49.5z" />
    <glyph glyph-name="uni0122" unicode="&#x122;" horiz-adv-x="1455" 
d="M953 -19q-294 0 -488.5 83t-291.5 250.5t-97 421.5q0 250 100 420t296 257t485 87q87 0 171 -9t163 -27v-313q-74 16 -148 24.5t-151 8.5q-182 0 -295.5 -46t-167 -146t-53.5 -262q0 -150 49 -246.5t148 -143t249 -46.5q57 0 116 4.5t107 12.5l-165 -142v551h356v-705
q-96 -15 -192.5 -24.5t-190.5 -9.5zM714 -508q37 69 51.5 116.5t14.5 99.5l72 -72h-26q-111 0 -158 34t-47 91q0 58 48.5 91t155.5 33q109 0 157.5 -43t48.5 -121q0 -57 -23.5 -120.5t-61.5 -108.5h-232z" />
    <glyph glyph-name="uni0123" unicode="&#x123;" horiz-adv-x="1266" 
d="M522 -460q-91 0 -189.5 10t-193.5 33v291q95 -24 185.5 -36t166.5 -12q155 0 223.5 54.5t68.5 177.5v60h-17q-47 -58 -117 -90t-161 -32q-112 0 -209.5 57.5t-158 175t-60.5 298.5q0 279 159.5 433.5t487.5 154.5q75 0 155 -7.5t156.5 -22t140.5 -35.5v-921
q0 -309 -156.5 -449t-480.5 -140zM637 299q39 0 77.5 11t68.5 33v479q-23 5 -51 8t-59 3q-113 0 -174 -63t-61 -212q0 -100 24 -156.5t68.5 -79.5t106.5 -23zM660 1232q-109 0 -157.5 43t-48.5 121q0 57 24 121t61 109h232q-37 -69 -51.5 -116.5t-14.5 -100.5l-72 72h26
q112 0 158.5 -33.5t46.5 -91.5q0 -57 -48 -90.5t-156 -33.5z" />
    <glyph glyph-name="Hcircumflex" unicode="&#x124;" horiz-adv-x="1555" 
d="M120 0v1480h384v-556h547v556h384v-1480h-384v587h-547v-587h-384zM361 1590l259 310h316l259 -310h-279l-166 210h56l-166 -210h-279z" />
    <glyph glyph-name="hcircumflex" unicode="&#x125;" horiz-adv-x="1254" 
d="M107 0v1616h376v-625h18q52 60 125 92t165 32q101 0 183.5 -44.5t131 -142.5t48.5 -259v-669h-377v642q0 86 -34 118t-94 32q-30 0 -60.5 -8t-58 -23.5t-47.5 -37.5v-723h-376zM214 1686l259 310h316l259 -310h-279l-166 210h56l-166 -210h-279z" />
    <glyph glyph-name="Hbar" unicode="&#x126;" horiz-adv-x="1555" 
d="M4 1085v233h1547v-233h-1547zM120 0v1480h384v-556h547v556h384v-1480h-384v587h-547v-587h-384z" />
    <glyph glyph-name="hbar" unicode="&#x127;" horiz-adv-x="1254" 
d="M2 1234v233h812v-233h-812zM107 0v1616h376v-625h18q52 60 125 92t165 32q101 0 183.5 -44.5t131 -142.5t48.5 -259v-669h-377v642q0 86 -34 118t-94 32q-30 0 -60.5 -8t-58 -23.5t-47.5 -37.5v-723h-376z" />
    <glyph glyph-name="Itilde" unicode="&#x128;" horiz-adv-x="624" 
d="M120 0v1480h384v-1480h-384zM491 1601q-56 0 -103.5 13t-93.5 27q-40 14 -81 25t-86 11q-65 0 -113 -17t-97 -53v210q43 39 94 57t122 18q57 0 104.5 -13t92.5 -28q41 -13 82 -25t85 -12q65 0 113 17.5t97 53.5v-211q-42 -38 -93.5 -55.5t-122.5 -17.5z" />
    <glyph glyph-name="itilde" unicode="&#x129;" horiz-adv-x="591" 
d="M107 0v1097h377v-1097h-377zM459 1263q-50 0 -94.5 16.5t-86.5 34.5q-38 18 -75.5 31.5t-76.5 13.5q-59 0 -106 -20.5t-96 -67.5v230q81 81 209 81q50 0 94.5 -16t86.5 -35q38 -17 75.5 -31t76.5 -14q59 0 106 21.5t96 67.5v-231q-81 -81 -209 -81z" />
    <glyph glyph-name="Imacron" unicode="&#x12a;" horiz-adv-x="624" 
d="M120 0v1480h384v-1480h-384zM-79 1626v223h782v-223h-782z" />
    <glyph glyph-name="imacron" unicode="&#x12b;" horiz-adv-x="591" 
d="M107 0v1097h377v-1097h-377zM-76 1308v223h744v-223h-744z" />
    <glyph glyph-name="Ibreve" unicode="&#x12c;" horiz-adv-x="624" 
d="M120 0v1480h384v-1480h-384zM312 1592q-126 0 -212 38t-134 106.5t-60 159.5h227q12 -61 54.5 -93.5t124.5 -32.5q83 0 125 32.5t54 93.5h227q-12 -92 -60 -160t-134 -106t-212 -38z" />
    <glyph glyph-name="ibreve" unicode="&#x12d;" horiz-adv-x="591" 
d="M107 0v1097h377v-1097h-377zM296 1235q-175 0 -276 91t-111 269h224q8 -88 48 -131t115 -43q77 0 116.5 43t46.5 131h224q-9 -178 -110 -269t-277 -91z" />
    <glyph glyph-name="Iogonek" unicode="&#x12e;" horiz-adv-x="624" 
d="M120 0v1480h384v-1480h-384zM351 -452q-151 0 -224.5 59t-73.5 158q0 64 33 120t109.5 104t208.5 88l100 -77q-95 -34 -147 -68t-72 -69t-20 -72q0 -46 33 -72t107 -26q28 0 61.5 6.5t74.5 21.5v-142q-41 -13 -87 -22t-103 -9z" />
    <glyph glyph-name="iogonek" unicode="&#x12f;" horiz-adv-x="591" 
d="M107 0v1097h377v-1097h-377zM296 1229q-117 0 -172.5 49.5t-55.5 139.5q0 92 55.5 141.5t172.5 49.5q118 0 173 -49.5t55 -141.5q0 -90 -55 -139.5t-173 -49.5zM331 -452q-138 0 -208 59t-70 158q0 64 30 120t102 104t199 88l100 -77q-87 -34 -134 -67.5t-66 -69.5
t-19 -74q0 -44 30 -70t90 -26q26 0 56.5 7t65.5 21v-141q-36 -14 -77.5 -23t-98.5 -9z" />
    <glyph glyph-name="Idotaccent" unicode="&#x130;" horiz-adv-x="624" 
d="M120 0v1480h384v-1480h-384zM312 1586q-113 0 -169.5 43.5t-56.5 120.5q0 79 56.5 121.5t169.5 42.5t169.5 -42.5t56.5 -121.5q0 -77 -56.5 -120.5t-169.5 -43.5z" />
    <glyph glyph-name="dotlessi" unicode="&#x131;" horiz-adv-x="591" 
d="M107 0v1097h377v-1097h-377z" />
    <glyph glyph-name="Jcircumflex" unicode="&#x134;" horiz-adv-x="624" 
d="M216 -352l-243 162q56 75 88.5 147t46.5 155t14 190v1178h382v-1169q0 -125 -27.5 -235t-90.5 -215t-170 -213zM-104 1590l259 310h316l259 -310h-279l-166 210h56l-166 -210h-279z" />
    <glyph glyph-name="jcircumflex" unicode="&#x135;" horiz-adv-x="591" 
d="M200 -474l-242 160q56 75 88.5 148t46.5 156t14 188v919h377v-904q0 -126 -27 -237t-89.5 -216.5t-167.5 -213.5zM-97 1227l236 390h304l236 -390h-264l-150 264h52l-150 -264h-264z" />
    <glyph glyph-name="uni0136" unicode="&#x136;" horiz-adv-x="1364" 
d="M1003 0l-493 753l463 727h402l-491 -770l7 99l527 -809h-415zM120 0v1480h384v-1480h-384zM452 587v337h205v-337h-205zM603 -508q37 69 51.5 116.5t14.5 99.5l72 -72h-26q-111 0 -158 34t-47 91q0 58 48.5 91t155.5 33q109 0 157.5 -43t48.5 -121q0 -57 -23.5 -120.5
t-61.5 -108.5h-232z" />
    <glyph glyph-name="uni0137" unicode="&#x137;" horiz-adv-x="1230" 
d="M860 0l-369 564l342 533h398l-360 -574v98l396 -621h-407zM453 415v299h167v-299h-167zM107 0v1616h376v-1616h-376zM535 -508q37 69 51.5 116.5t14.5 99.5l72 -72h-26q-111 0 -158 34t-47 91q0 58 48.5 91t155.5 33q109 0 157.5 -43t48.5 -121q0 -57 -23.5 -120.5
t-61.5 -108.5h-232z" />
    <glyph glyph-name="kgreenlandic" unicode="&#x138;" horiz-adv-x="1230" 
d="M860 0l-369 564l342 533h398l-360 -574v98l396 -621h-407zM107 0v1097h376v-1097h-376zM453 415v299h167v-299h-167z" />
    <glyph glyph-name="Lacute" unicode="&#x139;" horiz-adv-x="1176" 
d="M120 0v1480h384v-1163h663v-317h-1047zM145 1590l182 310h394l-237 -310h-339z" />
    <glyph glyph-name="lacute" unicode="&#x13a;" horiz-adv-x="590" 
d="M107 0v1616h376v-1616h-376zM125 1686l182 310h394l-237 -310h-339z" />
    <glyph glyph-name="uni013B" unicode="&#x13b;" horiz-adv-x="1176" 
d="M120 0v1480h384v-1163h663v-317h-1047zM532 -508q37 69 51.5 116.5t14.5 99.5l72 -72h-26q-111 0 -158 34t-47 91q0 58 48.5 91t155.5 33q109 0 157.5 -43t48.5 -121q0 -57 -23.5 -120.5t-61.5 -108.5h-232z" />
    <glyph glyph-name="uni013C" unicode="&#x13c;" horiz-adv-x="590" 
d="M107 0v1616h376v-1616h-376zM183 -508q37 69 51.5 116.5t14.5 99.5l72 -72h-26q-111 0 -158 34t-47 91q0 58 48.5 91t155.5 33q109 0 157.5 -43t48.5 -121q0 -57 -23.5 -120.5t-61.5 -108.5h-232z" />
    <glyph glyph-name="Lcaron" unicode="&#x13d;" horiz-adv-x="1176" 
d="M120 0v1480h384v-1163h663v-317h-1047zM748 1140q11 76 18 147t9.5 150.5t2.5 178.5h247q0 -153 -21 -271.5t-55 -204.5h-201z" />
    <glyph glyph-name="lcaron" unicode="&#x13e;" horiz-adv-x="590" 
d="M107 0v1616h376v-1616h-376zM545 1180q18 115 25 216t7 220h247q0 -123 -20.5 -236.5t-56.5 -199.5h-202z" />
    <glyph glyph-name="Ldot" unicode="&#x13f;" horiz-adv-x="1176" 
d="M120 0v1480h384v-1163h663v-317h-1047zM891 703q-117 0 -172.5 50t-55.5 140q0 91 55.5 140.5t172.5 49.5q118 0 173 -49.5t55 -140.5q0 -90 -55 -140t-173 -50z" />
    <glyph glyph-name="ldot" unicode="&#x140;" horiz-adv-x="967" 
d="M107 0v1616h376v-1616h-376zM776 604q-117 0 -172.5 50t-55.5 140q0 91 55.5 140.5t172.5 49.5q118 0 173 -49.5t55 -140.5q0 -90 -55 -140t-173 -50z" />
    <glyph glyph-name="Lslash" unicode="&#x141;" horiz-adv-x="1192" 
d="M3 538v275l830 426v-275zM136 0v1480h385v-1163h662v-317h-1047z" />
    <glyph glyph-name="lslash" unicode="&#x142;" horiz-adv-x="668" 
d="M16 423v260l637 323v-260zM146 0v1616h376v-1616h-376z" />
    <glyph glyph-name="Nacute" unicode="&#x143;" horiz-adv-x="1570" 
d="M120 0v1480h384l646 -999h-61v999h360v-1480h-384l-646 999h62v-999h-361zM614 1590l182 310h394l-237 -310h-339z" />
    <glyph glyph-name="nacute" unicode="&#x144;" horiz-adv-x="1254" 
d="M107 0v1097h310l25 -107h16q59 61 139 93t175 32q110 0 196.5 -44.5t136 -143t49.5 -258.5v-669h-377v645q0 84 -33.5 115.5t-94.5 31.5q-31 0 -61.5 -7.5t-57.5 -23t-47 -38.5v-723h-376zM459 1226l230 390h397l-283 -390h-344z" />
    <glyph glyph-name="uni0145" unicode="&#x145;" horiz-adv-x="1570" 
d="M120 0v1480h384l646 -999h-61v999h360v-1480h-384l-646 999h62v-999h-361zM673 -508q37 69 51.5 116.5t14.5 99.5l72 -72h-26q-111 0 -158 34t-47 91q0 58 48.5 91t155.5 33q109 0 157.5 -43t48.5 -121q0 -57 -23.5 -120.5t-61.5 -108.5h-232z" />
    <glyph glyph-name="uni0146" unicode="&#x146;" horiz-adv-x="1254" 
d="M107 0v1097h310l25 -107h16q59 61 139 93t175 32q110 0 196.5 -44.5t136 -143t49.5 -258.5v-669h-377v645q0 84 -33.5 115.5t-94.5 31.5q-31 0 -61.5 -7.5t-57.5 -23t-47 -38.5v-723h-376zM519 -508q37 69 51.5 116.5t14.5 99.5l72 -72h-26q-111 0 -158 34t-47 91
q0 58 48.5 91t155.5 33q109 0 157.5 -43t48.5 -121q0 -57 -23.5 -120.5t-61.5 -108.5h-232z" />
    <glyph glyph-name="Ncaron" unicode="&#x147;" horiz-adv-x="1570" 
d="M120 0v1480h384l646 -999h-61v999h360v-1480h-384l-646 999h62v-999h-361zM627 1590l-259 310h279l166 -210h-56l166 210h279l-259 -310h-316z" />
    <glyph glyph-name="ncaron" unicode="&#x148;" horiz-adv-x="1254" 
d="M107 0v1097h310l25 -107h16q59 61 139 93t175 32q110 0 196.5 -44.5t136 -143t49.5 -258.5v-669h-377v645q0 84 -33.5 115.5t-94.5 31.5q-31 0 -61.5 -7.5t-57.5 -23t-47 -38.5v-723h-376zM479 1226l-237 390h265l150 -264h-52l150 264h265l-237 -390h-304z" />
    <glyph glyph-name="napostrophe" unicode="&#x149;" horiz-adv-x="1254" 
d="M107 0v1097h310l25 -107h16q59 61 139 93t175 32q110 0 196.5 -44.5t136 -143t49.5 -258.5v-669h-377v645q0 84 -33.5 115.5t-94.5 31.5q-31 0 -61.5 -7.5t-57.5 -23t-47 -38.5v-723h-376zM104 1232q38 69 52 116.5t14 100.5l73 -72h-26q-111 0 -158.5 34t-47.5 91
q0 58 49 91t156 33q109 0 157.5 -43t48.5 -121q0 -57 -24 -121t-61 -109h-233z" />
    <glyph glyph-name="Eng" unicode="&#x14a;" horiz-adv-x="1570" 
d="M1136 -111l-717 1110h62v-999h-361v1480h384l677 -1040zM1165 -474l-241 160q58 75 94.5 148t53.5 156t17 188v1302h360v-1253q0 -143 -27 -261.5t-89 -225t-168 -214.5z" />
    <glyph glyph-name="eng" unicode="&#x14b;" horiz-adv-x="1254" 
d="M870 -474l-241 160q56 75 88.5 148t46 156t13.5 188v469q0 85 -34 117.5t-94 32.5q-30 0 -60.5 -8t-58 -23.5t-47.5 -37.5v-728h-376v1097h310l25 -107h16q60 61 139.5 93t174.5 32q110 0 196.5 -44.5t136 -142.5t49.5 -259v-482q0 -123 -27 -233t-89 -215t-168 -213z
" />
    <glyph glyph-name="Omacron" unicode="&#x14c;" horiz-adv-x="1606" 
d="M803 -20q-220 0 -383.5 84t-253.5 253t-90 423t90 423t253.5 253t383.5 84q221 0 384.5 -84.5t253.5 -253.5t90 -422t-90 -422t-254 -253.5t-384 -84.5zM803 288q107 0 181.5 46t113.5 144t39 255q0 164 -39.5 265t-114.5 147.5t-180 46.5t-179.5 -45.5t-114.5 -143.5
t-40 -256q0 -165 39.5 -266t114 -147t180.5 -46zM412 1626v223h782v-223h-782z" />
    <glyph glyph-name="omacron" unicode="&#x14d;" horiz-adv-x="1238" 
d="M619 -21q-172 0 -297.5 63.5t-193.5 189.5t-68 313q0 189 66 315.5t191 190.5t302 64t302 -64.5t190.5 -191t65.5 -312.5q0 -188 -67.5 -314.5t-193 -190t-297.5 -63.5zM619 260q58 0 98.5 25.5t61 87.5t20.5 172q0 112 -21 174.5t-61.5 88t-97.5 25.5q-58 0 -98.5 -25
t-61.5 -87.5t-21 -173.5t21 -173.5t61 -88t99 -25.5zM247 1308v223h744v-223h-744z" />
    <glyph glyph-name="Obreve" unicode="&#x14e;" horiz-adv-x="1606" 
d="M803 -20q-220 0 -383.5 84t-253.5 253t-90 423t90 423t253.5 253t383.5 84q221 0 384.5 -84.5t253.5 -253.5t90 -422t-90 -422t-254 -253.5t-384 -84.5zM803 288q107 0 181.5 46t113.5 144t39 255q0 164 -39.5 265t-114.5 147.5t-180 46.5t-179.5 -45.5t-114.5 -143.5
t-40 -256q0 -165 39.5 -266t114 -147t180.5 -46zM803 1592q-126 0 -212 38t-134 106.5t-60 159.5h227q12 -61 54.5 -93.5t124.5 -32.5q83 0 125 32.5t54 93.5h227q-12 -92 -60 -160t-134 -106t-212 -38z" />
    <glyph glyph-name="obreve" unicode="&#x14f;" horiz-adv-x="1238" 
d="M619 -21q-172 0 -297.5 63.5t-193.5 189.5t-68 313q0 189 66 315.5t191 190.5t302 64t302 -64.5t190.5 -191t65.5 -312.5q0 -188 -67.5 -314.5t-193 -190t-297.5 -63.5zM619 260q58 0 98.5 25.5t61 87.5t20.5 172q0 112 -21 174.5t-61.5 88t-97.5 25.5q-58 0 -98.5 -25
t-61.5 -87.5t-21 -173.5t21 -173.5t61 -88t99 -25.5zM619 1235q-175 0 -276 91t-111 269h224q8 -88 48 -131t115 -43q77 0 116.5 43t46.5 131h224q-9 -178 -110 -269t-277 -91z" />
    <glyph glyph-name="Ohungarumlaut" unicode="&#x150;" horiz-adv-x="1606" 
d="M803 -20q-220 0 -383.5 84t-253.5 253t-90 423t90 423t253.5 253t383.5 84q221 0 384.5 -84.5t253.5 -253.5t90 -422t-90 -422t-254 -253.5t-384 -84.5zM803 288q107 0 181.5 46t113.5 144t39 255q0 164 -39.5 265t-114.5 147.5t-180 46.5t-179.5 -45.5t-114.5 -143.5
t-40 -256q0 -165 39.5 -266t114 -147t180.5 -46zM880 1590l140 310h294l-158 -310h-276zM450 1590l139 310h294l-157 -310h-276z" />
    <glyph glyph-name="ohungarumlaut" unicode="&#x151;" horiz-adv-x="1238" 
d="M619 -21q-172 0 -297.5 63.5t-193.5 189.5t-68 313q0 189 66 315.5t191 190.5t302 64t302 -64.5t190.5 -191t65.5 -312.5q0 -188 -67.5 -314.5t-193 -190t-297.5 -63.5zM619 260q58 0 98.5 25.5t61 87.5t20.5 172q0 112 -21 174.5t-61.5 88t-97.5 25.5q-58 0 -98.5 -25
t-61.5 -87.5t-21 -173.5t21 -173.5t61 -88t99 -25.5zM696 1226l150 390h294l-168 -390h-276zM266 1226l150 390h294l-168 -390h-276z" />
    <glyph glyph-name="OE" unicode="&#x152;" horiz-adv-x="2152" 
d="M955 -12q-296 0 -491 79t-291.5 245t-96.5 428q0 259 101 426t296.5 246.5t479.5 79.5q78 0 161.5 -6t161.5 -6h795v-304h-674v-872h684v-304h-803q-52 0 -107.5 -3l-111 -6t-104.5 -3zM876 298q34 0 70 0.5t72 3.5v875q-38 3 -73 4t-71 1q-134 0 -224.5 -43.5t-136 -141
t-45.5 -259.5q0 -160 46 -257t136.5 -140t225.5 -43zM1245 604v304h722v-304h-722z" />
    <glyph glyph-name="oe" unicode="&#x153;" horiz-adv-x="1870" 
d="M601 -21q-163 0 -284.5 63.5t-189 189.5t-67.5 313q0 189 65.5 315.5t186.5 190.5t289 64q172 0 284 -70t166.5 -197.5t54.5 -300.5q0 -176 -56.5 -303.5t-168.5 -196t-280 -68.5zM618 260q59 0 99 25.5t60.5 87.5t20.5 172q0 112 -21 174.5t-61 88t-98 25.5
q-57 0 -97.5 -25t-61.5 -87.5t-21 -173.5t21 -173.5t61 -88t98 -25.5zM1428 -21q-216 0 -345.5 61.5t-187 188t-57.5 321.5l32 27q0 158 56.5 279.5t163 190t257.5 68.5q149 0 255 -66.5t162.5 -195t56.5 -315.5v-96h-708v211h416l-57 -19q0 93 -16 147.5t-48.5 77.5
t-82.5 23t-83.5 -23t-50 -77t-16.5 -146v-154q0 -83 25.5 -131.5t91.5 -69.5t188 -21q65 0 136.5 8.5t141.5 22.5v-278q-91 -18 -171.5 -26t-158.5 -8z" />
    <glyph glyph-name="Racute" unicode="&#x154;" horiz-adv-x="1403" 
d="M120 0v1444q70 16 151.5 28.5t167 19.5t168.5 7q329 0 496.5 -119t167.5 -370q0 -162 -78 -271.5t-220.5 -165t-336.5 -55.5q-38 0 -71 1.5t-68 2.5v-522h-377zM980 0l-460 680h408l469 -680h-417zM644 801q134 0 201 48t67 160q0 73 -29.5 120t-87.5 69t-145 22
q-43 0 -81 -3.5t-72 -10.5v-397q25 -3 48.5 -5t48 -2.5t50.5 -0.5zM523 1590l182 310h394l-237 -310h-339z" />
    <glyph glyph-name="racute" unicode="&#x155;" horiz-adv-x="841" 
d="M107 0v1097h307l29 -140h17q43 83 116 120t164 37q24 0 48 -2.5t42 -5.5v-339q-26 6 -56.5 7.5t-56.5 1.5q-45 0 -89.5 -10t-82.5 -29.5t-62 -47.5v-689h-376zM296 1226l230 390h397l-283 -390h-344z" />
    <glyph glyph-name="uni0156" unicode="&#x156;" horiz-adv-x="1403" 
d="M120 0v1444q70 16 151.5 28.5t167 19.5t168.5 7q329 0 496.5 -119t167.5 -370q0 -162 -78 -271.5t-220.5 -165t-336.5 -55.5q-38 0 -71 1.5t-68 2.5v-522h-377zM980 0l-460 680h408l469 -680h-417zM644 801q134 0 201 48t67 160q0 73 -29.5 120t-87.5 69t-145 22
q-43 0 -81 -3.5t-72 -10.5v-397q25 -3 48.5 -5t48 -2.5t50.5 -0.5zM626 -508q37 69 51.5 116.5t14.5 99.5l72 -72h-26q-111 0 -158 34t-47 91q0 58 48.5 91t155.5 33q109 0 157.5 -43t48.5 -121q0 -57 -23.5 -120.5t-61.5 -108.5h-232z" />
    <glyph glyph-name="uni0157" unicode="&#x157;" horiz-adv-x="841" 
d="M107 0v1097h307l29 -140h17q43 83 116 120t164 37q24 0 48 -2.5t42 -5.5v-339q-26 6 -56.5 7.5t-56.5 1.5q-45 0 -89.5 -10t-82.5 -29.5t-62 -47.5v-689h-376zM184 -508q37 69 51.5 116.5t14.5 99.5l72 -72h-26q-111 0 -158 34t-47 91q0 58 48.5 91t155.5 33
q109 0 157.5 -43t48.5 -121q0 -57 -23.5 -120.5t-61.5 -108.5h-232z" />
    <glyph glyph-name="Rcaron" unicode="&#x158;" horiz-adv-x="1403" 
d="M120 0v1444q70 16 151.5 28.5t167 19.5t168.5 7q329 0 496.5 -119t167.5 -370q0 -162 -78 -271.5t-220.5 -165t-336.5 -55.5q-38 0 -71 1.5t-68 2.5v-522h-377zM980 0l-460 680h408l469 -680h-417zM644 801q134 0 201 48t67 160q0 73 -29.5 120t-87.5 69t-145 22
q-43 0 -81 -3.5t-72 -10.5v-397q25 -3 48.5 -5t48 -2.5t50.5 -0.5zM536 1590l-259 310h279l166 -210h-56l166 210h279l-259 -310h-316z" />
    <glyph glyph-name="rcaron" unicode="&#x159;" horiz-adv-x="841" 
d="M107 0v1097h307l29 -140h17q43 83 116 120t164 37q24 0 48 -2.5t42 -5.5v-339q-26 6 -56.5 7.5t-56.5 1.5q-45 0 -89.5 -10t-82.5 -29.5t-62 -47.5v-689h-376zM316 1226l-237 390h265l150 -264h-52l150 264h265l-237 -390h-304z" />
    <glyph glyph-name="Sacute" unicode="&#x15a;" horiz-adv-x="1186" 
d="M518 -20q-114 0 -225.5 17.5t-204.5 47.5v309q62 -21 136 -35.5t149.5 -23t142.5 -8.5q136 0 188.5 37t52.5 100q0 53 -37.5 84.5t-149.5 60.5l-122 31q-197 49 -298.5 155t-101.5 279q0 220 161 343t487 123q106 0 198.5 -12t163.5 -32v-309q-69 22 -159 34t-180 12
q-112 0 -175 -18t-89 -49.5t-26 -70.5q0 -49 32.5 -78.5t127.5 -55.5l123 -31q146 -36 240.5 -94.5t140 -144t45.5 -201.5q0 -145 -74 -250.5t-212.5 -162.5t-333.5 -57zM434 1590l182 310h394l-237 -310h-339z" />
    <glyph glyph-name="sacute" unicode="&#x15b;" horiz-adv-x="1006" 
d="M452 -21q-99 0 -193 12.5t-175 36.5v272q80 -24 173 -37.5t188 -13.5q97 0 134 22t37 59q0 29 -16 43.5t-58 22.5l-189 33q-156 28 -228.5 107.5t-72.5 215.5q0 165 134.5 264t411.5 99q84 0 164 -9.5t141 -26.5v-272q-63 18 -139 27.5t-155 9.5q-86 0 -131 -12
t-61.5 -31t-16.5 -41q0 -24 17 -39t58 -23l189 -33q144 -26 222 -98.5t78 -223.5q0 -169 -134.5 -266.5t-377.5 -97.5zM335 1226l230 390h397l-283 -390h-344z" />
    <glyph glyph-name="Scircumflex" unicode="&#x15c;" horiz-adv-x="1186" 
d="M518 -20q-114 0 -225.5 17.5t-204.5 47.5v309q62 -21 136 -35.5t149.5 -23t142.5 -8.5q136 0 188.5 37t52.5 100q0 53 -37.5 84.5t-149.5 60.5l-122 31q-197 49 -298.5 155t-101.5 279q0 220 161 343t487 123q106 0 198.5 -12t163.5 -32v-309q-69 22 -159 34t-180 12
q-112 0 -175 -18t-89 -49.5t-26 -70.5q0 -49 32.5 -78.5t127.5 -55.5l123 -31q146 -36 240.5 -94.5t140 -144t45.5 -201.5q0 -145 -74 -250.5t-212.5 -162.5t-333.5 -57zM188 1590l259 310h316l259 -310h-279l-166 210h56l-166 -210h-279z" />
    <glyph glyph-name="scircumflex" unicode="&#x15d;" horiz-adv-x="1006" 
d="M452 -21q-99 0 -193 12.5t-175 36.5v272q80 -24 173 -37.5t188 -13.5q97 0 134 22t37 59q0 29 -16 43.5t-58 22.5l-189 33q-156 28 -228.5 107.5t-72.5 215.5q0 165 134.5 264t411.5 99q84 0 164 -9.5t141 -26.5v-272q-63 18 -139 27.5t-155 9.5q-86 0 -131 -12
t-61.5 -31t-16.5 -41q0 -24 17 -39t58 -23l189 -33q144 -26 222 -98.5t78 -223.5q0 -169 -134.5 -266.5t-377.5 -97.5zM119 1226l236 390h304l236 -390h-264l-150 264h52l-150 -264h-264z" />
    <glyph glyph-name="Scedilla" unicode="&#x15e;" horiz-adv-x="1186" 
d="M518 -20q-114 0 -225.5 17.5t-204.5 47.5v309q62 -21 136 -35.5t149.5 -23t142.5 -8.5q136 0 188.5 37t52.5 100q0 53 -37.5 84.5t-149.5 60.5l-122 31q-197 49 -298.5 155t-101.5 279q0 220 161 343t487 123q106 0 198.5 -12t163.5 -32v-309q-69 22 -159 34t-180 12
q-112 0 -175 -18t-89 -49.5t-26 -70.5q0 -49 32.5 -78.5t127.5 -55.5l123 -31q146 -36 240.5 -94.5t140 -144t45.5 -201.5q0 -145 -74 -250.5t-212.5 -162.5t-333.5 -57zM565 -452q-59 0 -110 8t-96 23v138q45 -15 95.5 -22.5t91.5 -7.5q58 0 87.5 15t29.5 51t-30 52t-88 16
h-50v199h175v-145l-81 50q134 0 200.5 -48.5t66.5 -136.5t-70.5 -140t-220.5 -52z" />
    <glyph glyph-name="scedilla" unicode="&#x15f;" horiz-adv-x="1006" 
d="M452 -21q-99 0 -193 12.5t-175 36.5v272q80 -24 173 -37.5t188 -13.5q97 0 134 22t37 59q0 29 -16 43.5t-58 22.5l-189 33q-156 28 -228.5 107.5t-72.5 215.5q0 165 134.5 264t411.5 99q84 0 164 -9.5t141 -26.5v-272q-63 18 -139 27.5t-155 9.5q-86 0 -131 -12
t-61.5 -31t-16.5 -41q0 -24 17 -39t58 -23l189 -33q144 -26 222 -98.5t78 -223.5q0 -169 -134.5 -266.5t-377.5 -97.5zM500 -452q-51 0 -98 8t-87 22v139q40 -15 86.5 -22.5t80.5 -7.5q48 0 72.5 15t24.5 51q0 68 -98 68h-50v199h176v-145l-83 50q122 0 185 -50t63 -138
q0 -87 -66.5 -138t-205.5 -51z" />
    <glyph glyph-name="Scaron" unicode="&#x160;" horiz-adv-x="1186" 
d="M518 -20q-114 0 -225.5 17.5t-204.5 47.5v309q62 -21 136 -35.5t149.5 -23t142.5 -8.5q136 0 188.5 37t52.5 100q0 53 -37.5 84.5t-149.5 60.5l-122 31q-197 49 -298.5 155t-101.5 279q0 220 161 343t487 123q106 0 198.5 -12t163.5 -32v-309q-69 22 -159 34t-180 12
q-112 0 -175 -18t-89 -49.5t-26 -70.5q0 -49 32.5 -78.5t127.5 -55.5l123 -31q146 -36 240.5 -94.5t140 -144t45.5 -201.5q0 -145 -74 -250.5t-212.5 -162.5t-333.5 -57zM447 1590l-259 310h279l166 -210h-56l166 210h279l-259 -310h-316z" />
    <glyph glyph-name="scaron" unicode="&#x161;" horiz-adv-x="1006" 
d="M452 -21q-99 0 -193 12.5t-175 36.5v272q80 -24 173 -37.5t188 -13.5q97 0 134 22t37 59q0 29 -16 43.5t-58 22.5l-189 33q-156 28 -228.5 107.5t-72.5 215.5q0 165 134.5 264t411.5 99q84 0 164 -9.5t141 -26.5v-272q-63 18 -139 27.5t-155 9.5q-86 0 -131 -12
t-61.5 -31t-16.5 -41q0 -24 17 -39t58 -23l189 -33q144 -26 222 -98.5t78 -223.5q0 -169 -134.5 -266.5t-377.5 -97.5zM355 1226l-237 390h265l150 -264h-52l150 264h265l-237 -390h-304z" />
    <glyph glyph-name="uni0162" unicode="&#x162;" horiz-adv-x="1325" 
d="M470 0v1163h-457v317h1299v-317h-457v-1163h-385zM623 -452q-59 0 -110 8t-96 23v138q45 -15 95.5 -22.5t91.5 -7.5q58 0 87.5 15t29.5 51t-30 52t-88 16h-50v199h175v-145l-81 50q134 0 200.5 -48.5t66.5 -136.5t-70.5 -140t-220.5 -52z" />
    <glyph glyph-name="uni0163" unicode="&#x163;" horiz-adv-x="877" 
d="M621 -21q-210 0 -322 104t-112 326v688l70 383h307v-1012q0 -103 37 -142t126 -39q24 0 50 3t59 8v-294q-44 -10 -102 -17.5t-113 -7.5zM19 804v293h814v-293h-814zM505 -452q-51 0 -98 8t-87 22v139q40 -15 86.5 -22.5t80.5 -7.5q48 0 72.5 15t24.5 51q0 68 -98 68h-50
v199h176v-145l-83 50q122 0 185 -50t63 -138q0 -87 -66.5 -138t-205.5 -51z" />
    <glyph glyph-name="Tcaron" unicode="&#x164;" horiz-adv-x="1325" 
d="M470 0v1163h-457v317h1299v-317h-457v-1163h-385zM505 1590l-259 310h279l166 -210h-56l166 210h279l-259 -310h-316z" />
    <glyph glyph-name="tcaron" unicode="&#x165;" horiz-adv-x="877" 
d="M621 -21q-210 0 -322 104t-112 326v688l70 383h307v-1012q0 -103 37 -142t126 -39q24 0 50 3t59 8v-294q-44 -10 -102 -17.5t-113 -7.5zM19 804v293h814v-293h-814zM648 1180q18 115 25 216t7 220h247q0 -123 -20.5 -236.5t-56.5 -199.5h-202z" />
    <glyph glyph-name="Tbar" unicode="&#x166;" horiz-adv-x="1325" 
d="M179 593v241h968v-241h-968zM470 0v1163h-457v317h1299v-317h-457v-1163h-385z" />
    <glyph glyph-name="tbar" unicode="&#x167;" horiz-adv-x="877" 
d="M74 459v224h707v-224h-707zM621 -21q-210 0 -322 104t-112 326v688l70 383h307v-1012q0 -103 37 -142t126 -39q24 0 50 3t59 8v-294q-44 -10 -102 -17.5t-113 -7.5zM19 804v293h814v-293h-814z" />
    <glyph glyph-name="Utilde" unicode="&#x168;" horiz-adv-x="1523" 
d="M766 -20q-226 0 -370 72t-213 217t-69 364v847h384v-884q0 -161 67.5 -232t200.5 -71q132 0 199 71t67 232v884h377v-847q0 -219 -68 -364t-210.5 -217t-364.5 -72zM945 1601q-56 0 -103.5 13t-93.5 27q-40 14 -81 25t-86 11q-65 0 -113 -17t-97 -53v210q43 39 94 57
t122 18q57 0 104.5 -13t92.5 -28q41 -13 82 -25t85 -12q65 0 113 17.5t97 53.5v-211q-42 -38 -93.5 -55.5t-122.5 -17.5z" />
    <glyph glyph-name="utilde" unicode="&#x169;" horiz-adv-x="1245" 
d="M487 -19q-112 0 -199.5 44.5t-137.5 142t-50 257.5v672h376v-645q0 -84 34 -116t89 -32q29 0 59 8t57 23.5t46 37.5v724h377v-1097h-310l-25 107h-15q-60 -62 -136.5 -94t-164.5 -32zM782 1263q-50 0 -94.5 16.5t-86.5 34.5q-38 18 -75.5 31.5t-76.5 13.5
q-59 0 -106 -20.5t-96 -67.5v230q81 81 209 81q50 0 94.5 -16t86.5 -35q38 -17 75.5 -31t76.5 -14q59 0 106 21.5t96 67.5v-231q-81 -81 -209 -81z" />
    <glyph glyph-name="Umacron" unicode="&#x16a;" horiz-adv-x="1523" 
d="M766 -20q-226 0 -370 72t-213 217t-69 364v847h384v-884q0 -161 67.5 -232t200.5 -71q132 0 199 71t67 232v884h377v-847q0 -219 -68 -364t-210.5 -217t-364.5 -72zM375 1626v223h782v-223h-782z" />
    <glyph glyph-name="umacron" unicode="&#x16b;" horiz-adv-x="1245" 
d="M487 -19q-112 0 -199.5 44.5t-137.5 142t-50 257.5v672h376v-645q0 -84 34 -116t89 -32q29 0 59 8t57 23.5t46 37.5v724h377v-1097h-310l-25 107h-15q-60 -62 -136.5 -94t-164.5 -32zM247 1308v223h744v-223h-744z" />
    <glyph glyph-name="Ubreve" unicode="&#x16c;" horiz-adv-x="1523" 
d="M766 -20q-226 0 -370 72t-213 217t-69 364v847h384v-884q0 -161 67.5 -232t200.5 -71q132 0 199 71t67 232v884h377v-847q0 -219 -68 -364t-210.5 -217t-364.5 -72zM766 1592q-126 0 -212 38t-134 106.5t-60 159.5h227q12 -61 54.5 -93.5t124.5 -32.5q83 0 125 32.5
t54 93.5h227q-12 -92 -60 -160t-134 -106t-212 -38z" />
    <glyph glyph-name="ubreve" unicode="&#x16d;" horiz-adv-x="1245" 
d="M487 -19q-112 0 -199.5 44.5t-137.5 142t-50 257.5v672h376v-645q0 -84 34 -116t89 -32q29 0 59 8t57 23.5t46 37.5v724h377v-1097h-310l-25 107h-15q-60 -62 -136.5 -94t-164.5 -32zM619 1235q-175 0 -276 91t-111 269h224q8 -88 48 -131t115 -43q77 0 116.5 43
t46.5 131h224q-9 -178 -110 -269t-277 -91z" />
    <glyph glyph-name="Uring" unicode="&#x16e;" horiz-adv-x="1523" 
d="M766 -20q-226 0 -370 72t-213 217t-69 364v847h384v-884q0 -161 67.5 -232t200.5 -71q132 0 199 71t67 232v884h377v-847q0 -219 -68 -364t-210.5 -217t-364.5 -72zM766 1576q-96 0 -159 60.5t-63 154.5q0 93 63 154t159 61q97 0 159.5 -61t62.5 -154q0 -94 -62.5 -154.5
t-159.5 -60.5zM766 1702q38 0 61.5 24t23.5 65t-23.5 64.5t-61.5 23.5q-37 0 -61 -23.5t-24 -64.5t24 -65t61 -24z" />
    <glyph glyph-name="uring" unicode="&#x16f;" horiz-adv-x="1245" 
d="M487 -19q-112 0 -199.5 44.5t-137.5 142t-50 257.5v672h376v-645q0 -84 34 -116t89 -32q29 0 59 8t57 23.5t46 37.5v724h377v-1097h-310l-25 107h-15q-60 -62 -136.5 -94t-164.5 -32zM619 1220q-96 0 -159 61t-63 154q0 94 63 154.5t159 60.5q97 0 159.5 -60.5
t62.5 -154.5q0 -93 -62.5 -154t-159.5 -61zM619 1347q38 0 61.5 24t23.5 65t-23.5 64.5t-61.5 23.5q-37 0 -61 -23.5t-24 -64.5t24 -65t61 -24z" />
    <glyph glyph-name="Uhungarumlaut" unicode="&#x170;" horiz-adv-x="1523" 
d="M766 -20q-226 0 -370 72t-213 217t-69 364v847h384v-884q0 -161 67.5 -232t200.5 -71q132 0 199 71t67 232v884h377v-847q0 -219 -68 -364t-210.5 -217t-364.5 -72zM843 1590l140 310h294l-158 -310h-276zM413 1590l139 310h294l-157 -310h-276z" />
    <glyph glyph-name="uhungarumlaut" unicode="&#x171;" horiz-adv-x="1245" 
d="M487 -19q-112 0 -199.5 44.5t-137.5 142t-50 257.5v672h376v-645q0 -84 34 -116t89 -32q29 0 59 8t57 23.5t46 37.5v724h377v-1097h-310l-25 107h-15q-60 -62 -136.5 -94t-164.5 -32zM696 1226l150 390h294l-168 -390h-276zM266 1226l150 390h294l-168 -390h-276z" />
    <glyph glyph-name="Uogonek" unicode="&#x172;" horiz-adv-x="1523" 
d="M852 -452q-152 0 -225 59t-73 158q0 88 63.5 161t225.5 129l-31 -75h-46q-226 0 -370 72t-213 217t-69 364v847h384v-884q0 -161 67.5 -232t200.5 -71q132 0 199 71t67 232v884h377v-847q0 -247 -87 -401t-273 -213q-117 -38 -178 -75.5t-83.5 -75.5t-22.5 -76
q0 -46 33 -72t107 -26q28 0 61.5 6.5t74.5 20.5v-141q-41 -14 -86.5 -23t-102.5 -9z" />
    <glyph glyph-name="uogonek" unicode="&#x173;" horiz-adv-x="1245" 
d="M487 -19q-112 0 -199.5 44.5t-137.5 142t-50 257.5v672h376v-645q0 -84 34 -116t89 -32q29 0 59 8t57 23.5t46 37.5v724h377v-1097l-295 -17l-40 124h-15q-60 -62 -136.5 -94t-164.5 -32zM985 -452q-138 0 -208 59t-70 158q0 64 30 120t102 104t198 88l101 -77
q-87 -34 -134.5 -67.5t-66 -69.5t-18.5 -74q0 -44 30 -70t89 -26q26 0 57 7t66 21v-141q-36 -14 -78 -23t-98 -9z" />
    <glyph glyph-name="Wcircumflex" unicode="&#x174;" horiz-adv-x="2338" 
d="M403 0l-382 1480h388l316 -1313h-97l342 1313h421l326 -1313h-88l325 1313h362l-381 -1480h-491l-318 1247h102l-334 -1247h-491zM752 1590l259 310h316l259 -310h-279l-166 210h56l-166 -210h-279z" />
    <glyph glyph-name="wcircumflex" unicode="&#x175;" horiz-adv-x="1854" 
d="M323 0l-286 1097h355l168 -724h-15l185 724h412l180 -724h-22l177 724h340l-285 -1097h-412l-199 777h19l-205 -777h-412zM540 1226l236 390h304l236 -390h-264l-150 264h52l-150 -264h-264z" />
    <glyph glyph-name="Ycircumflex" unicode="&#x176;" horiz-adv-x="1325" 
d="M473 0v769l77 -280l-610 991h406l380 -630h-105l376 630h376l-593 -991l77 275v-764h-384zM246 1590l259 310h316l259 -310h-279l-166 210h56l-166 -210h-279z" />
    <glyph glyph-name="ycircumflex" unicode="&#x177;" horiz-adv-x="1205" 
d="M318 -440l152 440l131 302l242 795h369l-527 -1537h-367zM367 0l-374 1097h392l330 -1097h-348zM215 1226l236 390h304l236 -390h-264l-150 264h52l-150 -264h-264z" />
    <glyph glyph-name="Ydieresis" unicode="&#x178;" horiz-adv-x="1325" 
d="M473 0v769l77 -280l-610 991h406l380 -630h-105l376 630h376l-593 -991l77 275v-764h-384zM929 1586q-98 0 -147.5 43.5t-49.5 120.5q0 78 49.5 121t147.5 43t147.5 -43t49.5 -121q0 -77 -49.5 -120.5t-147.5 -43.5zM397 1586q-98 0 -147.5 43.5t-49.5 120.5
q0 78 49.5 121t147.5 43t147.5 -43t49.5 -121q0 -77 -49.5 -120.5t-147.5 -43.5z" />
    <glyph glyph-name="Zacute" unicode="&#x179;" horiz-adv-x="1271" 
d="M59 0v210l694 1023l2 -70h-686v317h1133v-210l-695 -1023l-2 70h707v-317h-1153zM466 1590l182 310h394l-237 -310h-339z" />
    <glyph glyph-name="zacute" unicode="&#x17a;" horiz-adv-x="1046" 
d="M66 0v239l511 630v-65h-501v293h912v-238l-511 -631v66h521v-294h-932zM361 1226l230 390h397l-283 -390h-344z" />
    <glyph glyph-name="Zdotaccent" unicode="&#x17b;" horiz-adv-x="1271" 
d="M59 0v210l694 1023l2 -70h-686v317h1133v-210l-695 -1023l-2 70h707v-317h-1153zM637 1586q-113 0 -169.5 43.5t-56.5 120.5q0 79 56.5 121.5t169.5 42.5t169.5 -42.5t56.5 -121.5q0 -77 -56.5 -120.5t-169.5 -43.5z" />
    <glyph glyph-name="zdotaccent" unicode="&#x17c;" horiz-adv-x="1046" 
d="M66 0v239l511 630v-65h-501v293h912v-238l-511 -631v66h521v-294h-932zM533 1229q-117 0 -172.5 49.5t-55.5 139.5q0 92 55.5 141.5t172.5 49.5q118 0 173 -49.5t55 -141.5q0 -90 -55 -139.5t-173 -49.5z" />
    <glyph glyph-name="Zcaron" unicode="&#x17d;" horiz-adv-x="1271" 
d="M59 0v210l694 1023l2 -70h-686v317h1133v-210l-695 -1023l-2 70h707v-317h-1153zM479 1590l-259 310h279l166 -210h-56l166 210h279l-259 -310h-316z" />
    <glyph glyph-name="zcaron" unicode="&#x17e;" horiz-adv-x="1046" 
d="M66 0v239l511 630v-65h-501v293h912v-238l-511 -631v66h521v-294h-932zM381 1226l-237 390h265l150 -264h-52l150 264h265l-237 -390h-304z" />
    <glyph glyph-name="uni018F" unicode="&#x18f;" horiz-adv-x="1581" 
d="M795 -20q-219 0 -383 83t-255 249.5t-91 417.5v123h1179v-275h-923l135 138q0 -163 36 -260t111.5 -139.5t194.5 -42.5q109 0 182 40.5t109.5 136.5t36.5 264q0 181 -60.5 286t-182 149t-305.5 44q-98 0 -207 -11t-204 -33v307q105 22 220.5 32.5t222.5 10.5
q297 0 496 -83.5t298.5 -255.5t99.5 -438q0 -243 -88.5 -408t-248 -250t-373.5 -85z" />
    <glyph glyph-name="florin" unicode="&#x192;" horiz-adv-x="834" 
d="M43 -460q-45 0 -84.5 3t-79.5 9v291q29 -4 53.5 -5.5t49.5 -1.5q113 0 163 43.5t50 131.5v1136q0 152 60.5 261.5t178 168.5t287.5 59q46 0 85 -3t80 -9v-291q-29 4 -53.5 5.5t-50.5 1.5q-113 0 -163 -43.5t-50 -131.5v-1136q0 -152 -60.5 -261.5t-178 -168.5t-287.5 -59
zM27 803v294h811v-294h-811z" />
    <glyph glyph-name="Ohorn" unicode="&#x1a0;" horiz-adv-x="1606" 
d="M803 -20q-221 0 -384.5 84t-253 253t-89.5 423t90 423t253.5 253t383.5 84q56 0 108 -5.5t101.5 -10.5t96.5 -5q91 0 137.5 35t46.5 122q0 31 -3.5 64t-12.5 76h249q13 -41 16.5 -79t3.5 -77q0 -109 -41.5 -177.5t-116.5 -101t-175 -32.5l27 74q139 -87 215 -248.5
t76 -394.5q0 -254 -89.5 -422.5t-253 -253t-385.5 -84.5zM803 288q107 0 181.5 46t113.5 144t39 255q0 164 -39.5 265t-114.5 147.5t-180 46.5t-179.5 -45.5t-114.5 -143.5t-40 -256q0 -165 39.5 -266t114 -147t180.5 -46z" />
    <glyph glyph-name="ohorn" unicode="&#x1a1;" horiz-adv-x="1238" 
d="M619 -21q-172 0 -297.5 63.5t-193.5 189.5t-68 313q0 189 66.5 315.5t193 190.5t307.5 64q62 0 109 -5.5t80 -5.5q85 0 130.5 34.5t45.5 118.5q0 30 -3 63t-12 76h233q12 -41 15.5 -78.5t3.5 -75.5q0 -107 -41.5 -175t-116.5 -100.5t-173 -32.5l56 94q223 -137 223 -481
q0 -188 -67.5 -314.5t-193 -190t-297.5 -63.5zM619 260q58 0 98.5 25.5t61 87.5t20.5 172q0 112 -21 174.5t-61.5 88t-97.5 25.5q-58 0 -98.5 -25t-61.5 -87.5t-21 -173.5t21 -173.5t61 -88t99 -25.5z" />
    <glyph glyph-name="Uhorn" unicode="&#x1af;" horiz-adv-x="1527" 
d="M766 -20q-226 0 -370 72t-213 217t-69 364v847h384v-884q0 -161 67.5 -232t200.5 -71q132 0 199 71t67 232v884h122q91 0 137.5 34.5t46.5 121.5q0 31 -3.5 64t-12.5 76h249q13 -41 16.5 -79t3.5 -77q0 -115 -48.5 -185.5t-133.5 -99.5v-702q0 -219 -68 -364t-210.5 -217
t-364.5 -72z" />
    <glyph glyph-name="uhorn" unicode="&#x1b0;" horiz-adv-x="1282" 
d="M487 -19q-112 0 -199.5 44.5t-137.5 142t-50 257.5v672h376v-645q0 -84 34 -116t89 -32q29 0 59 8t57 23.5t46 37.5v724h145q84 0 129.5 34.5t45.5 118.5q0 30 -3 63t-12 76h233q12 -41 15.5 -78.5t3.5 -75.5q0 -107 -41.5 -175t-116 -100.5t-173.5 -32.5l151 148v-1075
h-310l-25 107h-15q-60 -62 -136.5 -94t-164.5 -32z" />
    <glyph glyph-name="uni01C4" unicode="&#x1c4;" horiz-adv-x="2757" 
d="M546 -16q-64 0 -136.5 2.5t-146.5 8t-143 13.5v1436q72 16 155.5 28t171.5 18.5t172 6.5q417 0 629 -183.5t212 -573.5q0 -266 -100.5 -433t-303.5 -245t-510 -78zM649 294q140 0 233 43.5t139 141.5t46 263q0 163 -47.5 261t-140.5 142t-231 44q-32 0 -72 -3.5
t-72 -10.5v-877q38 -3 73.5 -3.5t71.5 -0.5zM1546 0v210l694 1023l2 -70h-686v317h1133v-210l-695 -1023l-2 70h707v-317h-1153zM1965 1590l-259 310h279l166 -210h-56l166 210h279l-259 -310h-316z" />
    <glyph glyph-name="uni01C5" unicode="&#x1c5;" horiz-adv-x="2582" 
d="M546 -16q-64 0 -136.5 2.5t-146.5 8t-143 13.5v1436q72 16 155.5 28t171.5 18.5t172 6.5q417 0 629 -183.5t212 -573.5q0 -266 -100.5 -433t-303.5 -245t-510 -78zM649 294q140 0 233 43.5t139 141.5t46 263q0 163 -47.5 261t-140.5 142t-231 44q-32 0 -72 -3.5
t-72 -10.5v-877q38 -3 73.5 -3.5t71.5 -0.5zM1602 0v239l511 630v-65h-501v293h912v-238l-511 -631v66h521v-294h-932zM1910 1270l-259 310h279l166 -210h-56l166 210h279l-259 -310h-316z" />
    <glyph glyph-name="uni01C6" unicode="&#x1c6;" horiz-adv-x="2313" 
d="M517 -20q-123 0 -227 56.5t-167 176.5t-63 313q0 189 70 321t206.5 200.5t338.5 68.5q28 0 56 -2t52 -4v506h376v-1616h-315l-23 114h-16q-47 -61 -119 -97.5t-169 -36.5zM631 286q42 0 82 12.5t70 39.5v485q-23 4 -51.5 7t-56.5 3q-118 0 -177.5 -63.5t-59.5 -214.5
q0 -105 24.5 -163.5t67.5 -82t101 -23.5zM1332 0v239l511 630v-65h-501v293h912v-238l-511 -631v66h521v-294h-932zM1647 1226l-237 390h265l150 -264h-52l150 264h265l-237 -390h-304z" />
    <glyph glyph-name="uni01C7" unicode="&#x1c7;" horiz-adv-x="1800" 
d="M120 0v1480h384v-1163h663v-317h-1047zM1392 -352l-243 162q56 75 88.5 147t46.5 155t14 190v1178h382v-1169q0 -125 -27.5 -235t-90.5 -215t-170 -213z" />
    <glyph glyph-name="uni01C8" unicode="&#x1c8;" horiz-adv-x="1767" 
d="M120 0v1480h384v-1163h663v-317h-1047zM1376 -474l-242 160q56 75 88.5 148t46.5 156t14 188v919h377v-904q0 -126 -27 -237t-89.5 -216.5t-167.5 -213.5zM1467 1230q-117 0 -172.5 49.5t-55.5 139.5q0 92 55.5 141.5t172.5 49.5q118 0 173 -49.5t55 -141.5
q0 -90 -55 -139.5t-173 -49.5z" />
    <glyph glyph-name="uni01C9" unicode="&#x1c9;" horiz-adv-x="1181" 
d="M107 0v1616h376v-1616h-376zM790 -474l-242 160q56 75 88.5 148t46.5 156t14 188v919h377v-904q0 -126 -27 -237t-89.5 -216.5t-167.5 -213.5zM881 1230q-117 0 -172.5 49.5t-55.5 139.5q0 92 55.5 141.5t172.5 49.5q118 0 173 -49.5t55 -141.5q0 -90 -55 -139.5
t-173 -49.5z" />
    <glyph glyph-name="uni01CA" unicode="&#x1ca;" horiz-adv-x="2194" 
d="M120 0v1480h384l646 -999h-61v999h360v-1480h-384l-646 999h62v-999h-361zM1786 -352l-243 162q56 75 88.5 147t46.5 155t14 190v1178h382v-1169q0 -125 -27.5 -235t-90.5 -215t-170 -213z" />
    <glyph glyph-name="uni01CB" unicode="&#x1cb;" horiz-adv-x="2161" 
d="M120 0v1480h384l646 -999h-61v999h360v-1480h-384l-646 999h62v-999h-361zM1770 -474l-242 160q56 75 88.5 148t46.5 156t14 188v919h377v-904q0 -126 -27 -237t-89.5 -216.5t-167.5 -213.5zM1861 1230q-117 0 -172.5 49.5t-55.5 139.5q0 92 55.5 141.5t172.5 49.5
q118 0 173 -49.5t55 -141.5q0 -90 -55 -139.5t-173 -49.5z" />
    <glyph glyph-name="uni01CC" unicode="&#x1cc;" horiz-adv-x="1845" 
d="M107 0v1097h310l25 -107h16q59 61 139 93t175 32q110 0 196.5 -44.5t136 -143t49.5 -258.5v-669h-377v645q0 84 -33.5 115.5t-94.5 31.5q-31 0 -61.5 -7.5t-57.5 -23t-47 -38.5v-723h-376zM1454 -474l-242 160q56 75 88.5 148t46.5 156t14 188v919h377v-904
q0 -126 -27 -237t-89.5 -216.5t-167.5 -213.5zM1545 1230q-117 0 -172.5 49.5t-55.5 139.5q0 92 55.5 141.5t172.5 49.5q118 0 173 -49.5t55 -141.5q0 -90 -55 -139.5t-173 -49.5z" />
    <glyph glyph-name="Gcaron" unicode="&#x1e6;" horiz-adv-x="1455" 
d="M953 -19q-294 0 -488.5 83t-291.5 250.5t-97 421.5q0 250 100 420t296 257t485 87q87 0 171 -9t163 -27v-313q-74 16 -148 24.5t-151 8.5q-182 0 -295.5 -46t-167 -146t-53.5 -262q0 -150 49 -246.5t148 -143t249 -46.5q57 0 116 4.5t107 12.5l-165 -142v551h356v-705
q-96 -15 -192.5 -24.5t-190.5 -9.5zM668 1590l-259 310h279l166 -210h-56l166 210h279l-259 -310h-316z" />
    <glyph glyph-name="gcaron" unicode="&#x1e7;" horiz-adv-x="1266" 
d="M522 -460q-91 0 -189.5 10t-193.5 33v291q95 -24 185.5 -36t166.5 -12q155 0 223.5 54.5t68.5 177.5v60h-17q-47 -58 -117 -90t-161 -32q-112 0 -209.5 57.5t-158 175t-60.5 298.5q0 279 159.5 433.5t487.5 154.5q75 0 155 -7.5t156.5 -22t140.5 -35.5v-921
q0 -309 -156.5 -449t-480.5 -140zM637 299q39 0 77.5 11t68.5 33v479q-23 5 -51 8t-59 3q-113 0 -174 -63t-61 -212q0 -100 24 -156.5t68.5 -79.5t106.5 -23zM507 1226l-237 390h265l150 -264h-52l150 264h265l-237 -390h-304z" />
    <glyph glyph-name="uni01EA" unicode="&#x1ea;" horiz-adv-x="1606" 
d="M868 -452q-152 0 -225.5 59t-73.5 158q0 89 63.5 162t222.5 126l-27 -73h-37q-218 0 -379 85t-248.5 253.5t-87.5 421.5q0 254 90 423t253.5 253t383.5 84q221 0 384.5 -84.5t253.5 -253t90 -422.5q0 -218 -65 -366t-173 -236t-237 -125q-106 -31 -166 -67.5t-84.5 -75.5
t-24.5 -79q0 -46 33 -72t107 -26q28 0 61.5 6.5t74.5 21.5v-142q-41 -13 -86.5 -22t-102.5 -9zM803 288q107 0 181.5 46t113.5 144t39 255q0 164 -39.5 265t-114.5 147.5t-180 46.5t-179.5 -45.5t-114.5 -143.5t-40 -256q0 -165 39.5 -266t114 -147t180.5 -46z" />
    <glyph glyph-name="uni01EB" unicode="&#x1eb;" horiz-adv-x="1238" 
d="M674 -452q-137 0 -207 59t-70 158q0 89 54 156t177 118l-9 -60q-172 0 -297.5 63.5t-193.5 189.5t-68 313q0 189 66 315.5t191 190.5t302 64t302 -64.5t190.5 -191t65.5 -312.5q0 -211 -84.5 -343.5t-239.5 -188.5q-100 -37 -153 -73t-72.5 -73t-19.5 -74q0 -46 30.5 -74
t89.5 -28q25 0 55.5 6.5t64.5 20.5l2 -141q-36 -13 -77.5 -22t-98.5 -9zM619 260q58 0 98.5 25.5t61 87.5t20.5 172q0 112 -21 174.5t-61.5 88t-97.5 25.5q-58 0 -98.5 -25t-61.5 -87.5t-21 -173.5t21 -173.5t61 -88t99 -25.5z" />
    <glyph glyph-name="uni01F1" unicode="&#x1f1;" horiz-adv-x="2757" 
d="M546 -16q-64 0 -136.5 2.5t-146.5 8t-143 13.5v1436q72 16 155.5 28t171.5 18.5t172 6.5q417 0 629 -183.5t212 -573.5q0 -266 -100.5 -433t-303.5 -245t-510 -78zM649 294q140 0 233 43.5t139 141.5t46 263q0 163 -47.5 261t-140.5 142t-231 44q-32 0 -72 -3.5
t-72 -10.5v-877q38 -3 73.5 -3.5t71.5 -0.5zM1546 0v210l694 1023l2 -70h-686v317h1133v-210l-695 -1023l-2 70h707v-317h-1153z" />
    <glyph glyph-name="uni01F2" unicode="&#x1f2;" horiz-adv-x="2582" 
d="M546 -16q-64 0 -136.5 2.5t-146.5 8t-143 13.5v1436q72 16 155.5 28t171.5 18.5t172 6.5q417 0 629 -183.5t212 -573.5q0 -266 -100.5 -433t-303.5 -245t-510 -78zM649 294q140 0 233 43.5t139 141.5t46 263q0 163 -47.5 261t-140.5 142t-231 44q-32 0 -72 -3.5
t-72 -10.5v-877q38 -3 73.5 -3.5t71.5 -0.5zM1602 0v239l511 630v-65h-501v293h912v-238l-511 -631v66h521v-294h-932z" />
    <glyph glyph-name="uni01F3" unicode="&#x1f3;" horiz-adv-x="2313" 
d="M517 -20q-123 0 -227 56.5t-167 176.5t-63 313q0 189 70 321t206.5 200.5t338.5 68.5q28 0 56 -2t52 -4v506h376v-1616h-315l-23 114h-16q-47 -61 -119 -97.5t-169 -36.5zM631 286q42 0 82 12.5t70 39.5v485q-23 4 -51.5 7t-56.5 3q-118 0 -177.5 -63.5t-59.5 -214.5
q0 -105 24.5 -163.5t67.5 -82t101 -23.5zM1332 0v239l511 630v-65h-501v293h912v-238l-511 -631v66h521v-294h-932z" />
    <glyph glyph-name="uni01F4" unicode="&#x1f4;" horiz-adv-x="1455" 
d="M953 -19q-294 0 -488.5 83t-291.5 250.5t-97 421.5q0 250 100 420t296 257t485 87q87 0 171 -9t163 -27v-313q-74 16 -148 24.5t-151 8.5q-182 0 -295.5 -46t-167 -146t-53.5 -262q0 -150 49 -246.5t148 -143t249 -46.5q57 0 116 4.5t107 12.5l-165 -142v551h356v-705
q-96 -15 -192.5 -24.5t-190.5 -9.5zM655 1590l182 310h394l-237 -310h-339z" />
    <glyph glyph-name="uni01F5" unicode="&#x1f5;" horiz-adv-x="1266" 
d="M522 -460q-91 0 -189.5 10t-193.5 33v291q95 -24 185.5 -36t166.5 -12q155 0 223.5 54.5t68.5 177.5v60h-17q-47 -58 -117 -90t-161 -32q-112 0 -209.5 57.5t-158 175t-60.5 298.5q0 279 159.5 433.5t487.5 154.5q75 0 155 -7.5t156.5 -22t140.5 -35.5v-921
q0 -309 -156.5 -449t-480.5 -140zM637 299q39 0 77.5 11t68.5 33v479q-23 5 -51 8t-59 3q-113 0 -174 -63t-61 -212q0 -100 24 -156.5t68.5 -79.5t106.5 -23zM487 1226l230 390h397l-283 -390h-344z" />
    <glyph glyph-name="Aringacute" unicode="&#x1fa;" horiz-adv-x="1497" 
d="M8 0l459 1480h563l458 -1480h-376l-384 1315h36l-383 -1315h-373zM361 365l81 302h611l80 -302h-772zM748 1576q-96 0 -159 60.5t-63 154.5t63 154.5t159 60.5t159 -60.5t63 -154.5t-63 -154.5t-159 -60.5zM748 1702q38 0 61.5 24.5t23.5 64.5q0 41 -23.5 65t-61.5 24
q-37 0 -61 -24t-24 -65q0 -40 24 -64.5t61 -24.5zM906 1853l-162 102l139 174h266z" />
    <glyph glyph-name="aringacute" unicode="&#x1fb;" horiz-adv-x="1149" 
d="M417 -21q-173 0 -268.5 90.5t-95.5 233.5q0 159 112 249t364 105l208 14l42 -202l-209 -14q-78 -5 -113 -34.5t-35 -80.5q0 -49 31.5 -76t90.5 -27q34 0 70.5 10t67.5 35v372q0 66 -22 105t-74 56t-141 17q-64 0 -144.5 -10.5t-153.5 -31.5v279q85 23 184 34.5t184 11.5
q187 0 305 -45.5t173.5 -152t55.5 -288.5v-629h-308l-26 105h-17q-47 -67 -120.5 -96.5t-160.5 -29.5zM571 1220q-96 0 -159 61t-63 154q0 94 63 154.5t159 60.5t159 -60.5t63 -154.5q0 -93 -63 -154t-159 -61zM571 1347q38 0 61.5 24t23.5 64q0 42 -23.5 65.5t-61.5 23.5
q-37 0 -61 -23.5t-24 -65.5q0 -40 24 -64t61 -24zM728 1498l-162 101l140 181h267z" />
    <glyph glyph-name="AEacute" unicode="&#x1fc;" horiz-adv-x="2063" 
d="M8 0l460 1480h586v-304h-324l-346 -1176h-376zM362 364l81 304h612v-304h-693zM991 0l-114 1480h1104v-304h-711l76 -872h645v-304h-1000zM1127 604v304h751v-304h-751zM892 1590l182 310h394l-237 -310h-339z" />
    <glyph glyph-name="aeacute" unicode="&#x1fd;" horiz-adv-x="1744" 
d="M1302 -21q-216 0 -352 59.5t-200 186t-64 325.5l59 27q0 163 56 284t163 187.5t257 66.5q149 0 255 -66.5t162.5 -195t56.5 -315.5v-96h-708v211h416l-57 -19q0 93 -16 147.5t-48.5 77.5t-82.5 23t-83 -23t-50 -77t-17 -146v-154q0 -83 25.5 -131.5t91.5 -69.5t188 -21
q65 0 136.5 8.5t141.5 22.5v-278q-91 -18 -171.5 -26t-158.5 -8zM452 -21q-133 0 -221.5 41t-133 114.5t-44.5 172.5q0 103 49.5 181t156 121.5t276.5 43.5h216v-203h-177q-56 0 -89 -14.5t-48 -40t-15 -58.5q0 -48 32.5 -74t93.5 -26q52 0 98 19.5t94 70.5l103 -169
q-82 -99 -182.5 -139t-208.5 -40zM686 550v101q0 68 -24 107.5t-77.5 56.5t-141.5 17q-62 0 -142 -10.5t-153 -31.5v279q91 24 180 35t170 11q174 0 283 -48.5t159.5 -153.5t50.5 -274v-92zM702 1226l230 390h397l-283 -390h-344z" />
    <glyph glyph-name="Oslashacute" unicode="&#x1fe;" horiz-adv-x="1606" 
d="M341 -3h-251l1172 1484h252zM803 -20q-220 0 -383.5 84t-253.5 253t-90 423t90 423t253.5 253t383.5 84q221 0 384.5 -84.5t253.5 -253.5t90 -422t-90 -422t-254 -253.5t-384 -84.5zM803 288q107 0 181.5 46t113.5 144t39 255q0 164 -39.5 265t-114.5 147.5t-180 46.5
t-179.5 -45.5t-114.5 -143.5t-40 -256q0 -165 39.5 -266t114 -147t180.5 -46zM631 1590l182 310h394l-237 -310h-339z" />
    <glyph glyph-name="oslashacute" unicode="&#x1ff;" horiz-adv-x="1238" 
d="M1033 964q70 -71 107 -176t37 -241q0 -188 -67.5 -314.5t-193 -190t-297.5 -63.5q-75 0 -141 12.5t-122 38.5l-36 -49h-229l111 154q-68 71 -105 173.5t-37 236.5q0 189 66 315.5t191 190.5t302 64q74 0 139 -12t120 -37l37 51h228zM619 838q-61 0 -104 -25.5t-65.5 -89
t-22.5 -176.5q0 -32 4 -59.5t12 -48.5l268 371q-19 15 -42 21.5t-50 6.5zM619 255q62 0 104.5 26t65 89t22.5 175q0 36 -4 65.5t-12 53.5l-272 -377q19 -17 43.5 -24.5t52.5 -7.5zM444 1226l230 390h397l-283 -390h-344z" />
    <glyph glyph-name="uni0200" unicode="&#x200;" horiz-adv-x="1497" 
d="M8 0l459 1480h563l458 -1480h-376l-384 1315h36l-383 -1315h-373zM361 365l81 302h611l80 -302h-772zM825 1590l-157 310h294l139 -310h-276zM395 1590l-158 310h294l140 -310h-276z" />
    <glyph glyph-name="uni0201" unicode="&#x201;" horiz-adv-x="1149" 
d="M417 -21q-173 0 -268.5 90.5t-95.5 233.5q0 159 112 249t364 105l208 14l42 -202l-209 -14q-78 -5 -113 -34.5t-35 -80.5q0 -49 31.5 -76t90.5 -27q34 0 70.5 10t67.5 35v372q0 66 -22 105t-74 56t-141 17q-64 0 -144.5 -10.5t-153.5 -31.5v279q85 23 184 34.5t184 11.5
q187 0 305 -45.5t173.5 -152t55.5 -288.5v-629h-308l-26 105h-17q-47 -67 -120.5 -96.5t-160.5 -29.5zM648 1226l-168 390h295l149 -390h-276zM218 1226l-168 390h294l150 -390h-276z" />
    <glyph glyph-name="uni0202" unicode="&#x202;" horiz-adv-x="1497" 
d="M8 0l459 1480h563l458 -1480h-376l-384 1315h36l-383 -1315h-373zM361 365l81 302h611l80 -302h-772zM342 1594q12 92 60 160.5t134 106t212 37.5t212 -38t134 -106t60 -160h-227q-12 62 -54.5 94t-124.5 32t-124.5 -32t-54.5 -94h-227z" />
    <glyph glyph-name="uni0203" unicode="&#x203;" horiz-adv-x="1149" 
d="M417 -21q-173 0 -268.5 90.5t-95.5 233.5q0 159 112 249t364 105l208 14l42 -202l-209 -14q-78 -5 -113 -34.5t-35 -80.5q0 -49 31.5 -76t90.5 -27q34 0 70.5 10t67.5 35v372q0 66 -22 105t-74 56t-141 17q-64 0 -144.5 -10.5t-153.5 -31.5v279q85 23 184 34.5t184 11.5
q187 0 305 -45.5t173.5 -152t55.5 -288.5v-629h-308l-26 105h-17q-47 -67 -120.5 -96.5t-160.5 -29.5zM184 1254q10 179 110 269.5t277 90.5q174 0 276 -90.5t111 -269.5h-224q-7 90 -47.5 133t-115.5 43q-78 0 -117 -43t-46 -133h-224z" />
    <glyph glyph-name="uni0204" unicode="&#x204;" horiz-adv-x="1286" 
d="M120 0v1480h1084v-304h-705v-872h715v-304h-1094zM345 604v304h756v-304h-756zM761 1590l-157 310h294l139 -310h-276zM331 1590l-158 310h294l140 -310h-276z" />
    <glyph glyph-name="uni0205" unicode="&#x205;" horiz-adv-x="1138" 
d="M693 -21q-220 0 -360 59.5t-206.5 185.5t-66.5 326q0 177 61.5 304t180.5 194t291 67q164 0 274 -67.5t165.5 -197t55.5 -313.5v-95h-812v211h520l-56 -18q0 92 -16 146.5t-50 77t-85 22.5q-52 0 -86 -22.5t-51 -76.5t-17 -146v-154q0 -83 25.5 -131.5t93 -69.5
t193.5 -21q65 0 136.5 8.5t141.5 22.5v-278q-90 -18 -171 -26t-161 -8zM663 1226l-168 390h295l149 -390h-276zM233 1226l-168 390h294l150 -390h-276z" />
    <glyph glyph-name="uni0206" unicode="&#x206;" horiz-adv-x="1286" 
d="M120 0v1480h1084v-304h-705v-872h715v-304h-1094zM345 604v304h756v-304h-756zM278 1594q12 92 60 160.5t134 106t212 37.5t212 -38t134 -106t60 -160h-227q-12 62 -54.5 94t-124.5 32t-124.5 -32t-54.5 -94h-227z" />
    <glyph glyph-name="uni0207" unicode="&#x207;" horiz-adv-x="1138" 
d="M693 -21q-220 0 -360 59.5t-206.5 185.5t-66.5 326q0 177 61.5 304t180.5 194t291 67q164 0 274 -67.5t165.5 -197t55.5 -313.5v-95h-812v211h520l-56 -18q0 92 -16 146.5t-50 77t-85 22.5q-52 0 -86 -22.5t-51 -76.5t-17 -146v-154q0 -83 25.5 -131.5t93 -69.5
t193.5 -21q65 0 136.5 8.5t141.5 22.5v-278q-90 -18 -171 -26t-161 -8zM199 1254q10 179 110 269.5t277 90.5q174 0 276 -90.5t111 -269.5h-224q-7 90 -47.5 133t-115.5 43q-78 0 -117 -43t-46 -133h-224z" />
    <glyph glyph-name="uni0208" unicode="&#x208;" horiz-adv-x="624" 
d="M120 0v1480h384v-1480h-384zM389 1590l-157 310h294l139 -310h-276zM-41 1590l-158 310h294l140 -310h-276z" />
    <glyph glyph-name="uni0209" unicode="&#x209;" horiz-adv-x="591" 
d="M107 0v1097h377v-1097h-377zM373 1226l-168 390h295l149 -390h-276zM-57 1226l-168 390h294l150 -390h-276z" />
    <glyph glyph-name="uni020A" unicode="&#x20a;" horiz-adv-x="624" 
d="M120 0v1480h384v-1480h-384zM-94 1594q12 92 60 160.5t134 106t212 37.5t212 -38t134 -106t60 -160h-227q-12 62 -54.5 94t-124.5 32t-124.5 -32t-54.5 -94h-227z" />
    <glyph glyph-name="uni020B" unicode="&#x20b;" horiz-adv-x="591" 
d="M107 0v1097h377v-1097h-377zM-91 1254q10 179 110 269.5t277 90.5q174 0 276 -90.5t111 -269.5h-224q-7 90 -47.5 133t-115.5 43q-78 0 -117 -43t-46 -133h-224z" />
    <glyph glyph-name="uni020C" unicode="&#x20c;" horiz-adv-x="1606" 
d="M803 -20q-220 0 -383.5 84t-253.5 253t-90 423t90 423t253.5 253t383.5 84q221 0 384.5 -84.5t253.5 -253.5t90 -422t-90 -422t-254 -253.5t-384 -84.5zM803 288q107 0 181.5 46t113.5 144t39 255q0 164 -39.5 265t-114.5 147.5t-180 46.5t-179.5 -45.5t-114.5 -143.5
t-40 -256q0 -165 39.5 -266t114 -147t180.5 -46zM880 1590l-157 310h294l139 -310h-276zM450 1590l-158 310h294l140 -310h-276z" />
    <glyph glyph-name="uni020D" unicode="&#x20d;" horiz-adv-x="1238" 
d="M619 -21q-172 0 -297.5 63.5t-193.5 189.5t-68 313q0 189 66 315.5t191 190.5t302 64t302 -64.5t190.5 -191t65.5 -312.5q0 -188 -67.5 -314.5t-193 -190t-297.5 -63.5zM619 260q58 0 98.5 25.5t61 87.5t20.5 172q0 112 -21 174.5t-61.5 88t-97.5 25.5q-58 0 -98.5 -25
t-61.5 -87.5t-21 -173.5t21 -173.5t61 -88t99 -25.5zM696 1226l-168 390h295l149 -390h-276zM266 1226l-168 390h294l150 -390h-276z" />
    <glyph glyph-name="uni020E" unicode="&#x20e;" horiz-adv-x="1606" 
d="M803 -20q-220 0 -383.5 84t-253.5 253t-90 423t90 423t253.5 253t383.5 84q221 0 384.5 -84.5t253.5 -253.5t90 -422t-90 -422t-254 -253.5t-384 -84.5zM803 288q107 0 181.5 46t113.5 144t39 255q0 164 -39.5 265t-114.5 147.5t-180 46.5t-179.5 -45.5t-114.5 -143.5
t-40 -256q0 -165 39.5 -266t114 -147t180.5 -46zM397 1594q12 92 60 160.5t134 106t212 37.5t212 -38t134 -106t60 -160h-227q-12 62 -54.5 94t-124.5 32t-124.5 -32t-54.5 -94h-227z" />
    <glyph glyph-name="uni020F" unicode="&#x20f;" horiz-adv-x="1238" 
d="M619 -21q-172 0 -297.5 63.5t-193.5 189.5t-68 313q0 189 66 315.5t191 190.5t302 64t302 -64.5t190.5 -191t65.5 -312.5q0 -188 -67.5 -314.5t-193 -190t-297.5 -63.5zM619 260q58 0 98.5 25.5t61 87.5t20.5 172q0 112 -21 174.5t-61.5 88t-97.5 25.5q-58 0 -98.5 -25
t-61.5 -87.5t-21 -173.5t21 -173.5t61 -88t99 -25.5zM232 1254q10 179 110 269.5t277 90.5q174 0 276 -90.5t111 -269.5h-224q-7 90 -47.5 133t-115.5 43q-78 0 -117 -43t-46 -133h-224z" />
    <glyph glyph-name="uni0210" unicode="&#x210;" horiz-adv-x="1403" 
d="M120 0v1444q70 16 151.5 28.5t167 19.5t168.5 7q329 0 496.5 -119t167.5 -370q0 -162 -78 -271.5t-220.5 -165t-336.5 -55.5q-38 0 -71 1.5t-68 2.5v-522h-377zM980 0l-460 680h408l469 -680h-417zM644 801q134 0 201 48t67 160q0 73 -29.5 120t-87.5 69t-145 22
q-43 0 -81 -3.5t-72 -10.5v-397q25 -3 48.5 -5t48 -2.5t50.5 -0.5zM771 1590l-157 310h294l139 -310h-276zM341 1590l-158 310h294l140 -310h-276z" />
    <glyph glyph-name="uni0211" unicode="&#x211;" horiz-adv-x="841" 
d="M107 0v1097h307l29 -140h17q43 83 116 120t164 37q24 0 48 -2.5t42 -5.5v-339q-26 6 -56.5 7.5t-56.5 1.5q-45 0 -89.5 -10t-82.5 -29.5t-62 -47.5v-689h-376zM545 1226l-168 390h295l149 -390h-276zM115 1226l-168 390h294l150 -390h-276z" />
    <glyph glyph-name="uni0212" unicode="&#x212;" horiz-adv-x="1403" 
d="M120 0v1444q70 16 151.5 28.5t167 19.5t168.5 7q329 0 496.5 -119t167.5 -370q0 -162 -78 -271.5t-220.5 -165t-336.5 -55.5q-38 0 -71 1.5t-68 2.5v-522h-377zM980 0l-460 680h408l469 -680h-417zM644 801q134 0 201 48t67 160q0 73 -29.5 120t-87.5 69t-145 22
q-43 0 -81 -3.5t-72 -10.5v-397q25 -3 48.5 -5t48 -2.5t50.5 -0.5zM288 1594q12 92 60 160.5t134 106t212 37.5t212 -38t134 -106t60 -160h-227q-12 62 -54.5 94t-124.5 32t-124.5 -32t-54.5 -94h-227z" />
    <glyph glyph-name="uni0213" unicode="&#x213;" horiz-adv-x="841" 
d="M107 0v1097h307l29 -140h17q43 83 116 120t164 37q24 0 48 -2.5t42 -5.5v-339q-26 6 -56.5 7.5t-56.5 1.5q-45 0 -89.5 -10t-82.5 -29.5t-62 -47.5v-689h-376zM81 1254q10 179 110 269.5t277 90.5q174 0 276 -90.5t111 -269.5h-224q-7 90 -47.5 133t-115.5 43
q-78 0 -117 -43t-46 -133h-224z" />
    <glyph glyph-name="uni0214" unicode="&#x214;" horiz-adv-x="1523" 
d="M766 -20q-226 0 -370 72t-213 217t-69 364v847h384v-884q0 -161 67.5 -232t200.5 -71q132 0 199 71t67 232v884h377v-847q0 -219 -68 -364t-210.5 -217t-364.5 -72zM843 1590l-157 310h294l139 -310h-276zM413 1590l-158 310h294l140 -310h-276z" />
    <glyph glyph-name="uni0215" unicode="&#x215;" horiz-adv-x="1245" 
d="M487 -19q-112 0 -199.5 44.5t-137.5 142t-50 257.5v672h376v-645q0 -84 34 -116t89 -32q29 0 59 8t57 23.5t46 37.5v724h377v-1097h-310l-25 107h-15q-60 -62 -136.5 -94t-164.5 -32zM696 1226l-168 390h295l149 -390h-276zM266 1226l-168 390h294l150 -390h-276z" />
    <glyph glyph-name="uni0216" unicode="&#x216;" horiz-adv-x="1523" 
d="M766 -20q-226 0 -370 72t-213 217t-69 364v847h384v-884q0 -161 67.5 -232t200.5 -71q132 0 199 71t67 232v884h377v-847q0 -219 -68 -364t-210.5 -217t-364.5 -72zM360 1594q12 92 60 160.5t134 106t212 37.5t212 -38t134 -106t60 -160h-227q-12 62 -54.5 94t-124.5 32
t-124.5 -32t-54.5 -94h-227z" />
    <glyph glyph-name="uni0217" unicode="&#x217;" horiz-adv-x="1245" 
d="M487 -19q-112 0 -199.5 44.5t-137.5 142t-50 257.5v672h376v-645q0 -84 34 -116t89 -32q29 0 59 8t57 23.5t46 37.5v724h377v-1097h-310l-25 107h-15q-60 -62 -136.5 -94t-164.5 -32zM232 1254q10 179 110 269.5t277 90.5q174 0 276 -90.5t111 -269.5h-224
q-7 90 -47.5 133t-115.5 43q-78 0 -117 -43t-46 -133h-224z" />
    <glyph glyph-name="uni0218" unicode="&#x218;" horiz-adv-x="1186" 
d="M518 -20q-114 0 -225.5 17.5t-204.5 47.5v309q62 -21 136 -35.5t149.5 -23t142.5 -8.5q136 0 188.5 37t52.5 100q0 53 -37.5 84.5t-149.5 60.5l-122 31q-197 49 -298.5 155t-101.5 279q0 220 161 343t487 123q106 0 198.5 -12t163.5 -32v-309q-69 22 -159 34t-180 12
q-112 0 -175 -18t-89 -49.5t-26 -70.5q0 -49 32.5 -78.5t127.5 -55.5l123 -31q146 -36 240.5 -94.5t140 -144t45.5 -201.5q0 -145 -74 -250.5t-212.5 -162.5t-333.5 -57zM493 -508q37 69 51.5 116.5t14.5 99.5l72 -72h-26q-111 0 -158 34t-47 91q0 58 48.5 91t155.5 33
q109 0 157.5 -43t48.5 -121q0 -57 -23.5 -120.5t-61.5 -108.5h-232z" />
    <glyph glyph-name="uni0219" unicode="&#x219;" horiz-adv-x="1006" 
d="M452 -21q-99 0 -193 12.5t-175 36.5v272q80 -24 173 -37.5t188 -13.5q97 0 134 22t37 59q0 29 -16 43.5t-58 22.5l-189 33q-156 28 -228.5 107.5t-72.5 215.5q0 165 134.5 264t411.5 99q84 0 164 -9.5t141 -26.5v-272q-63 18 -139 27.5t-155 9.5q-86 0 -131 -12
t-61.5 -31t-16.5 -41q0 -24 17 -39t58 -23l189 -33q144 -26 222 -98.5t78 -223.5q0 -169 -134.5 -266.5t-377.5 -97.5zM395 -508q37 69 51.5 116.5t14.5 99.5l72 -72h-26q-111 0 -158 34t-47 91q0 58 48.5 91t155.5 33q109 0 157.5 -43t48.5 -121q0 -57 -23.5 -120.5
t-61.5 -108.5h-232z" />
    <glyph glyph-name="uni021A" unicode="&#x21a;" horiz-adv-x="1325" 
d="M470 0v1163h-457v317h1299v-317h-457v-1163h-385zM551 -508q37 69 51.5 116.5t14.5 99.5l72 -72h-26q-111 0 -158 34t-47 91q0 58 48.5 91t155.5 33q109 0 157.5 -43t48.5 -121q0 -57 -23.5 -120.5t-61.5 -108.5h-232z" />
    <glyph glyph-name="uni021B" unicode="&#x21b;" horiz-adv-x="877" 
d="M621 -21q-210 0 -322 104t-112 326v688l70 383h307v-1012q0 -103 37 -142t126 -39q24 0 50 3t59 8v-294q-44 -10 -102 -17.5t-113 -7.5zM19 804v293h814v-293h-814zM400 -508q37 69 51.5 116.5t14.5 99.5l72 -72h-26q-111 0 -158 34t-47 91q0 58 48.5 91t155.5 33
q109 0 157.5 -43t48.5 -121q0 -57 -23.5 -120.5t-61.5 -108.5h-232z" />
    <glyph glyph-name="uni022A" unicode="&#x22a;" horiz-adv-x="1606" 
d="M803 -20q-220 0 -383.5 84t-253.5 253t-90 423t90 423t253.5 253t383.5 84q221 0 384.5 -84.5t253.5 -253.5t90 -422t-90 -422t-254 -253.5t-384 -84.5zM803 288q107 0 181.5 46t113.5 144t39 255q0 164 -39.5 265t-114.5 147.5t-180 46.5t-179.5 -45.5t-114.5 -143.5
t-40 -256q0 -165 39.5 -266t114 -147t180.5 -46zM1069 1586q-98 0 -147.5 43.5t-49.5 120.5q0 78 49.5 121t147.5 43t147.5 -43t49.5 -121q0 -77 -49.5 -120.5t-147.5 -43.5zM537 1586q-98 0 -147.5 43.5t-49.5 120.5q0 78 49.5 121t147.5 43t147.5 -43t49.5 -121
q0 -77 -49.5 -120.5t-147.5 -43.5zM412 2020v223h782v-223h-782z" />
    <glyph glyph-name="uni022B" unicode="&#x22b;" horiz-adv-x="1238" 
d="M619 -21q-172 0 -297.5 63.5t-193.5 189.5t-68 313q0 189 66 315.5t191 190.5t302 64t302 -64.5t190.5 -191t65.5 -312.5q0 -188 -67.5 -314.5t-193 -190t-297.5 -63.5zM619 260q58 0 98.5 25.5t61 87.5t20.5 172q0 112 -21 174.5t-61.5 88t-97.5 25.5q-58 0 -98.5 -25
t-61.5 -87.5t-21 -173.5t21 -173.5t61 -88t99 -25.5zM874 1235q-96 0 -146.5 49t-50.5 135t50.5 135t146.5 49q97 0 147.5 -49t50.5 -135t-50.5 -135t-147.5 -49zM364 1235q-96 0 -147 49t-51 135t51 135t147 49t146.5 -49t50.5 -135t-50.5 -135t-146.5 -49zM247 1729v223
h744v-223h-744z" />
    <glyph glyph-name="uni022C" unicode="&#x22c;" horiz-adv-x="1606" 
d="M803 -20q-220 0 -383.5 84t-253.5 253t-90 423t90 423t253.5 253t383.5 84q221 0 384.5 -84.5t253.5 -253.5t90 -422t-90 -422t-254 -253.5t-384 -84.5zM803 288q107 0 181.5 46t113.5 144t39 255q0 164 -39.5 265t-114.5 147.5t-180 46.5t-179.5 -45.5t-114.5 -143.5
t-40 -256q0 -165 39.5 -266t114 -147t180.5 -46zM982 1601q-56 0 -103.5 13t-93.5 27q-40 14 -81 25t-86 11q-65 0 -113 -17t-97 -53v210q43 39 94 57t122 18q57 0 104.5 -13t92.5 -28q41 -13 82 -25t85 -12q65 0 113 17.5t97 53.5v-211q-42 -38 -93.5 -55.5t-122.5 -17.5z
M412 2003v223h782v-223h-782z" />
    <glyph glyph-name="uni022D" unicode="&#x22d;" horiz-adv-x="1238" 
d="M619 -21q-172 0 -297.5 63.5t-193.5 189.5t-68 313q0 189 66 315.5t191 190.5t302 64t302 -64.5t190.5 -191t65.5 -312.5q0 -188 -67.5 -314.5t-193 -190t-297.5 -63.5zM619 260q58 0 98.5 25.5t61 87.5t20.5 172q0 112 -21 174.5t-61.5 88t-97.5 25.5q-58 0 -98.5 -25
t-61.5 -87.5t-21 -173.5t21 -173.5t61 -88t99 -25.5zM782 1263q-50 0 -94.5 16.5t-86.5 34.5q-38 18 -75.5 31.5t-76.5 13.5q-59 0 -106 -20.5t-96 -67.5v230q81 81 209 81q50 0 94.5 -16t86.5 -35q38 -17 75.5 -31t76.5 -14q59 0 106 21.5t96 67.5v-231q-81 -81 -209 -81z
M247 1725v223h744v-223h-744z" />
    <glyph glyph-name="uni0230" unicode="&#x230;" horiz-adv-x="1606" 
d="M803 -20q-220 0 -383.5 84t-253.5 253t-90 423t90 423t253.5 253t383.5 84q221 0 384.5 -84.5t253.5 -253.5t90 -422t-90 -422t-254 -253.5t-384 -84.5zM803 288q107 0 181.5 46t113.5 144t39 255q0 164 -39.5 265t-114.5 147.5t-180 46.5t-179.5 -45.5t-114.5 -143.5
t-40 -256q0 -165 39.5 -266t114 -147t180.5 -46zM803 1586q-113 0 -169.5 43.5t-56.5 120.5q0 79 56.5 121.5t169.5 42.5t169.5 -42.5t56.5 -121.5q0 -77 -56.5 -120.5t-169.5 -43.5zM412 2003v223h782v-223h-782z" />
    <glyph glyph-name="uni0231" unicode="&#x231;" horiz-adv-x="1238" 
d="M619 -21q-172 0 -297.5 63.5t-193.5 189.5t-68 313q0 189 66 315.5t191 190.5t302 64t302 -64.5t190.5 -191t65.5 -312.5q0 -188 -67.5 -314.5t-193 -190t-297.5 -63.5zM619 260q58 0 98.5 25.5t61 87.5t20.5 172q0 112 -21 174.5t-61.5 88t-97.5 25.5q-58 0 -98.5 -25
t-61.5 -87.5t-21 -173.5t21 -173.5t61 -88t99 -25.5zM619 1229q-117 0 -172.5 49.5t-55.5 139.5q0 92 55.5 141.5t172.5 49.5q118 0 173 -49.5t55 -141.5q0 -90 -55 -139.5t-173 -49.5zM247 1707v223h744v-223h-744z" />
    <glyph glyph-name="uni0232" unicode="&#x232;" horiz-adv-x="1325" 
d="M473 0v769l77 -280l-610 991h406l380 -630h-105l376 630h376l-593 -991l77 275v-764h-384zM272 1626v223h782v-223h-782z" />
    <glyph glyph-name="uni0233" unicode="&#x233;" horiz-adv-x="1205" 
d="M318 -440l152 440l131 302l242 795h369l-527 -1537h-367zM367 0l-374 1097h392l330 -1097h-348zM231 1308v223h744v-223h-744z" />
    <glyph glyph-name="uni0237" unicode="&#x237;" horiz-adv-x="591" 
d="M200 -474l-242 160q56 75 88.5 148t46.5 156t14 188v919h377v-904q0 -126 -27 -237t-89.5 -216.5t-167.5 -213.5z" />
    <glyph glyph-name="uni0259" unicode="&#x259;" horiz-adv-x="1138" 
d="M445 1118q220 0 360 -59.5t206.5 -185.5t66.5 -326q0 -177 -61.5 -304t-180.5 -194t-291 -67q-164 0 -274 67.5t-165.5 197t-55.5 313.5v95h812v-211h-520l56 18q0 -92 16 -146.5t50 -77t85 -22.5q52 0 86 22.5t51 76.5t17 146v154q0 83 -25.5 131.5t-93 69.5t-193.5 21
q-65 0 -136.5 -8.5t-141.5 -22.5v278q90 18 171 26t161 8z" />
    <glyph glyph-name="uni02BB" unicode="&#x2bb;" horiz-adv-x="1173" 
d="M587 1232q-108 0 -157 43t-49 121q0 57 24 121t61 109h233q-37 -69 -51.5 -116.5t-14.5 -100.5l-72 72h25q112 0 159 -33.5t47 -91.5q0 -57 -48.5 -90.5t-156.5 -33.5z" />
    <glyph glyph-name="uni02BC" unicode="&#x2bc;" horiz-adv-x="1173" 
d="M679 1232q38 69 52 116.5t14 100.5l73 -72h-26q-111 0 -158.5 34t-47.5 91q0 58 49 91t156 33q109 0 157.5 -43t48.5 -121q0 -57 -24 -121t-61 -109h-233z" />
    <glyph glyph-name="uni02BE" unicode="&#x2be;" horiz-adv-x="1173" 
d="M586 1220v127q38 0 61.5 24t23.5 65t-23.5 64.5t-61.5 23.5v126q97 0 159.5 -60.5t62.5 -154.5q0 -93 -62.5 -154t-159.5 -61z" />
    <glyph glyph-name="uni02BF" unicode="&#x2bf;" horiz-adv-x="1173" 
d="M586 1220q-96 0 -159 61t-63 154q0 94 63 154.5t159 60.5v-126q-37 0 -61 -23.5t-24 -64.5t24 -65t61 -24v-127z" />
    <glyph glyph-name="circumflex" unicode="&#x2c6;" horiz-adv-x="1173" 
d="M212 1226l236 390h304l236 -390h-264l-150 264h52l-150 -264h-264z" />
    <glyph glyph-name="caron" unicode="&#x2c7;" horiz-adv-x="1173" 
d="M448 1226l-237 390h265l150 -264h-52l150 264h265l-237 -390h-304z" />
    <glyph glyph-name="uni02C8" unicode="&#x2c8;" horiz-adv-x="1200" 
d="M518 1218v400h164v-400h-164z" />
    <glyph glyph-name="uni02C9" unicode="&#x2c9;" horiz-adv-x="1173" 
d="M214 1308v223h744v-223h-744z" />
    <glyph glyph-name="uni02CA" unicode="&#x2ca;" horiz-adv-x="1173" 
d="M405 1226l230 390h416l-283 -390h-363z" />
    <glyph glyph-name="uni02CB" unicode="&#x2cb;" horiz-adv-x="1173" 
d="M405 1226l-283 390h416l230 -390h-363z" />
    <glyph glyph-name="uni02CC" unicode="&#x2cc;" horiz-adv-x="1200" 
d="M518 -440v400h164v-400h-164z" />
    <glyph glyph-name="breve" unicode="&#x2d8;" horiz-adv-x="1173" 
d="M600 1235q-175 0 -276 91t-111 269h224q8 -88 48 -131t115 -43q77 0 116.5 43t46.5 131h224q-9 -178 -110 -269t-277 -91z" />
    <glyph glyph-name="dotaccent" unicode="&#x2d9;" horiz-adv-x="1173" 
d="M600 1229q-117 0 -172.5 49.5t-55.5 139.5q0 92 55.5 141.5t172.5 49.5q118 0 173 -49.5t55 -141.5q0 -90 -55 -139.5t-173 -49.5z" />
    <glyph glyph-name="ring" unicode="&#x2da;" horiz-adv-x="1173" 
d="M600 1220q-96 0 -159 61t-63 154q0 94 63 154.5t159 60.5q97 0 159.5 -60.5t62.5 -154.5q0 -93 -62.5 -154t-159.5 -61zM600 1347q38 0 61.5 24t23.5 65t-23.5 64.5t-61.5 23.5q-37 0 -61 -23.5t-24 -64.5t24 -65t61 -24z" />
    <glyph glyph-name="ogonek" unicode="&#x2db;" horiz-adv-x="1173" 
d="M447 -452q-138 0 -208 59t-70 158q0 64 30 120t102 104t199 88l100 -77q-87 -34 -134 -67.5t-66 -69.5t-19 -74q0 -44 30 -70t90 -26q26 0 56.5 7t65.5 21v-141q-36 -14 -77.5 -23t-98.5 -9z" />
    <glyph glyph-name="tilde" unicode="&#x2dc;" horiz-adv-x="1173" 
d="M763 1263q-50 0 -94.5 16.5t-86.5 34.5q-38 18 -75.5 31.5t-76.5 13.5q-59 0 -106 -20.5t-96 -67.5v230q81 81 209 81q50 0 94.5 -16t86.5 -35q38 -17 75.5 -31t76.5 -14q59 0 106 21.5t96 67.5v-231q-81 -81 -209 -81z" />
    <glyph glyph-name="hungarumlaut" unicode="&#x2dd;" horiz-adv-x="1173" 
d="M677 1226l150 390h294l-168 -390h-276zM247 1226l150 390h294l-168 -390h-276z" />
    <glyph glyph-name="gravecomb" unicode="&#x300;" 
d="M428 1226l-283 390h397l230 -390h-344z" />
    <glyph glyph-name="acutecomb" unicode="&#x301;" 
d="M428 1226l230 390h397l-283 -390h-344z" />
    <glyph glyph-name="uni0302" unicode="&#x302;" 
d="M212 1226l236 390h304l236 -390h-264l-150 264h52l-150 -264h-264z" />
    <glyph glyph-name="tildecomb" unicode="&#x303;" 
d="M763 1263q-50 0 -94.5 16.5t-86.5 34.5q-38 18 -75.5 31.5t-76.5 13.5q-59 0 -106 -20.5t-96 -67.5v230q81 81 209 81q50 0 94.5 -16t86.5 -35q38 -17 75.5 -31t76.5 -14q59 0 106 21.5t96 67.5v-231q-81 -81 -209 -81z" />
    <glyph glyph-name="uni0304" unicode="&#x304;" 
d="M228 1308v223h744v-223h-744z" />
    <glyph glyph-name="uni0306" unicode="&#x306;" 
d="M600 1235q-175 0 -276 91t-111 269h224q8 -88 48 -131t115 -43q77 0 116.5 43t46.5 131h224q-9 -178 -110 -269t-277 -91z" />
    <glyph glyph-name="uni0307" unicode="&#x307;" 
d="M600 1229q-117 0 -172.5 49.5t-55.5 139.5q0 92 55.5 141.5t172.5 49.5q118 0 173 -49.5t55 -141.5q0 -90 -55 -139.5t-173 -49.5z" />
    <glyph glyph-name="uni0308" unicode="&#x308;" 
d="M855 1235q-96 0 -146.5 49t-50.5 135t50.5 135t146.5 49q97 0 147.5 -49t50.5 -135t-50.5 -135t-147.5 -49zM345 1235q-96 0 -147 49t-51 135t51 135t147 49t146.5 -49t50.5 -135t-50.5 -135t-146.5 -49z" />
    <glyph glyph-name="hookabovecomb" unicode="&#x309;" 
d="M509 1226q3 56 26 88.5t51.5 53t50 37.5t21.5 41q0 22 -21.5 32t-69.5 10q-39 0 -81 -5.5t-88 -18.5v138q40 13 96 19.5t101 6.5q131 0 193.5 -38.5t62.5 -119.5q0 -53 -22 -83t-52 -51t-55 -45t-30 -65h-183z" />
    <glyph glyph-name="uni030A" unicode="&#x30a;" 
d="M600 1220q-96 0 -159 61t-63 154q0 94 63 154.5t159 60.5q97 0 159.5 -60.5t62.5 -154.5q0 -93 -62.5 -154t-159.5 -61zM600 1347q38 0 61.5 24t23.5 65t-23.5 64.5t-61.5 23.5q-37 0 -61 -23.5t-24 -64.5t24 -65t61 -24z" />
    <glyph glyph-name="uni030B" unicode="&#x30b;" 
d="M677 1226l150 390h294l-168 -390h-276zM247 1226l150 390h294l-168 -390h-276z" />
    <glyph glyph-name="uni030C" unicode="&#x30c;" 
d="M448 1226l-237 390h265l150 -264h-52l150 264h265l-237 -390h-304z" />
    <glyph glyph-name="uni030F" unicode="&#x30f;" 
d="M677 1226l-168 390h295l149 -390h-276zM247 1226l-168 390h294l150 -390h-276z" />
    <glyph glyph-name="uni0311" unicode="&#x311;" 
d="M213 1254q10 179 110 269.5t277 90.5q174 0 276 -90.5t111 -269.5h-224q-7 90 -47.5 133t-115.5 43q-78 0 -117 -43t-46 -133h-224z" />
    <glyph glyph-name="uni0312" unicode="&#x312;" 
d="M601 1232q-109 0 -157.5 43t-48.5 121q0 57 24 121t61 109h232q-37 -69 -51.5 -116.5t-14.5 -100.5l-72 72h26q112 0 158.5 -33.5t46.5 -91.5q0 -57 -48 -90.5t-156 -33.5z" />
    <glyph glyph-name="uni031B" unicode="&#x31b;" 
d="M427 1309v171h117q85 0 130.5 34t45.5 119q0 30 -3.5 63t-12.5 76h233q12 -42 16 -79.5t4 -75.5q0 -106 -42 -174t-116.5 -101t-173.5 -33h-198z" />
    <glyph glyph-name="dotbelowcomb" unicode="&#x323;" 
d="M600 -474q-96 0 -147 48.5t-51 130.5q0 83 51 131.5t147 48.5q97 0 147.5 -48.5t50.5 -131.5q0 -82 -50.5 -130.5t-147.5 -48.5z" />
    <glyph glyph-name="uni0324" unicode="&#x324;" 
d="M855 -483q-96 0 -146.5 49t-50.5 135t50.5 135t146.5 49q97 0 147.5 -49t50.5 -135t-50.5 -135t-147.5 -49zM345 -483q-96 0 -147 49t-51 135t51 135t147 49t146.5 -49t50.5 -135t-50.5 -135t-146.5 -49z" />
    <glyph glyph-name="uni0326" unicode="&#x326;" 
d="M488 -508q37 69 51.5 116.5t14.5 99.5l72 -72h-26q-111 0 -158 34t-47 91q0 58 48.5 91t155.5 33q109 0 157.5 -43t48.5 -121q0 -57 -23.5 -120.5t-61.5 -108.5h-232z" />
    <glyph glyph-name="uni0327" unicode="&#x327;" 
d="M593 -452q-51 0 -98 8t-87 22v139q40 -15 86.5 -22.5t80.5 -7.5q48 0 72.5 15t24.5 51q0 68 -98 68h-50v199h176v-145l-83 50q122 0 185 -50t63 -138q0 -87 -66.5 -138t-205.5 -51z" />
    <glyph glyph-name="uni0328" unicode="&#x328;" 
d="M447 -452q-138 0 -208 59t-70 158q0 64 30 120t102 104t199 88l100 -77q-87 -34 -134 -67.5t-66 -69.5t-19 -74q0 -44 30 -70t90 -26q26 0 56.5 7t65.5 21v-141q-36 -14 -77.5 -23t-98.5 -9z" />
    <glyph glyph-name="uni032E" unicode="&#x32e;" 
d="M600 -470q-180 0 -281 87t-106 241h224q4 -72 44 -108t119 -36t119 36t44 108h224q-5 -154 -105.5 -241t-281.5 -87z" />
    <glyph glyph-name="uni0331" unicode="&#x331;" 
d="M233 -402v221h734v-221h-734z" />
    <glyph glyph-name="uni0394" unicode="&#x394;" horiz-adv-x="1497" 
d="M8 0l459 1480h563l458 -1480h-1480zM421 142l-26 161h703l-26 -161l-344 1172h36z" />
    <glyph glyph-name="uni03A9" unicode="&#x3a9;" horiz-adv-x="1606" 
d="M76 0v296h414l78 -161q-155 54 -265 149.5t-168.5 228t-58.5 296.5q0 219 89.5 373.5t252.5 236t384 81.5q222 0 386 -81.5t253.5 -236t89.5 -373.5q0 -164 -58.5 -296.5t-169 -228t-265.5 -149.5l78 161h415v-296h-636v237q83 81 137 163t79.5 174t25.5 204
q0 140 -38.5 232t-113.5 137t-183 45q-107 0 -181 -45t-113 -137t-39 -232q0 -112 26 -204t79.5 -174t137.5 -163v-237h-636z" />
    <glyph glyph-name="uni03BC" unicode="&#x3bc;" horiz-adv-x="1245" 
d="M569 -19q-81 0 -143 44.5t-97.5 142t-35.5 257.5v244h183v-217q0 -84 34 -116t90 -32q28 0 58 8t57 23.5t46 37.5v724h377v-1097h-310l-25 107h-15q-44 -62 -99.5 -94t-119.5 -32zM100 -440v1536h376v-1536h-376z" />
    <glyph glyph-name="pi" unicode="&#x3c0;" horiz-adv-x="1481" 
d="M1228 -21q-206 0 -316.5 102.5t-110.5 323.5v522h377v-463q0 -102 35.5 -139.5t120.5 -37.5q24 0 49.5 3t56.5 8v-294q-42 -10 -100 -17.5t-112 -7.5zM187 0v929h377v-929h-377zM19 804v293h1327v-293h-1327z" />
    <glyph glyph-name="uni1E08" unicode="&#x1e08;" horiz-adv-x="1269" 
d="M884 -20q-195 0 -345.5 44.5t-253.5 137t-156 235.5t-53 339q0 250 95.5 420t279.5 257t449 87q84 0 163.5 -8t154.5 -25v-314q-68 15 -138.5 23t-146.5 8q-156 0 -257 -45.5t-149.5 -143.5t-48.5 -255q0 -160 48 -257.5t146.5 -142t249.5 -44.5q74 0 148.5 11.5
t147.5 31.5v-313q-70 -21 -157.5 -33.5t-176.5 -12.5zM731 -452q-59 0 -110 8t-96 23v138q45 -15 95.5 -22.5t91.5 -7.5q58 0 87.5 15t29.5 51t-30 52t-88 16h-50v199h175v-145l-81 50q134 0 200.5 -48.5t66.5 -136.5t-70.5 -140t-220.5 -52zM598 1590l182 310h394
l-237 -310h-339z" />
    <glyph glyph-name="uni1E09" unicode="&#x1e09;" horiz-adv-x="993" 
d="M660 -21q-194 0 -327.5 63t-203 189t-69.5 315q0 192 74.5 318t215 188.5t340.5 62.5q70 0 132.5 -6t119.5 -19v-294q-51 9 -99.5 13.5t-98.5 4.5q-104 0 -169.5 -27.5t-96 -86t-30.5 -151.5q0 -97 30.5 -156.5t90.5 -86.5t150 -27q52 0 103.5 8.5t119.5 25.5v-294
q-59 -19 -132 -29.5t-150 -10.5zM559 -452q-51 0 -98 8t-87 22v139q40 -15 86.5 -22.5t80.5 -7.5q48 0 72.5 15t24.5 51q0 68 -98 68h-50v199h176v-145l-83 50q122 0 185 -50t63 -138q0 -87 -66.5 -138t-205.5 -51zM374 1226l230 390h397l-283 -390h-344z" />
    <glyph glyph-name="uni1E0C" unicode="&#x1e0c;" horiz-adv-x="1536" 
d="M546 -16q-64 0 -136.5 2.5t-146.5 8t-143 13.5v1436q72 16 155.5 28t171.5 18.5t172 6.5q417 0 629 -183.5t212 -573.5q0 -266 -100.5 -433t-303.5 -245t-510 -78zM649 294q140 0 233 43.5t139 141.5t46 263q0 163 -47.5 261t-140.5 142t-231 44q-32 0 -72 -3.5
t-72 -10.5v-877q38 -3 73.5 -3.5t71.5 -0.5zM702 -443q-113 0 -169.5 43.5t-56.5 120.5q0 78 56.5 121t169.5 43t169.5 -43t56.5 -121q0 -77 -56.5 -120.5t-169.5 -43.5z" />
    <glyph glyph-name="uni1E0D" unicode="&#x1e0d;" horiz-adv-x="1266" 
d="M517 -20q-123 0 -227 56.5t-167 176.5t-63 313q0 189 70 321t206.5 200.5t338.5 68.5q28 0 56 -2t52 -4v506h376v-1616h-315l-23 114h-16q-47 -61 -119 -97.5t-169 -36.5zM631 286q42 0 82 12.5t70 39.5v485q-23 4 -51.5 7t-56.5 3q-118 0 -177.5 -63.5t-59.5 -214.5
q0 -105 24.5 -163.5t67.5 -82t101 -23.5zM644 -474q-96 0 -147 48.5t-51 130.5q0 83 51 131.5t147 48.5q97 0 147.5 -48.5t50.5 -131.5q0 -82 -50.5 -130.5t-147.5 -48.5z" />
    <glyph glyph-name="uni1E0E" unicode="&#x1e0e;" horiz-adv-x="1536" 
d="M546 -16q-64 0 -136.5 2.5t-146.5 8t-143 13.5v1436q72 16 155.5 28t171.5 18.5t172 6.5q417 0 629 -183.5t212 -573.5q0 -266 -100.5 -433t-303.5 -245t-510 -78zM649 294q140 0 233 43.5t139 141.5t46 263q0 163 -47.5 261t-140.5 142t-231 44q-32 0 -72 -3.5
t-72 -10.5v-877q38 -3 73.5 -3.5t71.5 -0.5zM311 -381v222h782v-222h-782z" />
    <glyph glyph-name="uni1E0F" unicode="&#x1e0f;" horiz-adv-x="1266" 
d="M517 -20q-123 0 -227 56.5t-167 176.5t-63 313q0 189 70 321t206.5 200.5t338.5 68.5q28 0 56 -2t52 -4v506h376v-1616h-315l-23 114h-16q-47 -61 -119 -97.5t-169 -36.5zM631 286q42 0 82 12.5t70 39.5v485q-23 4 -51.5 7t-56.5 3q-118 0 -177.5 -63.5t-59.5 -214.5
q0 -105 24.5 -163.5t67.5 -82t101 -23.5zM277 -402v221h734v-221h-734z" />
    <glyph glyph-name="uni1E14" unicode="&#x1e14;" horiz-adv-x="1286" 
d="M120 0v1480h1084v-304h-705v-872h715v-304h-1094zM345 604v304h756v-304h-756zM494 1972l-237 232h435l182 -232h-380zM293 1626v223h782v-223h-782z" />
    <glyph glyph-name="uni1E15" unicode="&#x1e15;" horiz-adv-x="1138" 
d="M693 -21q-220 0 -360 59.5t-206.5 185.5t-66.5 326q0 177 61.5 304t180.5 194t291 67q164 0 274 -67.5t165.5 -197t55.5 -313.5v-95h-812v211h520l-56 -18q0 92 -16 146.5t-50 77t-85 22.5q-52 0 -86 -22.5t-51 -76.5t-17 -146v-154q0 -83 25.5 -131.5t93 -69.5
t193.5 -21q65 0 136.5 8.5t141.5 22.5v-278q-90 -18 -171 -26t-161 -8zM214 1308v223h744v-223h-744zM417 1670l-238 310h394l182 -310h-338z" />
    <glyph glyph-name="uni1E16" unicode="&#x1e16;" horiz-adv-x="1286" 
d="M120 0v1480h1084v-304h-705v-872h715v-304h-1094zM345 604v304h756v-304h-756zM494 1972l182 232h435l-237 -232h-380zM293 1626v223h782v-223h-782z" />
    <glyph glyph-name="uni1E17" unicode="&#x1e17;" horiz-adv-x="1138" 
d="M693 -21q-220 0 -360 59.5t-206.5 185.5t-66.5 326q0 177 61.5 304t180.5 194t291 67q164 0 274 -67.5t165.5 -197t55.5 -313.5v-95h-812v211h520l-56 -18q0 92 -16 146.5t-50 77t-85 22.5q-52 0 -86 -22.5t-51 -76.5t-17 -146v-154q0 -83 25.5 -131.5t93 -69.5
t193.5 -21q65 0 136.5 8.5t141.5 22.5v-278q-90 -18 -171 -26t-161 -8zM214 1308v223h744v-223h-744zM415 1670l182 310h394l-237 -310h-339z" />
    <glyph glyph-name="uni1E1C" unicode="&#x1e1c;" horiz-adv-x="1286" 
d="M120 0v1480h1084v-304h-705v-872h715v-304h-1094zM345 604v304h756v-304h-756zM644 -452q-59 0 -110 8t-96 23v138q45 -15 95.5 -22.5t91.5 -7.5q58 0 87.5 15t29.5 51t-30 52t-88 16h-50v199h175v-145l-81 50q134 0 200.5 -48.5t66.5 -136.5t-70.5 -140t-220.5 -52z
M684 1592q-126 0 -212 38t-134 106.5t-60 159.5h227q12 -61 54.5 -93.5t124.5 -32.5q83 0 125 32.5t54 93.5h227q-12 -92 -60 -160t-134 -106t-212 -38z" />
    <glyph glyph-name="uni1E1D" unicode="&#x1e1d;" horiz-adv-x="1138" 
d="M693 -21q-220 0 -360 59.5t-206.5 185.5t-66.5 326q0 177 61.5 304t180.5 194t291 67q164 0 274 -67.5t165.5 -197t55.5 -313.5v-95h-812v211h520l-56 -18q0 92 -16 146.5t-50 77t-85 22.5q-52 0 -86 -22.5t-51 -76.5t-17 -146v-154q0 -83 25.5 -131.5t93 -69.5
t193.5 -21q65 0 136.5 8.5t141.5 22.5v-278q-90 -18 -171 -26t-161 -8zM579 -452q-51 0 -98 8t-87 22v139q40 -15 86.5 -22.5t80.5 -7.5q48 0 72.5 15t24.5 51q0 68 -98 68h-50v199h176v-145l-83 50q122 0 185 -50t63 -138q0 -87 -66.5 -138t-205.5 -51zM586 1235
q-175 0 -276 91t-111 269h224q8 -88 48 -131t115 -43q77 0 116.5 43t46.5 131h224q-9 -178 -110 -269t-277 -91z" />
    <glyph glyph-name="uni1E20" unicode="&#x1e20;" horiz-adv-x="1455" 
d="M953 -19q-294 0 -488.5 83t-291.5 250.5t-97 421.5q0 250 100 420t296 257t485 87q87 0 171 -9t163 -27v-313q-74 16 -148 24.5t-151 8.5q-182 0 -295.5 -46t-167 -146t-53.5 -262q0 -150 49 -246.5t148 -143t249 -46.5q57 0 116 4.5t107 12.5l-165 -142v551h356v-705
q-96 -15 -192.5 -24.5t-190.5 -9.5zM435 1626v223h782v-223h-782z" />
    <glyph glyph-name="uni1E21" unicode="&#x1e21;" horiz-adv-x="1266" 
d="M522 -460q-91 0 -189.5 10t-193.5 33v291q95 -24 185.5 -36t166.5 -12q155 0 223.5 54.5t68.5 177.5v60h-17q-47 -58 -117 -90t-161 -32q-112 0 -209.5 57.5t-158 175t-60.5 298.5q0 279 159.5 433.5t487.5 154.5q75 0 155 -7.5t156.5 -22t140.5 -35.5v-921
q0 -309 -156.5 -449t-480.5 -140zM637 299q39 0 77.5 11t68.5 33v479q-23 5 -51 8t-59 3q-113 0 -174 -63t-61 -212q0 -100 24 -156.5t68.5 -79.5t106.5 -23zM287 1308v223h744v-223h-744z" />
    <glyph glyph-name="uni1E24" unicode="&#x1e24;" horiz-adv-x="1555" 
d="M120 0v1480h384v-556h547v556h384v-1480h-384v587h-547v-587h-384zM778 -443q-113 0 -169.5 43.5t-56.5 120.5q0 78 56.5 121t169.5 43t169.5 -43t56.5 -121q0 -77 -56.5 -120.5t-169.5 -43.5z" />
    <glyph glyph-name="uni1E25" unicode="&#x1e25;" horiz-adv-x="1254" 
d="M107 0v1616h376v-625h18q52 60 125 92t165 32q101 0 183.5 -44.5t131 -142.5t48.5 -259v-669h-377v642q0 86 -34 118t-94 32q-30 0 -60.5 -8t-58 -23.5t-47.5 -37.5v-723h-376zM631 -474q-96 0 -147 48.5t-51 130.5q0 83 51 131.5t147 48.5q97 0 147.5 -48.5t50.5 -131.5
q0 -82 -50.5 -130.5t-147.5 -48.5z" />
    <glyph glyph-name="uni1E2A" unicode="&#x1e2a;" horiz-adv-x="1555" 
d="M120 0v1480h384v-556h547v556h384v-1480h-384v587h-547v-587h-384zM778 -444q-126 0 -212.5 38t-134.5 107t-59 161h227q11 -62 54 -95t125 -33q83 0 125.5 33t53.5 95h227q-11 -92 -59 -161t-134 -107t-213 -38z" />
    <glyph glyph-name="uni1E2B" unicode="&#x1e2b;" horiz-adv-x="1254" 
d="M107 0v1616h376v-625h18q52 60 125 92t165 32q101 0 183.5 -44.5t131 -142.5t48.5 -259v-669h-377v642q0 86 -34 118t-94 32q-30 0 -60.5 -8t-58 -23.5t-47.5 -37.5v-723h-376zM631 -470q-180 0 -281 87t-106 241h224q4 -72 44 -108t119 -36t119 36t44 108h224
q-5 -154 -105.5 -241t-281.5 -87z" />
    <glyph glyph-name="uni1E2E" unicode="&#x1e2e;" horiz-adv-x="624" 
d="M120 0v1480h384v-1480h-384zM122 1972l182 232h435l-237 -232h-380zM578 1586q-98 0 -147.5 43.5t-49.5 120.5q0 78 49.5 121t147.5 43t147.5 -43t49.5 -121q0 -77 -49.5 -120.5t-147.5 -43.5zM46 1586q-98 0 -147.5 43.5t-49.5 120.5q0 78 49.5 121t147.5 43t147.5 -43
t49.5 -121q0 -77 -49.5 -120.5t-147.5 -43.5z" />
    <glyph glyph-name="uni1E2F" unicode="&#x1e2f;" horiz-adv-x="591" 
d="M107 0v1097h377v-1097h-377zM551 1235q-96 0 -146.5 49t-50.5 135t50.5 135t146.5 49q97 0 147.5 -49t50.5 -135t-50.5 -135t-147.5 -49zM41 1235q-96 0 -147 49t-51 135t51 135t147 49t146.5 -49t50.5 -135t-50.5 -135t-146.5 -49zM125 1704l182 310h394l-237 -310h-339
z" />
    <glyph glyph-name="uni1E36" unicode="&#x1e36;" horiz-adv-x="1176" 
d="M120 0v1480h384v-1163h663v-317h-1047zM644 -443q-113 0 -169.5 43.5t-56.5 120.5q0 78 56.5 121t169.5 43t169.5 -43t56.5 -121q0 -77 -56.5 -120.5t-169.5 -43.5z" />
    <glyph glyph-name="uni1E37" unicode="&#x1e37;" horiz-adv-x="590" 
d="M107 0v1616h376v-1616h-376zM295 -474q-96 0 -147 48.5t-51 130.5q0 83 51 131.5t147 48.5q97 0 147.5 -48.5t50.5 -131.5q0 -82 -50.5 -130.5t-147.5 -48.5z" />
    <glyph glyph-name="uni1E3A" unicode="&#x1e3a;" horiz-adv-x="1176" 
d="M120 0v1480h384v-1163h663v-317h-1047zM253 -381v222h782v-222h-782z" />
    <glyph glyph-name="uni1E3B" unicode="&#x1e3b;" horiz-adv-x="590" 
d="M107 0v1616h376v-1616h-376zM-72 -402v221h734v-221h-734z" />
    <glyph glyph-name="uni1E42" unicode="&#x1e42;" horiz-adv-x="1920" 
d="M124 0v1480h469l394 -916h-41l381 916h469v-1480h-358v1144h71l-394 -927h-310l-410 927h87v-1144h-358zM985 -443q-113 0 -169.5 43.5t-56.5 120.5q0 78 56.5 121t169.5 43t169.5 -43t56.5 -121q0 -77 -56.5 -120.5t-169.5 -43.5z" />
    <glyph glyph-name="uni1E43" unicode="&#x1e43;" horiz-adv-x="1844" 
d="M107 0v1097h310l25 -107h16q57 61 133 93t171 32q100 0 179.5 -43.5t126 -139t46.5 -252.5v-680h-369v646q0 84 -30 115t-83 31q-29 0 -56.5 -8t-51.5 -23.5t-41 -37.5v-723h-376zM1368 0v646q0 84 -33 115t-86 31q-31 0 -60 -8t-53 -24.5t-42 -40.5l-73 235
q72 84 162.5 122.5t184.5 38.5q109 0 194 -44.5t133.5 -143t48.5 -260.5v-667h-376zM931 -474q-96 0 -147 48.5t-51 130.5q0 83 51 131.5t147 48.5q97 0 147.5 -48.5t50.5 -131.5q0 -82 -50.5 -130.5t-147.5 -48.5z" />
    <glyph glyph-name="uni1E44" unicode="&#x1e44;" horiz-adv-x="1570" 
d="M120 0v1480h384l646 -999h-61v999h360v-1480h-384l-646 999h62v-999h-361zM785 1586q-113 0 -169.5 43.5t-56.5 120.5q0 79 56.5 121.5t169.5 42.5t169.5 -42.5t56.5 -121.5q0 -77 -56.5 -120.5t-169.5 -43.5z" />
    <glyph glyph-name="uni1E45" unicode="&#x1e45;" horiz-adv-x="1254" 
d="M107 0v1097h310l25 -107h16q59 61 139 93t175 32q110 0 196.5 -44.5t136 -143t49.5 -258.5v-669h-377v645q0 84 -33.5 115.5t-94.5 31.5q-31 0 -61.5 -7.5t-57.5 -23t-47 -38.5v-723h-376zM631 1229q-117 0 -172.5 49.5t-55.5 139.5q0 92 55.5 141.5t172.5 49.5
q118 0 173 -49.5t55 -141.5q0 -90 -55 -139.5t-173 -49.5z" />
    <glyph glyph-name="uni1E46" unicode="&#x1e46;" horiz-adv-x="1570" 
d="M120 0v1480h384l646 -999h-61v999h360v-1480h-384l-646 999h62v-999h-361zM785 -443q-113 0 -169.5 43.5t-56.5 120.5q0 78 56.5 121t169.5 43t169.5 -43t56.5 -121q0 -77 -56.5 -120.5t-169.5 -43.5z" />
    <glyph glyph-name="uni1E47" unicode="&#x1e47;" horiz-adv-x="1254" 
d="M107 0v1097h310l25 -107h16q59 61 139 93t175 32q110 0 196.5 -44.5t136 -143t49.5 -258.5v-669h-377v645q0 84 -33.5 115.5t-94.5 31.5q-31 0 -61.5 -7.5t-57.5 -23t-47 -38.5v-723h-376zM631 -474q-96 0 -147 48.5t-51 130.5q0 83 51 131.5t147 48.5q97 0 147.5 -48.5
t50.5 -131.5q0 -82 -50.5 -130.5t-147.5 -48.5z" />
    <glyph glyph-name="uni1E48" unicode="&#x1e48;" horiz-adv-x="1570" 
d="M120 0v1480h384l646 -999h-61v999h360v-1480h-384l-646 999h62v-999h-361zM394 -381v222h782v-222h-782z" />
    <glyph glyph-name="uni1E49" unicode="&#x1e49;" horiz-adv-x="1254" 
d="M107 0v1097h310l25 -107h16q59 61 139 93t175 32q110 0 196.5 -44.5t136 -143t49.5 -258.5v-669h-377v645q0 84 -33.5 115.5t-94.5 31.5q-31 0 -61.5 -7.5t-57.5 -23t-47 -38.5v-723h-376zM264 -402v221h734v-221h-734z" />
    <glyph glyph-name="uni1E4C" unicode="&#x1e4c;" horiz-adv-x="1606" 
d="M803 -20q-220 0 -383.5 84t-253.5 253t-90 423t90 423t253.5 253t383.5 84q221 0 384.5 -84.5t253.5 -253.5t90 -422t-90 -422t-254 -253.5t-384 -84.5zM803 288q107 0 181.5 46t113.5 144t39 255q0 164 -39.5 265t-114.5 147.5t-180 46.5t-179.5 -45.5t-114.5 -143.5
t-40 -256q0 -165 39.5 -266t114 -147t180.5 -46zM613 1972l181 232h436l-237 -232h-380zM982 1601q-56 0 -103.5 13t-93.5 27q-40 14 -81 25t-86 11q-65 0 -113 -17t-97 -53v210q43 39 94 57t122 18q57 0 104.5 -13t92.5 -28q41 -13 82 -25t85 -12q65 0 113 17.5t97 53.5
v-211q-42 -38 -93.5 -55.5t-122.5 -17.5z" />
    <glyph glyph-name="uni1E4D" unicode="&#x1e4d;" horiz-adv-x="1238" 
d="M619 -21q-172 0 -297.5 63.5t-193.5 189.5t-68 313q0 189 66 315.5t191 190.5t302 64t302 -64.5t190.5 -191t65.5 -312.5q0 -188 -67.5 -314.5t-193 -190t-297.5 -63.5zM619 260q58 0 98.5 25.5t61 87.5t20.5 172q0 112 -21 174.5t-61.5 88t-97.5 25.5q-58 0 -98.5 -25
t-61.5 -87.5t-21 -173.5t21 -173.5t61 -88t99 -25.5zM782 1263q-50 0 -94.5 16.5t-86.5 34.5q-38 18 -75.5 31.5t-76.5 13.5q-59 0 -106 -20.5t-96 -67.5v230q81 81 209 81q50 0 94.5 -16t86.5 -35q38 -17 75.5 -31t76.5 -14q59 0 106 21.5t96 67.5v-231q-81 -81 -209 -81z
M448 1692l182 310h394l-237 -310h-339z" />
    <glyph glyph-name="uni1E4E" unicode="&#x1e4e;" horiz-adv-x="1606" 
d="M803 -20q-220 0 -383.5 84t-253.5 253t-90 423t90 423t253.5 253t383.5 84q221 0 384.5 -84.5t253.5 -253.5t90 -422t-90 -422t-254 -253.5t-384 -84.5zM803 288q107 0 181.5 46t113.5 144t39 255q0 164 -39.5 265t-114.5 147.5t-180 46.5t-179.5 -45.5t-114.5 -143.5
t-40 -256q0 -165 39.5 -266t114 -147t180.5 -46zM982 1601q-56 0 -103.5 13t-93.5 27q-40 14 -81 25t-86 11q-65 0 -113 -17t-97 -53v210q43 39 94 57t122 18q57 0 104.5 -13t92.5 -28q41 -13 82 -25t85 -12q65 0 113 17.5t97 53.5v-211q-42 -38 -93.5 -55.5t-122.5 -17.5z
M1069 1963q-98 0 -147.5 43.5t-49.5 120.5q0 78 49.5 121t147.5 43t147.5 -43t49.5 -121q0 -77 -49.5 -120.5t-147.5 -43.5zM537 1963q-98 0 -147.5 43.5t-49.5 120.5q0 78 49.5 121t147.5 43t147.5 -43t49.5 -121q0 -77 -49.5 -120.5t-147.5 -43.5z" />
    <glyph glyph-name="uni1E4F" unicode="&#x1e4f;" horiz-adv-x="1238" 
d="M619 -21q-172 0 -297.5 63.5t-193.5 189.5t-68 313q0 189 66 315.5t191 190.5t302 64t302 -64.5t190.5 -191t65.5 -312.5q0 -188 -67.5 -314.5t-193 -190t-297.5 -63.5zM619 260q58 0 98.5 25.5t61 87.5t20.5 172q0 112 -21 174.5t-61.5 88t-97.5 25.5q-58 0 -98.5 -25
t-61.5 -87.5t-21 -173.5t21 -173.5t61 -88t99 -25.5zM782 1263q-50 0 -94.5 16.5t-86.5 34.5q-38 18 -75.5 31.5t-76.5 13.5q-59 0 -106 -20.5t-96 -67.5v230q81 81 209 81q50 0 94.5 -16t86.5 -35q38 -17 75.5 -31t76.5 -14q59 0 106 21.5t96 67.5v-231q-81 -81 -209 -81z
M874 1652q-96 0 -146.5 49t-50.5 135t50.5 135t146.5 49q97 0 147.5 -49t50.5 -135t-50.5 -135t-147.5 -49zM364 1652q-96 0 -147 49t-51 135t51 135t147 49t146.5 -49t50.5 -135t-50.5 -135t-146.5 -49z" />
    <glyph glyph-name="uni1E50" unicode="&#x1e50;" horiz-adv-x="1606" 
d="M803 -20q-220 0 -383.5 84t-253.5 253t-90 423t90 423t253.5 253t383.5 84q221 0 384.5 -84.5t253.5 -253.5t90 -422t-90 -422t-254 -253.5t-384 -84.5zM803 288q107 0 181.5 46t113.5 144t39 255q0 164 -39.5 265t-114.5 147.5t-180 46.5t-179.5 -45.5t-114.5 -143.5
t-40 -256q0 -165 39.5 -266t114 -147t180.5 -46zM613 1972l-237 232h435l182 -232h-380zM412 1626v223h782v-223h-782z" />
    <glyph glyph-name="uni1E51" unicode="&#x1e51;" horiz-adv-x="1238" 
d="M619 -21q-172 0 -297.5 63.5t-193.5 189.5t-68 313q0 189 66 315.5t191 190.5t302 64t302 -64.5t190.5 -191t65.5 -312.5q0 -188 -67.5 -314.5t-193 -190t-297.5 -63.5zM619 260q58 0 98.5 25.5t61 87.5t20.5 172q0 112 -21 174.5t-61.5 88t-97.5 25.5q-58 0 -98.5 -25
t-61.5 -87.5t-21 -173.5t21 -173.5t61 -88t99 -25.5zM247 1308v223h744v-223h-744zM450 1670l-238 310h394l182 -310h-338z" />
    <glyph glyph-name="uni1E52" unicode="&#x1e52;" horiz-adv-x="1606" 
d="M803 -20q-220 0 -383.5 84t-253.5 253t-90 423t90 423t253.5 253t383.5 84q221 0 384.5 -84.5t253.5 -253.5t90 -422t-90 -422t-254 -253.5t-384 -84.5zM803 288q107 0 181.5 46t113.5 144t39 255q0 164 -39.5 265t-114.5 147.5t-180 46.5t-179.5 -45.5t-114.5 -143.5
t-40 -256q0 -165 39.5 -266t114 -147t180.5 -46zM613 1972l182 232h435l-237 -232h-380zM412 1626v223h782v-223h-782z" />
    <glyph glyph-name="uni1E53" unicode="&#x1e53;" horiz-adv-x="1238" 
d="M619 -21q-172 0 -297.5 63.5t-193.5 189.5t-68 313q0 189 66 315.5t191 190.5t302 64t302 -64.5t190.5 -191t65.5 -312.5q0 -188 -67.5 -314.5t-193 -190t-297.5 -63.5zM619 260q58 0 98.5 25.5t61 87.5t20.5 172q0 112 -21 174.5t-61.5 88t-97.5 25.5q-58 0 -98.5 -25
t-61.5 -87.5t-21 -173.5t21 -173.5t61 -88t99 -25.5zM247 1308v223h744v-223h-744zM448 1670l182 310h394l-237 -310h-339z" />
    <glyph glyph-name="uni1E5A" unicode="&#x1e5a;" horiz-adv-x="1403" 
d="M120 0v1444q70 16 151.5 28.5t167 19.5t168.5 7q329 0 496.5 -119t167.5 -370q0 -162 -78 -271.5t-220.5 -165t-336.5 -55.5q-38 0 -71 1.5t-68 2.5v-522h-377zM980 0l-460 680h408l469 -680h-417zM644 801q134 0 201 48t67 160q0 73 -29.5 120t-87.5 69t-145 22
q-43 0 -81 -3.5t-72 -10.5v-397q25 -3 48.5 -5t48 -2.5t50.5 -0.5zM738 -443q-113 0 -169.5 43.5t-56.5 120.5q0 78 56.5 121t169.5 43t169.5 -43t56.5 -121q0 -77 -56.5 -120.5t-169.5 -43.5z" />
    <glyph glyph-name="uni1E5B" unicode="&#x1e5b;" horiz-adv-x="841" 
d="M107 0v1097h307l29 -140h17q43 83 116 120t164 37q24 0 48 -2.5t42 -5.5v-339q-26 6 -56.5 7.5t-56.5 1.5q-45 0 -89.5 -10t-82.5 -29.5t-62 -47.5v-689h-376zM296 -474q-96 0 -147 48.5t-51 130.5q0 83 51 131.5t147 48.5q97 0 147.5 -48.5t50.5 -131.5
q0 -82 -50.5 -130.5t-147.5 -48.5z" />
    <glyph glyph-name="uni1E5E" unicode="&#x1e5e;" horiz-adv-x="1403" 
d="M120 0v1444q70 16 151.5 28.5t167 19.5t168.5 7q329 0 496.5 -119t167.5 -370q0 -162 -78 -271.5t-220.5 -165t-336.5 -55.5q-38 0 -71 1.5t-68 2.5v-522h-377zM980 0l-460 680h408l469 -680h-417zM644 801q134 0 201 48t67 160q0 73 -29.5 120t-87.5 69t-145 22
q-43 0 -81 -3.5t-72 -10.5v-397q25 -3 48.5 -5t48 -2.5t50.5 -0.5zM347 -381v222h782v-222h-782z" />
    <glyph glyph-name="uni1E5F" unicode="&#x1e5f;" horiz-adv-x="841" 
d="M107 0v1097h307l29 -140h17q43 83 116 120t164 37q24 0 48 -2.5t42 -5.5v-339q-26 6 -56.5 7.5t-56.5 1.5q-45 0 -89.5 -10t-82.5 -29.5t-62 -47.5v-689h-376zM-71 -402v221h734v-221h-734z" />
    <glyph glyph-name="uni1E60" unicode="&#x1e60;" horiz-adv-x="1186" 
d="M518 -20q-114 0 -225.5 17.5t-204.5 47.5v309q62 -21 136 -35.5t149.5 -23t142.5 -8.5q136 0 188.5 37t52.5 100q0 53 -37.5 84.5t-149.5 60.5l-122 31q-197 49 -298.5 155t-101.5 279q0 220 161 343t487 123q106 0 198.5 -12t163.5 -32v-309q-69 22 -159 34t-180 12
q-112 0 -175 -18t-89 -49.5t-26 -70.5q0 -49 32.5 -78.5t127.5 -55.5l123 -31q146 -36 240.5 -94.5t140 -144t45.5 -201.5q0 -145 -74 -250.5t-212.5 -162.5t-333.5 -57zM605 1586q-113 0 -169.5 43.5t-56.5 120.5q0 79 56.5 121.5t169.5 42.5t169.5 -42.5t56.5 -121.5
q0 -77 -56.5 -120.5t-169.5 -43.5z" />
    <glyph glyph-name="uni1E61" unicode="&#x1e61;" horiz-adv-x="1006" 
d="M452 -21q-99 0 -193 12.5t-175 36.5v272q80 -24 173 -37.5t188 -13.5q97 0 134 22t37 59q0 29 -16 43.5t-58 22.5l-189 33q-156 28 -228.5 107.5t-72.5 215.5q0 165 134.5 264t411.5 99q84 0 164 -9.5t141 -26.5v-272q-63 18 -139 27.5t-155 9.5q-86 0 -131 -12
t-61.5 -31t-16.5 -41q0 -24 17 -39t58 -23l189 -33q144 -26 222 -98.5t78 -223.5q0 -169 -134.5 -266.5t-377.5 -97.5zM507 1229q-117 0 -172.5 49.5t-55.5 139.5q0 92 55.5 141.5t172.5 49.5q118 0 173 -49.5t55 -141.5q0 -90 -55 -139.5t-173 -49.5z" />
    <glyph glyph-name="uni1E62" unicode="&#x1e62;" horiz-adv-x="1186" 
d="M518 -20q-114 0 -225.5 17.5t-204.5 47.5v309q62 -21 136 -35.5t149.5 -23t142.5 -8.5q136 0 188.5 37t52.5 100q0 53 -37.5 84.5t-149.5 60.5l-122 31q-197 49 -298.5 155t-101.5 279q0 220 161 343t487 123q106 0 198.5 -12t163.5 -32v-309q-69 22 -159 34t-180 12
q-112 0 -175 -18t-89 -49.5t-26 -70.5q0 -49 32.5 -78.5t127.5 -55.5l123 -31q146 -36 240.5 -94.5t140 -144t45.5 -201.5q0 -145 -74 -250.5t-212.5 -162.5t-333.5 -57zM605 -443q-113 0 -169.5 43.5t-56.5 120.5q0 78 56.5 121t169.5 43t169.5 -43t56.5 -121
q0 -77 -56.5 -120.5t-169.5 -43.5z" />
    <glyph glyph-name="uni1E63" unicode="&#x1e63;" horiz-adv-x="1006" 
d="M452 -21q-99 0 -193 12.5t-175 36.5v272q80 -24 173 -37.5t188 -13.5q97 0 134 22t37 59q0 29 -16 43.5t-58 22.5l-189 33q-156 28 -228.5 107.5t-72.5 215.5q0 165 134.5 264t411.5 99q84 0 164 -9.5t141 -26.5v-272q-63 18 -139 27.5t-155 9.5q-86 0 -131 -12
t-61.5 -31t-16.5 -41q0 -24 17 -39t58 -23l189 -33q144 -26 222 -98.5t78 -223.5q0 -169 -134.5 -266.5t-377.5 -97.5zM507 -474q-96 0 -147 48.5t-51 130.5q0 83 51 131.5t147 48.5q97 0 147.5 -48.5t50.5 -131.5q0 -82 -50.5 -130.5t-147.5 -48.5z" />
    <glyph glyph-name="uni1E64" unicode="&#x1e64;" horiz-adv-x="1186" 
d="M518 -20q-114 0 -225.5 17.5t-204.5 47.5v309q62 -21 136 -35.5t149.5 -23t142.5 -8.5q136 0 188.5 37t52.5 100q0 53 -37.5 84.5t-149.5 60.5l-122 31q-197 49 -298.5 155t-101.5 279q0 220 161 343t487 123q106 0 198.5 -12t163.5 -32v-309q-69 22 -159 34t-180 12
q-112 0 -175 -18t-89 -49.5t-26 -70.5q0 -49 32.5 -78.5t127.5 -55.5l123 -31q146 -36 240.5 -94.5t140 -144t45.5 -201.5q0 -145 -74 -250.5t-212.5 -162.5t-333.5 -57zM336 1860q-91 0 -136.5 35t-45.5 98t45.5 98t136.5 35t136.5 -35t45.5 -98t-45.5 -98t-136.5 -35z
M434 1590l182 310h394l-237 -310h-339z" />
    <glyph glyph-name="uni1E65" unicode="&#x1e65;" horiz-adv-x="1006" 
d="M452 -21q-99 0 -193 12.5t-175 36.5v272q80 -24 173 -37.5t188 -13.5q97 0 134 22t37 59q0 29 -16 43.5t-58 22.5l-189 33q-156 28 -228.5 107.5t-72.5 215.5q0 165 134.5 264t411.5 99q84 0 164 -9.5t141 -26.5v-272q-63 18 -139 27.5t-155 9.5q-86 0 -131 -12
t-61.5 -31t-16.5 -41q0 -24 17 -39t58 -23l189 -33q144 -26 222 -98.5t78 -223.5q0 -169 -134.5 -266.5t-377.5 -97.5zM309 1576q-91 0 -136.5 35t-45.5 98t45.5 98t136.5 35t136.5 -35t45.5 -98t-45.5 -98t-136.5 -35zM335 1226l230 390h397l-283 -390h-344z" />
    <glyph glyph-name="uni1E66" unicode="&#x1e66;" horiz-adv-x="1186" 
d="M518 -20q-114 0 -225.5 17.5t-204.5 47.5v309q62 -21 136 -35.5t149.5 -23t142.5 -8.5q136 0 188.5 37t52.5 100q0 53 -37.5 84.5t-149.5 60.5l-122 31q-197 49 -298.5 155t-101.5 279q0 220 161 343t487 123q106 0 198.5 -12t163.5 -32v-309q-69 22 -159 34t-180 12
q-112 0 -175 -18t-89 -49.5t-26 -70.5q0 -49 32.5 -78.5t127.5 -55.5l123 -31q146 -36 240.5 -94.5t140 -144t45.5 -201.5q0 -145 -74 -250.5t-212.5 -162.5t-333.5 -57zM605 1935q-91 0 -136.5 35t-45.5 97q0 64 45.5 99t136.5 35t136.5 -35t45.5 -99q0 -62 -45.5 -97
t-136.5 -35zM447 1590l-259 310h279l166 -210h-56l166 210h279l-259 -310h-316z" />
    <glyph glyph-name="uni1E67" unicode="&#x1e67;" horiz-adv-x="1006" 
d="M452 -21q-99 0 -193 12.5t-175 36.5v272q80 -24 173 -37.5t188 -13.5q97 0 134 22t37 59q0 29 -16 43.5t-58 22.5l-189 33q-156 28 -228.5 107.5t-72.5 215.5q0 165 134.5 264t411.5 99q84 0 164 -9.5t141 -26.5v-272q-63 18 -139 27.5t-155 9.5q-86 0 -131 -12
t-61.5 -31t-16.5 -41q0 -24 17 -39t58 -23l189 -33q144 -26 222 -98.5t78 -223.5q0 -169 -134.5 -266.5t-377.5 -97.5zM507 1650q-91 0 -136.5 35.5t-45.5 97.5q0 63 45.5 98t136.5 35t136.5 -35t45.5 -98q0 -62 -45.5 -97.5t-136.5 -35.5zM355 1226l-237 390h265l150 -264
h-52l150 264h265l-237 -390h-304z" />
    <glyph glyph-name="uni1E68" unicode="&#x1e68;" horiz-adv-x="1186" 
d="M518 -20q-114 0 -225.5 17.5t-204.5 47.5v309q62 -21 136 -35.5t149.5 -23t142.5 -8.5q136 0 188.5 37t52.5 100q0 53 -37.5 84.5t-149.5 60.5l-122 31q-197 49 -298.5 155t-101.5 279q0 220 161 343t487 123q106 0 198.5 -12t163.5 -32v-309q-69 22 -159 34t-180 12
q-112 0 -175 -18t-89 -49.5t-26 -70.5q0 -49 32.5 -78.5t127.5 -55.5l123 -31q146 -36 240.5 -94.5t140 -144t45.5 -201.5q0 -145 -74 -250.5t-212.5 -162.5t-333.5 -57zM605 -443q-113 0 -169.5 43.5t-56.5 120.5q0 78 56.5 121t169.5 43t169.5 -43t56.5 -121
q0 -77 -56.5 -120.5t-169.5 -43.5zM605 1586q-113 0 -169.5 43.5t-56.5 120.5q0 79 56.5 121.5t169.5 42.5t169.5 -42.5t56.5 -121.5q0 -77 -56.5 -120.5t-169.5 -43.5z" />
    <glyph glyph-name="uni1E69" unicode="&#x1e69;" horiz-adv-x="1006" 
d="M452 -21q-99 0 -193 12.5t-175 36.5v272q80 -24 173 -37.5t188 -13.5q97 0 134 22t37 59q0 29 -16 43.5t-58 22.5l-189 33q-156 28 -228.5 107.5t-72.5 215.5q0 165 134.5 264t411.5 99q84 0 164 -9.5t141 -26.5v-272q-63 18 -139 27.5t-155 9.5q-86 0 -131 -12
t-61.5 -31t-16.5 -41q0 -24 17 -39t58 -23l189 -33q144 -26 222 -98.5t78 -223.5q0 -169 -134.5 -266.5t-377.5 -97.5zM507 -474q-96 0 -147 48.5t-51 130.5q0 83 51 131.5t147 48.5q97 0 147.5 -48.5t50.5 -131.5q0 -82 -50.5 -130.5t-147.5 -48.5zM507 1229
q-117 0 -172.5 49.5t-55.5 139.5q0 92 55.5 141.5t172.5 49.5q118 0 173 -49.5t55 -141.5q0 -90 -55 -139.5t-173 -49.5z" />
    <glyph glyph-name="uni1E6C" unicode="&#x1e6c;" horiz-adv-x="1325" 
d="M470 0v1163h-457v317h1299v-317h-457v-1163h-385zM663 -443q-113 0 -169.5 43.5t-56.5 120.5q0 78 56.5 121t169.5 43t169.5 -43t56.5 -121q0 -77 -56.5 -120.5t-169.5 -43.5z" />
    <glyph glyph-name="uni1E6D" unicode="&#x1e6d;" horiz-adv-x="877" 
d="M621 -21q-210 0 -322 104t-112 326v688l70 383h307v-1012q0 -103 37 -142t126 -39q24 0 50 3t59 8v-294q-44 -10 -102 -17.5t-113 -7.5zM19 804v293h814v-293h-814zM512 -474q-96 0 -147 48.5t-51 130.5q0 83 51 131.5t147 48.5q97 0 147.5 -48.5t50.5 -131.5
q0 -82 -50.5 -130.5t-147.5 -48.5z" />
    <glyph glyph-name="uni1E6E" unicode="&#x1e6e;" horiz-adv-x="1325" 
d="M470 0v1163h-457v317h1299v-317h-457v-1163h-385zM272 -381v222h782v-222h-782z" />
    <glyph glyph-name="uni1E6F" unicode="&#x1e6f;" horiz-adv-x="877" 
d="M621 -21q-210 0 -322 104t-112 326v688l70 383h307v-1012q0 -103 37 -142t126 -39q24 0 50 3t59 8v-294q-44 -10 -102 -17.5t-113 -7.5zM19 804v293h814v-293h-814zM145 -402v221h734v-221h-734z" />
    <glyph glyph-name="uni1E78" unicode="&#x1e78;" horiz-adv-x="1523" 
d="M766 -20q-226 0 -370 72t-213 217t-69 364v847h384v-884q0 -161 67.5 -232t200.5 -71q132 0 199 71t67 232v884h377v-847q0 -219 -68 -364t-210.5 -217t-364.5 -72zM576 1972l181 232h436l-237 -232h-380zM945 1601q-56 0 -103.5 13t-93.5 27q-40 14 -81 25t-86 11
q-65 0 -113 -17t-97 -53v210q43 39 94 57t122 18q57 0 104.5 -13t92.5 -28q41 -13 82 -25t85 -12q65 0 113 17.5t97 53.5v-211q-42 -38 -93.5 -55.5t-122.5 -17.5z" />
    <glyph glyph-name="uni1E79" unicode="&#x1e79;" horiz-adv-x="1245" 
d="M487 -19q-112 0 -199.5 44.5t-137.5 142t-50 257.5v672h376v-645q0 -84 34 -116t89 -32q29 0 59 8t57 23.5t46 37.5v724h377v-1097h-310l-25 107h-15q-60 -62 -136.5 -94t-164.5 -32zM782 1263q-50 0 -94.5 16.5t-86.5 34.5q-38 18 -75.5 31.5t-76.5 13.5
q-59 0 -106 -20.5t-96 -67.5v230q81 81 209 81q50 0 94.5 -16t86.5 -35q38 -17 75.5 -31t76.5 -14q59 0 106 21.5t96 67.5v-231q-81 -81 -209 -81zM448 1692l182 310h394l-237 -310h-339z" />
    <glyph glyph-name="uni1E7A" unicode="&#x1e7a;" horiz-adv-x="1523" 
d="M766 -20q-226 0 -370 72t-213 217t-69 364v847h384v-884q0 -161 67.5 -232t200.5 -71q132 0 199 71t67 232v884h377v-847q0 -219 -68 -364t-210.5 -217t-364.5 -72zM375 1626v223h782v-223h-782zM1032 1954q-98 0 -147.5 43.5t-49.5 120.5q0 78 49.5 121t147.5 43
t147.5 -43t49.5 -121q0 -77 -49.5 -120.5t-147.5 -43.5zM500 1954q-98 0 -147.5 43.5t-49.5 120.5q0 78 49.5 121t147.5 43t147.5 -43t49.5 -121q0 -77 -49.5 -120.5t-147.5 -43.5z" />
    <glyph glyph-name="uni1E7B" unicode="&#x1e7b;" horiz-adv-x="1245" 
d="M487 -19q-112 0 -199.5 44.5t-137.5 142t-50 257.5v672h376v-645q0 -84 34 -116t89 -32q29 0 59 8t57 23.5t46 37.5v724h377v-1097h-310l-25 107h-15q-60 -62 -136.5 -94t-164.5 -32zM247 1308v223h744v-223h-744zM874 1630q-96 0 -146.5 49t-50.5 135t50.5 135t146.5 49
q97 0 147.5 -49t50.5 -135t-50.5 -135t-147.5 -49zM364 1630q-96 0 -147 49t-51 135t51 135t147 49t146.5 -49t50.5 -135t-50.5 -135t-146.5 -49z" />
    <glyph glyph-name="Wgrave" unicode="&#x1e80;" horiz-adv-x="2338" 
d="M403 0l-382 1480h388l316 -1313h-97l342 1313h421l326 -1313h-88l325 1313h362l-381 -1480h-491l-318 1247h102l-334 -1247h-491zM1000 1590l-238 310h394l182 -310h-338z" />
    <glyph glyph-name="wgrave" unicode="&#x1e81;" horiz-adv-x="1854" 
d="M323 0l-286 1097h355l168 -724h-15l185 724h412l180 -724h-22l177 724h340l-285 -1097h-412l-199 777h19l-205 -777h-412zM756 1226l-283 390h397l230 -390h-344z" />
    <glyph glyph-name="Wacute" unicode="&#x1e82;" horiz-adv-x="2338" 
d="M403 0l-382 1480h388l316 -1313h-97l342 1313h421l326 -1313h-88l325 1313h362l-381 -1480h-491l-318 1247h102l-334 -1247h-491zM998 1590l182 310h394l-237 -310h-339z" />
    <glyph glyph-name="wacute" unicode="&#x1e83;" horiz-adv-x="1854" 
d="M323 0l-286 1097h355l168 -724h-15l185 724h412l180 -724h-22l177 724h340l-285 -1097h-412l-199 777h19l-205 -777h-412zM756 1226l230 390h397l-283 -390h-344z" />
    <glyph glyph-name="Wdieresis" unicode="&#x1e84;" horiz-adv-x="2338" 
d="M403 0l-382 1480h388l316 -1313h-97l342 1313h421l326 -1313h-88l325 1313h362l-381 -1480h-491l-318 1247h102l-334 -1247h-491zM1435 1586q-98 0 -147.5 43.5t-49.5 120.5q0 78 49.5 121t147.5 43t147.5 -43t49.5 -121q0 -77 -49.5 -120.5t-147.5 -43.5zM903 1586
q-98 0 -147.5 43.5t-49.5 120.5q0 78 49.5 121t147.5 43t147.5 -43t49.5 -121q0 -77 -49.5 -120.5t-147.5 -43.5z" />
    <glyph glyph-name="wdieresis" unicode="&#x1e85;" horiz-adv-x="1854" 
d="M323 0l-286 1097h355l168 -724h-15l185 724h412l180 -724h-22l177 724h340l-285 -1097h-412l-199 777h19l-205 -777h-412zM1183 1235q-96 0 -146.5 49t-50.5 135t50.5 135t146.5 49q97 0 147.5 -49t50.5 -135t-50.5 -135t-147.5 -49zM673 1235q-96 0 -147 49t-51 135
t51 135t147 49t146.5 -49t50.5 -135t-50.5 -135t-146.5 -49z" />
    <glyph glyph-name="uni1E8E" unicode="&#x1e8e;" horiz-adv-x="1325" 
d="M473 0v769l77 -280l-610 991h406l380 -630h-105l376 630h376l-593 -991l77 275v-764h-384zM663 1586q-113 0 -169.5 43.5t-56.5 120.5q0 79 56.5 121.5t169.5 42.5t169.5 -42.5t56.5 -121.5q0 -77 -56.5 -120.5t-169.5 -43.5z" />
    <glyph glyph-name="uni1E8F" unicode="&#x1e8f;" horiz-adv-x="1205" 
d="M318 -440l152 440l131 302l242 795h369l-527 -1537h-367zM367 0l-374 1097h392l330 -1097h-348zM603 1229q-117 0 -172.5 49.5t-55.5 139.5q0 92 55.5 141.5t172.5 49.5q118 0 173 -49.5t55 -141.5q0 -90 -55 -139.5t-173 -49.5z" />
    <glyph glyph-name="uni1E92" unicode="&#x1e92;" horiz-adv-x="1271" 
d="M59 0v210l694 1023l2 -70h-686v317h1133v-210l-695 -1023l-2 70h707v-317h-1153zM633 -443q-113 0 -169.5 43.5t-56.5 120.5q0 78 56.5 121t169.5 43t169.5 -43t56.5 -121q0 -77 -56.5 -120.5t-169.5 -43.5z" />
    <glyph glyph-name="uni1E93" unicode="&#x1e93;" horiz-adv-x="1046" 
d="M66 0v239l511 630v-65h-501v293h912v-238l-511 -631v66h521v-294h-932zM533 -474q-96 0 -147 48.5t-51 130.5q0 83 51 131.5t147 48.5q97 0 147.5 -48.5t50.5 -131.5q0 -82 -50.5 -130.5t-147.5 -48.5z" />
    <glyph glyph-name="uni1E97" unicode="&#x1e97;" horiz-adv-x="877" 
d="M621 -21q-210 0 -322 104t-112 326v688l70 383h307v-1012q0 -103 37 -142t126 -39q24 0 50 3t59 8v-294q-44 -10 -102 -17.5t-113 -7.5zM19 804v293h814v-293h-814zM631 1550q-96 0 -146.5 49t-50.5 135t50.5 135t146.5 49q97 0 147.5 -49t50.5 -135t-50.5 -135
t-147.5 -49zM121 1550q-96 0 -147 49t-51 135t51 135t147 49t146.5 -49t50.5 -135t-50.5 -135t-146.5 -49z" />
    <glyph glyph-name="uni1E9E" unicode="&#x1e9e;" horiz-adv-x="1586" 
d="M1405 1373v-206l-399 -428l-21 107q26 4 50.5 5.5t50.5 1.5q132 0 233.5 -49t158.5 -140.5t57 -219.5q0 -139 -64.5 -243t-190 -162.5t-309.5 -58.5q-96 0 -181 16.5t-158 44.5v309q50 -20 105.5 -33.5t111 -21.5t103.5 -8q112 0 167 47.5t55 128.5q0 75 -58.5 123
t-191.5 48q-52 0 -100.5 -4t-103.5 -13v207l434 492l-18 -153q-64 23 -132.5 34.5t-160.5 11.5q-184 0 -270.5 -67t-86.5 -182v-960h-384v913q0 186 79 317t240 200.5t410 69.5q185 0 322.5 -35.5t251.5 -91.5z" />
    <glyph glyph-name="uni1EA0" unicode="&#x1ea0;" horiz-adv-x="1497" 
d="M8 0l459 1480h563l458 -1480h-376l-384 1315h36l-383 -1315h-373zM361 365l81 302h611l80 -302h-772zM749 -443q-113 0 -169.5 43.5t-56.5 120.5q0 78 56.5 121t169.5 43t169.5 -43t56.5 -121q0 -77 -56.5 -120.5t-169.5 -43.5z" />
    <glyph glyph-name="uni1EA1" unicode="&#x1ea1;" horiz-adv-x="1149" 
d="M417 -21q-173 0 -268.5 90.5t-95.5 233.5q0 159 112 249t364 105l208 14l42 -202l-209 -14q-78 -5 -113 -34.5t-35 -80.5q0 -49 31.5 -76t90.5 -27q34 0 70.5 10t67.5 35v372q0 66 -22 105t-74 56t-141 17q-64 0 -144.5 -10.5t-153.5 -31.5v279q85 23 184 34.5t184 11.5
q187 0 305 -45.5t173.5 -152t55.5 -288.5v-629h-308l-26 105h-17q-47 -67 -120.5 -96.5t-160.5 -29.5zM573 -474q-96 0 -147 48.5t-51 130.5q0 83 51 131.5t147 48.5q97 0 147.5 -48.5t50.5 -131.5q0 -82 -50.5 -130.5t-147.5 -48.5z" />
    <glyph glyph-name="uni1EA2" unicode="&#x1ea2;" horiz-adv-x="1497" 
d="M8 0l459 1480h563l458 -1480h-376l-384 1315h36l-383 -1315h-373zM361 365l81 302h611l80 -302h-772zM656 1590q4 53 40.5 78.5t71.5 41.5q23 11 39 20.5t16 23.5q0 18 -26 26t-82 8q-45 0 -93 -5t-98 -17v134q44 12 106.5 18t114.5 6q141 0 206 -35.5t65 -105.5
q0 -48 -33 -74.5t-69 -46.5q-27 -15 -49 -31.5t-26 -40.5h-183z" />
    <glyph glyph-name="uni1EA3" unicode="&#x1ea3;" horiz-adv-x="1149" 
d="M417 -21q-173 0 -268.5 90.5t-95.5 233.5q0 159 112 249t364 105l208 14l42 -202l-209 -14q-78 -5 -113 -34.5t-35 -80.5q0 -49 31.5 -76t90.5 -27q34 0 70.5 10t67.5 35v372q0 66 -22 105t-74 56t-141 17q-64 0 -144.5 -10.5t-153.5 -31.5v279q85 23 184 34.5t184 11.5
q187 0 305 -45.5t173.5 -152t55.5 -288.5v-629h-308l-26 105h-17q-47 -67 -120.5 -96.5t-160.5 -29.5zM479 1226q3 56 26 88.5t51.5 53t50 37.5t21.5 41q0 22 -21.5 32t-69.5 10q-39 0 -81 -5.5t-88 -18.5v138q40 13 96 19.5t101 6.5q131 0 193.5 -38.5t62.5 -119.5
q0 -53 -22 -83t-52 -51t-55 -45t-30 -65h-183z" />
    <glyph glyph-name="uni1EA4" unicode="&#x1ea4;" horiz-adv-x="1497" 
d="M8 0l459 1480h563l458 -1480h-376l-384 1315h36l-383 -1315h-373zM361 365l81 302h611l80 -302h-772zM331 1590l259 272h316l259 -272h-279l-166 186h56l-166 -186h-279zM1007 1823l107 241h249l-157 -241h-199z" />
    <glyph glyph-name="uni1EA5" unicode="&#x1ea5;" horiz-adv-x="1149" 
d="M417 -21q-173 0 -268.5 90.5t-95.5 233.5q0 159 112 249t364 105l208 14l42 -202l-209 -14q-78 -5 -113 -34.5t-35 -80.5q0 -49 31.5 -76t90.5 -27q34 0 70.5 10t67.5 35v372q0 66 -22 105t-74 56t-141 17q-64 0 -144.5 -10.5t-153.5 -31.5v279q85 23 184 34.5t184 11.5
q187 0 305 -45.5t173.5 -152t55.5 -288.5v-629h-308l-26 105h-17q-47 -67 -120.5 -96.5t-160.5 -29.5zM183 1226l236 390h304l236 -390h-264l-150 264h52l-150 -264h-264zM806 1598l182 270h314l-237 -270h-259z" />
    <glyph glyph-name="uni1EA6" unicode="&#x1ea6;" horiz-adv-x="1497" 
d="M8 0l459 1480h563l458 -1480h-376l-384 1315h36l-383 -1315h-373zM361 365l81 302h611l80 -302h-772zM332 1590l259 272h316l259 -272h-279l-166 186h56l-166 -186h-279zM1045 1823l-157 241h249l107 -241h-199z" />
    <glyph glyph-name="uni1EA7" unicode="&#x1ea7;" horiz-adv-x="1149" 
d="M417 -21q-173 0 -268.5 90.5t-95.5 233.5q0 159 112 249t364 105l208 14l42 -202l-209 -14q-78 -5 -113 -34.5t-35 -80.5q0 -49 31.5 -76t90.5 -27q34 0 70.5 10t67.5 35v372q0 66 -22 105t-74 56t-141 17q-64 0 -144.5 -10.5t-153.5 -31.5v279q85 23 184 34.5t184 11.5
q187 0 305 -45.5t173.5 -152t55.5 -288.5v-629h-308l-26 105h-17q-47 -67 -120.5 -96.5t-160.5 -29.5zM183 1226l236 390h304l236 -390h-264l-150 264h52l-150 -264h-264zM843 1598l-238 270h315l182 -270h-259z" />
    <glyph glyph-name="uni1EA8" unicode="&#x1ea8;" horiz-adv-x="1497" 
d="M8 0l459 1480h563l458 -1480h-376l-384 1315h36l-383 -1315h-373zM361 365l81 302h611l80 -302h-772zM331 1590l259 272h316l259 -272h-279l-166 186h56l-166 -186h-279zM1006 1823q2 38 28 59.5t58 35t56 24.5t24 26t-26 22.5t-81 7.5q-45 0 -93 -4.5t-99 -15.5v116
q44 10 107 16t115 6q141 0 206 -31t65 -93q0 -37 -25 -59.5t-59 -38t-61.5 -31.5t-31.5 -40h-183z" />
    <glyph glyph-name="uni1EA9" unicode="&#x1ea9;" horiz-adv-x="1149" 
d="M417 -21q-173 0 -268.5 90.5t-95.5 233.5q0 159 112 249t364 105l208 14l42 -202l-209 -14q-78 -5 -113 -34.5t-35 -80.5q0 -49 31.5 -76t90.5 -27q34 0 70.5 10t67.5 35v372q0 66 -22 105t-74 56t-141 17q-64 0 -144.5 -10.5t-153.5 -31.5v279q85 23 184 34.5t184 11.5
q187 0 305 -45.5t173.5 -152t55.5 -288.5v-629h-308l-26 105h-17q-47 -67 -120.5 -96.5t-160.5 -29.5zM183 1226l236 390h304l236 -390h-264l-150 264h52l-150 -264h-264zM806 1598q3 40 26 63t52 36t50.5 23t21.5 23q0 16 -23 23.5t-74 7.5q-44 0 -91 -4.5t-88 -14.5v113
q39 10 99.5 16t108.5 6q132 0 193 -29t61 -94q0 -35 -23 -55t-54.5 -34.5t-57.5 -32t-30 -47.5h-171z" />
    <glyph glyph-name="uni1EAA" unicode="&#x1eaa;" horiz-adv-x="1497" 
d="M8 0l459 1480h563l458 -1480h-376l-384 1315h36l-383 -1315h-373zM361 365l81 302h611l80 -302h-772zM331 1590l259 272h316l259 -272h-279l-166 186h56l-166 -186h-279zM927 1905q-71 0 -132 14.5t-117 29t-112 14.5q-61 0 -113.5 -14.5t-121.5 -51.5v156q62 39 117 51
t121 12q71 0 132 -15t117 -30t112 -15q62 0 114 15t121 51v-156q-61 -38 -116 -49.5t-122 -11.5z" />
    <glyph glyph-name="uni1EAB" unicode="&#x1eab;" horiz-adv-x="1149" 
d="M417 -21q-173 0 -268.5 90.5t-95.5 233.5q0 159 112 249t364 105l208 14l42 -202l-209 -14q-78 -5 -113 -34.5t-35 -80.5q0 -49 31.5 -76t90.5 -27q34 0 70.5 10t67.5 35v372q0 66 -22 105t-74 56t-141 17q-64 0 -144.5 -10.5t-153.5 -31.5v279q85 23 184 34.5t184 11.5
q187 0 305 -45.5t173.5 -152t55.5 -288.5v-629h-308l-26 105h-17q-47 -67 -120.5 -96.5t-160.5 -29.5zM157 1228l256 321h316l256 -321h-277l-165 221h56l-165 -221h-277zM748 1607q-71 0 -130 17t-114.5 33.5t-116.5 16.5q-64 0 -111.5 -15.5t-97.5 -46.5v182q43 34 94 50
t122 16t130 -17t114.5 -34.5t116.5 -17.5q64 0 112 15.5t97 46.5v-182q-42 -33 -93.5 -48.5t-122.5 -15.5z" />
    <glyph glyph-name="uni1EAC" unicode="&#x1eac;" horiz-adv-x="1497" 
d="M8 0l459 1480h563l458 -1480h-376l-384 1315h36l-383 -1315h-373zM361 365l81 302h611l80 -302h-772zM749 -443q-113 0 -169.5 43.5t-56.5 120.5q0 78 56.5 121t169.5 43t169.5 -43t56.5 -121q0 -77 -56.5 -120.5t-169.5 -43.5zM331 1590l259 310h316l259 -310h-279
l-166 210h56l-166 -210h-279z" />
    <glyph glyph-name="uni1EAD" unicode="&#x1ead;" horiz-adv-x="1149" 
d="M417 -21q-173 0 -268.5 90.5t-95.5 233.5q0 159 112 249t364 105l208 14l42 -202l-209 -14q-78 -5 -113 -34.5t-35 -80.5q0 -49 31.5 -76t90.5 -27q34 0 70.5 10t67.5 35v372q0 66 -22 105t-74 56t-141 17q-64 0 -144.5 -10.5t-153.5 -31.5v279q85 23 184 34.5t184 11.5
q187 0 305 -45.5t173.5 -152t55.5 -288.5v-629h-308l-26 105h-17q-47 -67 -120.5 -96.5t-160.5 -29.5zM573 -474q-96 0 -147 48.5t-51 130.5q0 83 51 131.5t147 48.5q97 0 147.5 -48.5t50.5 -131.5q0 -82 -50.5 -130.5t-147.5 -48.5zM183 1226l236 390h304l236 -390h-264
l-150 264h52l-150 -264h-264z" />
    <glyph glyph-name="uni1EAE" unicode="&#x1eae;" horiz-adv-x="1497" 
d="M8 0l459 1480h563l458 -1480h-376l-384 1315h36l-383 -1315h-373zM361 365l81 302h611l80 -302h-772zM748 1592q-178 0 -271.5 73t-112.5 193h196q13 -54 52 -85t136 -31q98 0 137.5 31t58.5 85h188q-19 -120 -112 -193t-272 -73zM649 1830l106 239h250l-158 -239h-198z
" />
    <glyph glyph-name="uni1EAF" unicode="&#x1eaf;" horiz-adv-x="1149" 
d="M417 -21q-173 0 -268.5 90.5t-95.5 233.5q0 159 112 249t364 105l208 14l42 -202l-209 -14q-78 -5 -113 -34.5t-35 -80.5q0 -49 31.5 -76t90.5 -27q34 0 70.5 10t67.5 35v372q0 66 -22 105t-74 56t-141 17q-64 0 -144.5 -10.5t-153.5 -31.5v279q85 23 184 34.5t184 11.5
q187 0 305 -45.5t173.5 -152t55.5 -288.5v-629h-308l-26 105h-17q-47 -67 -120.5 -96.5t-160.5 -29.5zM571 1238q-124 0 -210 39t-134 110t-59 166h227q11 -67 53.5 -102t122.5 -35q81 0 123 35t53 102h227q-11 -95 -59 -166t-133.5 -110t-210.5 -39zM440 1598l182 270h314
l-237 -270h-259z" />
    <glyph glyph-name="uni1EB0" unicode="&#x1eb0;" horiz-adv-x="1497" 
d="M8 0l459 1480h563l458 -1480h-376l-384 1315h36l-383 -1315h-373zM361 365l81 302h611l80 -302h-772zM748 1592q-178 0 -271.5 73t-112.5 193h188q20 -54 59.5 -85t136.5 -31q98 0 136.5 31t51.5 85h196q-19 -119 -112.5 -192.5t-271.5 -73.5zM649 1830l-158 239h250
l106 -239h-198z" />
    <glyph glyph-name="uni1EB1" unicode="&#x1eb1;" horiz-adv-x="1149" 
d="M417 -21q-173 0 -268.5 90.5t-95.5 233.5q0 159 112 249t364 105l208 14l42 -202l-209 -14q-78 -5 -113 -34.5t-35 -80.5q0 -49 31.5 -76t90.5 -27q34 0 70.5 10t67.5 35v372q0 66 -22 105t-74 56t-141 17q-64 0 -144.5 -10.5t-153.5 -31.5v279q85 23 184 34.5t184 11.5
q187 0 305 -45.5t173.5 -152t55.5 -288.5v-629h-308l-26 105h-17q-47 -67 -120.5 -96.5t-160.5 -29.5zM571 1238q-124 0 -210 39t-134 110t-59 166h227q11 -67 53.5 -102t122.5 -35q81 0 123 35t53 102h227q-11 -95 -59 -166t-133.5 -110t-210.5 -39zM443 1598l-237 270h314
l182 -270h-259z" />
    <glyph glyph-name="uni1EB2" unicode="&#x1eb2;" horiz-adv-x="1497" 
d="M8 0l459 1480h563l458 -1480h-376l-384 1315h36l-383 -1315h-373zM361 365l81 302h611l80 -302h-772zM748 1592q-178 0 -271.5 73t-112.5 193h196q13 -54 52 -85t136 -31t137 31t59 85h188q-19 -119 -112.5 -192.5t-271.5 -73.5zM656 1830q3 38 28.5 60t57.5 35t56.5 24
t24.5 27q0 14 -26 21.5t-82 7.5q-45 0 -93 -4.5t-98 -14.5v115q44 10 106.5 16t114.5 6q141 0 206 -31t65 -93q0 -37 -25 -59t-59 -38t-61.5 -31.5t-31.5 -40.5h-183z" />
    <glyph glyph-name="uni1EB3" unicode="&#x1eb3;" horiz-adv-x="1149" 
d="M417 -21q-173 0 -268.5 90.5t-95.5 233.5q0 159 112 249t364 105l208 14l42 -202l-209 -14q-78 -5 -113 -34.5t-35 -80.5q0 -49 31.5 -76t90.5 -27q34 0 70.5 10t67.5 35v372q0 66 -22 105t-74 56t-141 17q-64 0 -144.5 -10.5t-153.5 -31.5v279q85 23 184 34.5t184 11.5
q187 0 305 -45.5t173.5 -152t55.5 -288.5v-629h-308l-26 105h-17q-47 -67 -120.5 -96.5t-160.5 -29.5zM571 1238q-124 0 -210 39t-134 110t-59 166h227q11 -67 53.5 -102t122.5 -35q81 0 123 35t53 102h227q-11 -95 -59 -166t-133.5 -110t-210.5 -39zM479 1598q3 37 28.5 59
t57.5 35.5t56.5 24t24.5 26.5q0 15 -26 22.5t-82 7.5q-45 0 -93 -4.5t-98 -15.5v115q44 10 106.5 16t114.5 6q141 0 206 -30.5t65 -93.5q0 -37 -25 -59t-59 -38t-61.5 -31.5t-31.5 -39.5h-183z" />
    <glyph glyph-name="uni1EB4" unicode="&#x1eb4;" horiz-adv-x="1497" 
d="M8 0l459 1480h563l458 -1480h-376l-384 1315h36l-383 -1315h-373zM361 365l81 302h611l80 -302h-772zM748 1592q-178 0 -271.5 73t-112.5 193h196q13 -54 52 -85t136 -31t136 31t52 85h196q-19 -119 -112.5 -192.5t-271.5 -73.5zM904 1905q-61 0 -114.5 14.5t-103.5 29
t-98 14.5q-57 0 -106 -14.5t-118 -51.5v156q62 39 113.5 51t114.5 12q61 0 114.5 -15t103.5 -30t98 -15q57 0 106.5 15t117.5 51v-156q-61 -38 -113 -49.5t-115 -11.5z" />
    <glyph glyph-name="uni1EB5" unicode="&#x1eb5;" horiz-adv-x="1149" 
d="M417 -21q-173 0 -268.5 90.5t-95.5 233.5q0 159 112 249t364 105l208 14l42 -202l-209 -14q-78 -5 -113 -34.5t-35 -80.5q0 -49 31.5 -76t90.5 -27q34 0 70.5 10t67.5 35v372q0 66 -22 105t-74 56t-141 17q-64 0 -144.5 -10.5t-153.5 -31.5v279q85 23 184 34.5t184 11.5
q187 0 305 -45.5t173.5 -152t55.5 -288.5v-629h-308l-26 105h-17q-47 -67 -120.5 -96.5t-160.5 -29.5zM571 1238q-124 0 -210 39t-134 110t-59 166h227q11 -67 53.5 -102t122.5 -35q81 0 123 35t53 102h227q-11 -95 -59 -166t-133.5 -110t-210.5 -39zM754 1607
q-73 0 -134 16.5t-118.5 33t-120.5 16.5q-66 0 -115.5 -15t-100.5 -46v182q44 34 96.5 50t126.5 16q73 0 134 -17t118.5 -34t120.5 -17q67 0 116.5 15.5t99.5 45.5v-182q-44 -34 -96 -49t-127 -15z" />
    <glyph glyph-name="uni1EB6" unicode="&#x1eb6;" horiz-adv-x="1497" 
d="M8 0l459 1480h563l458 -1480h-376l-384 1315h36l-383 -1315h-373zM361 365l81 302h611l80 -302h-772zM749 -443q-113 0 -169.5 43.5t-56.5 120.5q0 78 56.5 121t169.5 43t169.5 -43t56.5 -121q0 -77 -56.5 -120.5t-169.5 -43.5zM748 1592q-126 0 -212 38t-134 106.5
t-60 159.5h227q12 -61 54.5 -93.5t124.5 -32.5q83 0 125 32.5t54 93.5h227q-12 -92 -60 -160t-134 -106t-212 -38z" />
    <glyph glyph-name="uni1EB7" unicode="&#x1eb7;" horiz-adv-x="1149" 
d="M417 -21q-173 0 -268.5 90.5t-95.5 233.5q0 159 112 249t364 105l208 14l42 -202l-209 -14q-78 -5 -113 -34.5t-35 -80.5q0 -49 31.5 -76t90.5 -27q34 0 70.5 10t67.5 35v372q0 66 -22 105t-74 56t-141 17q-64 0 -144.5 -10.5t-153.5 -31.5v279q85 23 184 34.5t184 11.5
q187 0 305 -45.5t173.5 -152t55.5 -288.5v-629h-308l-26 105h-17q-47 -67 -120.5 -96.5t-160.5 -29.5zM573 -474q-96 0 -147 48.5t-51 130.5q0 83 51 131.5t147 48.5q97 0 147.5 -48.5t50.5 -131.5q0 -82 -50.5 -130.5t-147.5 -48.5zM571 1235q-175 0 -276 91t-111 269h224
q8 -88 48 -131t115 -43q77 0 116.5 43t46.5 131h224q-9 -178 -110 -269t-277 -91z" />
    <glyph glyph-name="uni1EB8" unicode="&#x1eb8;" horiz-adv-x="1286" 
d="M120 0v1480h1084v-304h-705v-872h715v-304h-1094zM345 604v304h756v-304h-756zM684 -443q-113 0 -169.5 43.5t-56.5 120.5q0 78 56.5 121t169.5 43t169.5 -43t56.5 -121q0 -77 -56.5 -120.5t-169.5 -43.5z" />
    <glyph glyph-name="uni1EB9" unicode="&#x1eb9;" horiz-adv-x="1138" 
d="M693 -21q-220 0 -360 59.5t-206.5 185.5t-66.5 326q0 177 61.5 304t180.5 194t291 67q164 0 274 -67.5t165.5 -197t55.5 -313.5v-95h-812v211h520l-56 -18q0 92 -16 146.5t-50 77t-85 22.5q-52 0 -86 -22.5t-51 -76.5t-17 -146v-154q0 -83 25.5 -131.5t93 -69.5
t193.5 -21q65 0 136.5 8.5t141.5 22.5v-278q-90 -18 -171 -26t-161 -8zM586 -474q-96 0 -147 48.5t-51 130.5q0 83 51 131.5t147 48.5q97 0 147.5 -48.5t50.5 -131.5q0 -82 -50.5 -130.5t-147.5 -48.5z" />
    <glyph glyph-name="uni1EBA" unicode="&#x1eba;" horiz-adv-x="1286" 
d="M120 0v1480h1084v-304h-705v-872h715v-304h-1094zM345 604v304h756v-304h-756zM592 1590q4 53 40.5 78.5t71.5 41.5q23 11 39 20.5t16 23.5q0 18 -26 26t-82 8q-45 0 -93 -5t-98 -17v134q44 12 106.5 18t114.5 6q141 0 206 -35.5t65 -105.5q0 -48 -33 -74.5t-69 -46.5
q-27 -15 -49 -31.5t-26 -40.5h-183z" />
    <glyph glyph-name="uni1EBB" unicode="&#x1ebb;" horiz-adv-x="1138" 
d="M693 -21q-220 0 -360 59.5t-206.5 185.5t-66.5 326q0 177 61.5 304t180.5 194t291 67q164 0 274 -67.5t165.5 -197t55.5 -313.5v-95h-812v211h520l-56 -18q0 92 -16 146.5t-50 77t-85 22.5q-52 0 -86 -22.5t-51 -76.5t-17 -146v-154q0 -83 25.5 -131.5t93 -69.5
t193.5 -21q65 0 136.5 8.5t141.5 22.5v-278q-90 -18 -171 -26t-161 -8zM494 1226q3 56 26 88.5t51.5 53t50 37.5t21.5 41q0 22 -21.5 32t-69.5 10q-39 0 -81 -5.5t-88 -18.5v138q40 13 96 19.5t101 6.5q131 0 193.5 -38.5t62.5 -119.5q0 -53 -22 -83t-52 -51t-55 -45
t-30 -65h-183z" />
    <glyph glyph-name="uni1EBC" unicode="&#x1ebc;" horiz-adv-x="1286" 
d="M120 0v1480h1084v-304h-705v-872h715v-304h-1094zM345 604v304h756v-304h-756zM863 1601q-56 0 -103.5 13t-93.5 27q-40 14 -81 25t-86 11q-65 0 -113 -17t-97 -53v210q43 39 94 57t122 18q57 0 104.5 -13t92.5 -28q41 -13 82 -25t85 -12q65 0 113 17.5t97 53.5v-211
q-42 -38 -93.5 -55.5t-122.5 -17.5z" />
    <glyph glyph-name="uni1EBD" unicode="&#x1ebd;" horiz-adv-x="1138" 
d="M693 -21q-220 0 -360 59.5t-206.5 185.5t-66.5 326q0 177 61.5 304t180.5 194t291 67q164 0 274 -67.5t165.5 -197t55.5 -313.5v-95h-812v211h520l-56 -18q0 92 -16 146.5t-50 77t-85 22.5q-52 0 -86 -22.5t-51 -76.5t-17 -146v-154q0 -83 25.5 -131.5t93 -69.5
t193.5 -21q65 0 136.5 8.5t141.5 22.5v-278q-90 -18 -171 -26t-161 -8zM749 1263q-50 0 -94.5 16.5t-86.5 34.5q-38 18 -75.5 31.5t-76.5 13.5q-59 0 -106 -20.5t-96 -67.5v230q81 81 209 81q50 0 94.5 -16t86.5 -35q38 -17 75.5 -31t76.5 -14q59 0 106 21.5t96 67.5v-231
q-81 -81 -209 -81z" />
    <glyph glyph-name="uni1EBE" unicode="&#x1ebe;" horiz-adv-x="1286" 
d="M120 0v1480h1084v-304h-705v-872h715v-304h-1094zM345 604v304h756v-304h-756zM267 1590l259 272h316l259 -272h-279l-166 186h56l-166 -186h-279zM943 1823l107 241h249l-157 -241h-199z" />
    <glyph glyph-name="uni1EBF" unicode="&#x1ebf;" horiz-adv-x="1138" 
d="M693 -21q-220 0 -360 59.5t-206.5 185.5t-66.5 326q0 177 61.5 304t180.5 194t291 67q164 0 274 -67.5t165.5 -197t55.5 -313.5v-95h-812v211h520l-56 -18q0 92 -16 146.5t-50 77t-85 22.5q-52 0 -86 -22.5t-51 -76.5t-17 -146v-154q0 -83 25.5 -131.5t93 -69.5
t193.5 -21q65 0 136.5 8.5t141.5 22.5v-278q-90 -18 -171 -26t-161 -8zM198 1226l236 390h304l236 -390h-264l-150 264h52l-150 -264h-264zM821 1598l182 270h314l-237 -270h-259z" />
    <glyph glyph-name="uni1EC0" unicode="&#x1ec0;" horiz-adv-x="1286" 
d="M120 0v1480h1084v-304h-705v-872h715v-304h-1094zM345 604v304h756v-304h-756zM268 1590l259 272h316l259 -272h-279l-166 186h56l-166 -186h-279zM981 1823l-157 241h249l107 -241h-199z" />
    <glyph glyph-name="uni1EC1" unicode="&#x1ec1;" horiz-adv-x="1138" 
d="M693 -21q-220 0 -360 59.5t-206.5 185.5t-66.5 326q0 177 61.5 304t180.5 194t291 67q164 0 274 -67.5t165.5 -197t55.5 -313.5v-95h-812v211h520l-56 -18q0 92 -16 146.5t-50 77t-85 22.5q-52 0 -86 -22.5t-51 -76.5t-17 -146v-154q0 -83 25.5 -131.5t93 -69.5
t193.5 -21q65 0 136.5 8.5t141.5 22.5v-278q-90 -18 -171 -26t-161 -8zM198 1226l236 390h304l236 -390h-264l-150 264h52l-150 -264h-264zM858 1598l-238 270h315l182 -270h-259z" />
    <glyph glyph-name="uni1EC2" unicode="&#x1ec2;" horiz-adv-x="1286" 
d="M120 0v1480h1084v-304h-705v-872h715v-304h-1094zM345 604v304h756v-304h-756zM267 1590l259 272h316l259 -272h-279l-166 186h56l-166 -186h-279zM942 1823q2 38 28 59.5t58 35t56 24.5t24 26t-26 22.5t-81 7.5q-45 0 -93 -4.5t-99 -15.5v116q44 10 107 16t115 6
q141 0 206 -31t65 -93q0 -37 -25 -59.5t-59 -38t-61.5 -31.5t-31.5 -40h-183z" />
    <glyph glyph-name="uni1EC3" unicode="&#x1ec3;" horiz-adv-x="1138" 
d="M693 -21q-220 0 -360 59.5t-206.5 185.5t-66.5 326q0 177 61.5 304t180.5 194t291 67q164 0 274 -67.5t165.5 -197t55.5 -313.5v-95h-812v211h520l-56 -18q0 92 -16 146.5t-50 77t-85 22.5q-52 0 -86 -22.5t-51 -76.5t-17 -146v-154q0 -83 25.5 -131.5t93 -69.5
t193.5 -21q65 0 136.5 8.5t141.5 22.5v-278q-90 -18 -171 -26t-161 -8zM198 1226l236 390h304l236 -390h-264l-150 264h52l-150 -264h-264zM821 1598q3 40 26 63t52 36t50.5 23t21.5 23q0 16 -23 23.5t-74 7.5q-44 0 -91 -4.5t-88 -14.5v113q39 10 99.5 16t108.5 6
q132 0 193 -29t61 -94q0 -35 -23 -55t-54.5 -34.5t-57.5 -32t-30 -47.5h-171z" />
    <glyph glyph-name="uni1EC4" unicode="&#x1ec4;" horiz-adv-x="1286" 
d="M120 0v1480h1084v-304h-705v-872h715v-304h-1094zM345 604v304h756v-304h-756zM267 1590l259 272h316l259 -272h-279l-166 186h56l-166 -186h-279zM863 1905q-71 0 -132 14.5t-117 29t-112 14.5q-61 0 -113.5 -14.5t-121.5 -51.5v156q62 39 117 51t121 12q71 0 132 -15
t117 -30t112 -15q62 0 114 15t121 51v-156q-61 -38 -116 -49.5t-122 -11.5z" />
    <glyph glyph-name="uni1EC5" unicode="&#x1ec5;" horiz-adv-x="1138" 
d="M693 -21q-220 0 -360 59.5t-206.5 185.5t-66.5 326q0 177 61.5 304t180.5 194t291 67q164 0 274 -67.5t165.5 -197t55.5 -313.5v-95h-812v211h520l-56 -18q0 92 -16 146.5t-50 77t-85 22.5q-52 0 -86 -22.5t-51 -76.5t-17 -146v-154q0 -83 25.5 -131.5t93 -69.5
t193.5 -21q65 0 136.5 8.5t141.5 22.5v-278q-90 -18 -171 -26t-161 -8zM172 1228l256 321h316l256 -321h-277l-165 221h56l-165 -221h-277zM763 1607q-71 0 -130 17t-114.5 33.5t-116.5 16.5q-64 0 -111.5 -15.5t-97.5 -46.5v182q43 34 94 50t122 16t130 -17t114.5 -34.5
t116.5 -17.5q64 0 112 15.5t97 46.5v-182q-42 -33 -93.5 -48.5t-122.5 -15.5z" />
    <glyph glyph-name="uni1EC6" unicode="&#x1ec6;" horiz-adv-x="1286" 
d="M120 0v1480h1084v-304h-705v-872h715v-304h-1094zM345 604v304h756v-304h-756zM684 -443q-113 0 -169.5 43.5t-56.5 120.5q0 78 56.5 121t169.5 43t169.5 -43t56.5 -121q0 -77 -56.5 -120.5t-169.5 -43.5zM267 1590l259 310h316l259 -310h-279l-166 210h56l-166 -210
h-279z" />
    <glyph glyph-name="uni1EC7" unicode="&#x1ec7;" horiz-adv-x="1138" 
d="M693 -21q-220 0 -360 59.5t-206.5 185.5t-66.5 326q0 177 61.5 304t180.5 194t291 67q164 0 274 -67.5t165.5 -197t55.5 -313.5v-95h-812v211h520l-56 -18q0 92 -16 146.5t-50 77t-85 22.5q-52 0 -86 -22.5t-51 -76.5t-17 -146v-154q0 -83 25.5 -131.5t93 -69.5
t193.5 -21q65 0 136.5 8.5t141.5 22.5v-278q-90 -18 -171 -26t-161 -8zM586 -474q-96 0 -147 48.5t-51 130.5q0 83 51 131.5t147 48.5q97 0 147.5 -48.5t50.5 -131.5q0 -82 -50.5 -130.5t-147.5 -48.5zM198 1226l236 390h304l236 -390h-264l-150 264h52l-150 -264h-264z" />
    <glyph glyph-name="uni1EC8" unicode="&#x1ec8;" horiz-adv-x="624" 
d="M120 0v1480h384v-1480h-384zM220 1590q4 53 40.5 78.5t71.5 41.5q23 11 39 20.5t16 23.5q0 18 -26 26t-82 8q-45 0 -93 -5t-98 -17v134q44 12 106.5 18t114.5 6q141 0 206 -35.5t65 -105.5q0 -48 -33 -74.5t-69 -46.5q-27 -15 -49 -31.5t-26 -40.5h-183z" />
    <glyph glyph-name="uni1EC9" unicode="&#x1ec9;" horiz-adv-x="591" 
d="M107 0v1097h377v-1097h-377zM204 1226q3 56 26 88.5t51.5 53t50 37.5t21.5 41q0 22 -21.5 32t-69.5 10q-39 0 -81 -5.5t-88 -18.5v138q40 13 96 19.5t101 6.5q131 0 193.5 -38.5t62.5 -119.5q0 -53 -22 -83t-52 -51t-55 -45t-30 -65h-183z" />
    <glyph glyph-name="uni1ECA" unicode="&#x1eca;" horiz-adv-x="624" 
d="M120 0v1480h384v-1480h-384zM311 -443q-113 0 -169.5 43.5t-56.5 120.5q0 78 56.5 121t169.5 43t169.5 -43t56.5 -121q0 -77 -56.5 -120.5t-169.5 -43.5z" />
    <glyph glyph-name="uni1ECB" unicode="&#x1ecb;" horiz-adv-x="591" 
d="M107 0v1097h377v-1097h-377zM296 1229q-117 0 -172.5 49.5t-55.5 139.5q0 92 55.5 141.5t172.5 49.5q118 0 173 -49.5t55 -141.5q0 -90 -55 -139.5t-173 -49.5zM296 -474q-96 0 -147 48.5t-51 130.5q0 83 51 131.5t147 48.5q97 0 147.5 -48.5t50.5 -131.5
q0 -82 -50.5 -130.5t-147.5 -48.5z" />
    <glyph glyph-name="uni1ECC" unicode="&#x1ecc;" horiz-adv-x="1606" 
d="M803 -20q-220 0 -383.5 84t-253.5 253t-90 423t90 423t253.5 253t383.5 84q221 0 384.5 -84.5t253.5 -253.5t90 -422t-90 -422t-254 -253.5t-384 -84.5zM803 288q107 0 181.5 46t113.5 144t39 255q0 164 -39.5 265t-114.5 147.5t-180 46.5t-179.5 -45.5t-114.5 -143.5
t-40 -256q0 -165 39.5 -266t114 -147t180.5 -46zM803 -443q-113 0 -169.5 43.5t-56.5 120.5q0 78 56.5 121t169.5 43t169.5 -43t56.5 -121q0 -77 -56.5 -120.5t-169.5 -43.5z" />
    <glyph glyph-name="uni1ECD" unicode="&#x1ecd;" horiz-adv-x="1238" 
d="M619 -21q-172 0 -297.5 63.5t-193.5 189.5t-68 313q0 189 66 315.5t191 190.5t302 64t302 -64.5t190.5 -191t65.5 -312.5q0 -188 -67.5 -314.5t-193 -190t-297.5 -63.5zM619 260q58 0 98.5 25.5t61 87.5t20.5 172q0 112 -21 174.5t-61.5 88t-97.5 25.5q-58 0 -98.5 -25
t-61.5 -87.5t-21 -173.5t21 -173.5t61 -88t99 -25.5zM619 -474q-96 0 -147 48.5t-51 130.5q0 83 51 131.5t147 48.5q97 0 147.5 -48.5t50.5 -131.5q0 -82 -50.5 -130.5t-147.5 -48.5z" />
    <glyph glyph-name="uni1ECE" unicode="&#x1ece;" horiz-adv-x="1606" 
d="M803 -20q-220 0 -383.5 84t-253.5 253t-90 423t90 423t253.5 253t383.5 84q221 0 384.5 -84.5t253.5 -253.5t90 -422t-90 -422t-254 -253.5t-384 -84.5zM803 288q107 0 181.5 46t113.5 144t39 255q0 164 -39.5 265t-114.5 147.5t-180 46.5t-179.5 -45.5t-114.5 -143.5
t-40 -256q0 -165 39.5 -266t114 -147t180.5 -46zM711 1590q4 53 40.5 78.5t71.5 41.5q23 11 39 20.5t16 23.5q0 18 -26 26t-82 8q-45 0 -93 -5t-98 -17v134q44 12 106.5 18t114.5 6q141 0 206 -35.5t65 -105.5q0 -48 -33 -74.5t-69 -46.5q-27 -15 -49 -31.5t-26 -40.5h-183z
" />
    <glyph glyph-name="uni1ECF" unicode="&#x1ecf;" horiz-adv-x="1238" 
d="M619 -21q-172 0 -297.5 63.5t-193.5 189.5t-68 313q0 189 66 315.5t191 190.5t302 64t302 -64.5t190.5 -191t65.5 -312.5q0 -188 -67.5 -314.5t-193 -190t-297.5 -63.5zM619 260q58 0 98.5 25.5t61 87.5t20.5 172q0 112 -21 174.5t-61.5 88t-97.5 25.5q-58 0 -98.5 -25
t-61.5 -87.5t-21 -173.5t21 -173.5t61 -88t99 -25.5zM527 1226q3 56 26 88.5t51.5 53t50 37.5t21.5 41q0 22 -21.5 32t-69.5 10q-39 0 -81 -5.5t-88 -18.5v138q40 13 96 19.5t101 6.5q131 0 193.5 -38.5t62.5 -119.5q0 -53 -22 -83t-52 -51t-55 -45t-30 -65h-183z" />
    <glyph glyph-name="uni1ED0" unicode="&#x1ed0;" horiz-adv-x="1606" 
d="M803 -20q-220 0 -383.5 84t-253.5 253t-90 423t90 423t253.5 253t383.5 84q221 0 384.5 -84.5t253.5 -253.5t90 -422t-90 -422t-254 -253.5t-384 -84.5zM803 288q107 0 181.5 46t113.5 144t39 255q0 164 -39.5 265t-114.5 147.5t-180 46.5t-179.5 -45.5t-114.5 -143.5
t-40 -256q0 -165 39.5 -266t114 -147t180.5 -46zM386 1590l259 272h316l259 -272h-279l-166 186h56l-166 -186h-279zM1062 1823l107 241h249l-157 -241h-199z" />
    <glyph glyph-name="uni1ED1" unicode="&#x1ed1;" horiz-adv-x="1238" 
d="M619 -21q-172 0 -297.5 63.5t-193.5 189.5t-68 313q0 189 66 315.5t191 190.5t302 64t302 -64.5t190.5 -191t65.5 -312.5q0 -188 -67.5 -314.5t-193 -190t-297.5 -63.5zM619 260q58 0 98.5 25.5t61 87.5t20.5 172q0 112 -21 174.5t-61.5 88t-97.5 25.5q-58 0 -98.5 -25
t-61.5 -87.5t-21 -173.5t21 -173.5t61 -88t99 -25.5zM231 1226l236 390h304l236 -390h-264l-150 264h52l-150 -264h-264zM854 1598l182 270h314l-237 -270h-259z" />
    <glyph glyph-name="uni1ED2" unicode="&#x1ed2;" horiz-adv-x="1606" 
d="M803 -20q-220 0 -383.5 84t-253.5 253t-90 423t90 423t253.5 253t383.5 84q221 0 384.5 -84.5t253.5 -253.5t90 -422t-90 -422t-254 -253.5t-384 -84.5zM803 288q107 0 181.5 46t113.5 144t39 255q0 164 -39.5 265t-114.5 147.5t-180 46.5t-179.5 -45.5t-114.5 -143.5
t-40 -256q0 -165 39.5 -266t114 -147t180.5 -46zM387 1590l259 272h316l259 -272h-279l-166 186h56l-166 -186h-279zM1100 1823l-157 241h249l107 -241h-199z" />
    <glyph glyph-name="uni1ED3" unicode="&#x1ed3;" horiz-adv-x="1238" 
d="M619 -21q-172 0 -297.5 63.5t-193.5 189.5t-68 313q0 189 66 315.5t191 190.5t302 64t302 -64.5t190.5 -191t65.5 -312.5q0 -188 -67.5 -314.5t-193 -190t-297.5 -63.5zM619 260q58 0 98.5 25.5t61 87.5t20.5 172q0 112 -21 174.5t-61.5 88t-97.5 25.5q-58 0 -98.5 -25
t-61.5 -87.5t-21 -173.5t21 -173.5t61 -88t99 -25.5zM231 1226l236 390h304l236 -390h-264l-150 264h52l-150 -264h-264zM891 1598l-238 270h315l182 -270h-259z" />
    <glyph glyph-name="uni1ED4" unicode="&#x1ed4;" horiz-adv-x="1606" 
d="M803 -20q-220 0 -383.5 84t-253.5 253t-90 423t90 423t253.5 253t383.5 84q221 0 384.5 -84.5t253.5 -253.5t90 -422t-90 -422t-254 -253.5t-384 -84.5zM803 288q107 0 181.5 46t113.5 144t39 255q0 164 -39.5 265t-114.5 147.5t-180 46.5t-179.5 -45.5t-114.5 -143.5
t-40 -256q0 -165 39.5 -266t114 -147t180.5 -46zM386 1590l259 272h316l259 -272h-279l-166 186h56l-166 -186h-279zM1061 1823q2 38 28 59.5t58 35t56 24.5t24 26t-26 22.5t-81 7.5q-45 0 -93 -4.5t-99 -15.5v116q44 10 107 16t115 6q141 0 206 -31t65 -93q0 -37 -25 -59.5
t-59 -38t-61.5 -31.5t-31.5 -40h-183z" />
    <glyph glyph-name="uni1ED5" unicode="&#x1ed5;" horiz-adv-x="1238" 
d="M619 -21q-172 0 -297.5 63.5t-193.5 189.5t-68 313q0 189 66 315.5t191 190.5t302 64t302 -64.5t190.5 -191t65.5 -312.5q0 -188 -67.5 -314.5t-193 -190t-297.5 -63.5zM619 260q58 0 98.5 25.5t61 87.5t20.5 172q0 112 -21 174.5t-61.5 88t-97.5 25.5q-58 0 -98.5 -25
t-61.5 -87.5t-21 -173.5t21 -173.5t61 -88t99 -25.5zM231 1226l236 390h304l236 -390h-264l-150 264h52l-150 -264h-264zM854 1598q3 40 26 63t52 36t50.5 23t21.5 23q0 16 -23 23.5t-74 7.5q-44 0 -91 -4.5t-88 -14.5v113q39 10 99.5 16t108.5 6q132 0 193 -29t61 -94
q0 -35 -23 -55t-54.5 -34.5t-57.5 -32t-30 -47.5h-171z" />
    <glyph glyph-name="uni1ED6" unicode="&#x1ed6;" horiz-adv-x="1606" 
d="M803 -20q-220 0 -383.5 84t-253.5 253t-90 423t90 423t253.5 253t383.5 84q221 0 384.5 -84.5t253.5 -253.5t90 -422t-90 -422t-254 -253.5t-384 -84.5zM803 288q107 0 181.5 46t113.5 144t39 255q0 164 -39.5 265t-114.5 147.5t-180 46.5t-179.5 -45.5t-114.5 -143.5
t-40 -256q0 -165 39.5 -266t114 -147t180.5 -46zM386 1590l259 272h316l259 -272h-279l-166 186h56l-166 -186h-279zM982 1905q-71 0 -132 14.5t-117 29t-112 14.5q-61 0 -113.5 -14.5t-121.5 -51.5v156q62 39 117 51t121 12q71 0 132 -15t117 -30t112 -15q62 0 114 15
t121 51v-156q-61 -38 -116 -49.5t-122 -11.5z" />
    <glyph glyph-name="uni1ED7" unicode="&#x1ed7;" horiz-adv-x="1238" 
d="M619 -21q-172 0 -297.5 63.5t-193.5 189.5t-68 313q0 189 66 315.5t191 190.5t302 64t302 -64.5t190.5 -191t65.5 -312.5q0 -188 -67.5 -314.5t-193 -190t-297.5 -63.5zM619 260q58 0 98.5 25.5t61 87.5t20.5 172q0 112 -21 174.5t-61.5 88t-97.5 25.5q-58 0 -98.5 -25
t-61.5 -87.5t-21 -173.5t21 -173.5t61 -88t99 -25.5zM205 1228l256 321h316l256 -321h-277l-165 221h56l-165 -221h-277zM796 1607q-71 0 -130 17t-114.5 33.5t-116.5 16.5q-64 0 -111.5 -15.5t-97.5 -46.5v182q43 34 94 50t122 16t130 -17t114.5 -34.5t116.5 -17.5
q64 0 112 15.5t97 46.5v-182q-42 -33 -93.5 -48.5t-122.5 -15.5z" />
    <glyph glyph-name="uni1ED8" unicode="&#x1ed8;" horiz-adv-x="1606" 
d="M803 -20q-220 0 -383.5 84t-253.5 253t-90 423t90 423t253.5 253t383.5 84q221 0 384.5 -84.5t253.5 -253.5t90 -422t-90 -422t-254 -253.5t-384 -84.5zM803 288q107 0 181.5 46t113.5 144t39 255q0 164 -39.5 265t-114.5 147.5t-180 46.5t-179.5 -45.5t-114.5 -143.5
t-40 -256q0 -165 39.5 -266t114 -147t180.5 -46zM803 -443q-113 0 -169.5 43.5t-56.5 120.5q0 78 56.5 121t169.5 43t169.5 -43t56.5 -121q0 -77 -56.5 -120.5t-169.5 -43.5zM386 1590l259 310h316l259 -310h-279l-166 210h56l-166 -210h-279z" />
    </font>
</defs>
</svg>
