<?xml version="1.0" standalone="no"?>
<!DOCTYPE svg PUBLIC "-//W3C//DTD SVG 1.1//EN" "http://www.w3.org/Graphics/SVG/1.1/DTD/svg11.dtd" >
<svg xmlns="http://www.w3.org/2000/svg" xmlns:xlink="http://www.w3.org/1999/xlink" version="1.1">
<metadata>
Created by FontForge 20170731 at Wed Jun 24 20:56:00 2020
 By Aleksey,,,
Copyright 2020 The Encode Project Authors (https://github.com/thundernixon/Encode-Sans), with Reserved Font Name 'Encode Sans'.
</metadata>
<defs>
<font id="EncodeSans-Bold" horiz-adv-x="0" >
  <font-face 
    font-family="Encode Sans"
    font-weight="700"
    font-stretch="normal"
    units-per-em="2000"
    panose-1="0 0 0 0 0 0 0 0 0 0"
    ascent="1600"
    descent="-400"
    x-height="1094"
    cap-height="1480"
    bbox="-350 -497 2898 2245"
    underline-thickness="50"
    underline-position="-175"
    unicode-range="U+000D-FB02"
  />
<missing-glyph horiz-adv-x="1214" 
d="M607 -10q-114 0 -214.5 5.5t-216.5 20.5v1438q99 21 216.5 30.5t214.5 9.5t214.5 -9.5t216.5 -30.5v-1438q-116 -15 -216.5 -20.5t-214.5 -5.5zM607 1428q-85 0 -174 -7t-189 -21v-1322q65 -10 153.5 -16t209.5 -6t210 6t153 16v1322q-184 28 -363 28zM941 49l-335 635
l-35 64l-349 659l54 26l330 -623l35 -62l357 -674zM271 49l-57 25l357 674l35 62l330 623l54 -26l-349 -659l-35 -64z" />
    <glyph glyph-name=".notdef" horiz-adv-x="1214" 
d="M607 -10q-114 0 -214.5 5.5t-216.5 20.5v1438q99 21 216.5 30.5t214.5 9.5t214.5 -9.5t216.5 -30.5v-1438q-116 -15 -216.5 -20.5t-214.5 -5.5zM607 1428q-85 0 -174 -7t-189 -21v-1322q65 -10 153.5 -16t209.5 -6t210 6t153 16v1322q-184 28 -363 28zM941 49l-335 635
l-35 64l-349 659l54 26l330 -623l35 -62l357 -674zM271 49l-57 25l357 674l35 62l330 623l54 -26l-349 -659l-35 -64z" />
    <glyph glyph-name=".null" 
 />
    <glyph glyph-name="nonmarkingreturn" horiz-adv-x="666" 
 />
    <glyph glyph-name="NULL" 
 />
    <glyph glyph-name="NULL" 
 />
    <glyph glyph-name="CR" unicode="&#xd;" horiz-adv-x="503" 
 />
    <glyph glyph-name="space" unicode=" " horiz-adv-x="503" 
 />
    <glyph glyph-name="exclam" unicode="!" horiz-adv-x="596" 
d="M203 468l-74 496v516h339v-516l-71 -496h-194zM298 -17q-94 0 -150.5 50t-56.5 134q0 85 55.5 135t151.5 50t151.5 -51t55.5 -134q0 -82 -56.5 -133t-150.5 -51z" />
    <glyph glyph-name="quotedbl" unicode="&#x22;" horiz-adv-x="910" 
d="M141 845l-60 771h314l-60 -771h-194zM575 845l-60 771h314l-60 -771h-194z" />
    <glyph glyph-name="numbersign" unicode="#" horiz-adv-x="1254" 
d="M638 0l154 1480h245l-154 -1480h-245zM100 393v241h1054v-241h-1054zM217 0l154 1480h245l-154 -1480h-245zM100 846v241h1054v-241h-1054z" />
    <glyph glyph-name="dollar" unicode="$" horiz-adv-x="1153" 
d="M496 -19q-102 0 -208.5 15.5t-197.5 43.5v264q63 -19 134 -33t140 -21.5t127 -7.5q105 0 167 20.5t89.5 59t27.5 93.5q0 69 -45.5 108t-169.5 71l-112 29q-194 49 -293.5 152.5t-99.5 273.5q0 212 155 331t471 119q94 0 182.5 -10.5t158.5 -29.5v-264q-71 21 -156.5 32
t-163.5 11q-123 0 -193.5 -21.5t-100.5 -60.5t-30 -90q0 -65 40 -102t150 -67l111 -29q144 -35 237 -92.5t137.5 -141t44.5 -197.5q0 -142 -71 -244.5t-205.5 -157t-325.5 -54.5zM427 -240v296l300 3v-299h-300zM427 1438v282h300v-282h-300z" />
    <glyph glyph-name="percent" unicode="%" horiz-adv-x="2094" 
d="M585 0l664 1480h260l-664 -1480h-260zM485 570q-119 0 -209.5 50.5t-141 153.5t-50.5 260q0 158 50.5 261t141 153.5t209.5 50.5t209.5 -50.5t141 -153.5t50.5 -261q0 -157 -51 -260t-141 -153.5t-209 -50.5zM485 769q44 0 78 24.5t53 82.5t19 158t-19 158t-53 83t-78 25
t-78 -25t-53 -82.5t-19 -157.5t19 -158t53 -83t78 -25zM1609 -18q-119 0 -209.5 50.5t-141 153.5t-50.5 261q0 157 50.5 260.5t141 154t209.5 50.5t209.5 -50.5t141 -154t50.5 -260.5q0 -158 -50.5 -261t-141 -153.5t-209.5 -50.5zM1609 182q44 0 78 24.5t53 82t19 157.5
q0 101 -19 159t-53 82.5t-78 24.5t-77.5 -24.5t-53 -82.5t-19.5 -157q0 -100 19.5 -158.5t53 -83t77.5 -24.5z" />
    <glyph glyph-name="ampersand" unicode="&#x26;" horiz-adv-x="1602" 
d="M1455 -20l-875 588q-134 90 -207.5 168.5t-102 153.5t-28.5 155q0 213 153 333.5t467 120.5q75 0 140.5 -6t122.5 -18v-264q-53 12 -116 19.5t-123 7.5q-120 0 -190 -24t-100 -69t-30 -107q0 -42 14.5 -78t50 -73t97.5 -82l874 -588zM694 -18q-195 0 -326 52.5
t-197 147.5t-66 223q0 97 37 175t101.5 132.5t146.5 83.5l166 -125q-61 -40 -95 -96.5t-34 -134.5q0 -71 34.5 -122t102 -79t167.5 -28q110 0 194.5 38t133 125t48.5 234q0 59 -9.5 125.5t-26.5 128.5h257q17 -62 25 -127.5t8 -123.5q0 -208 -80 -348t-229.5 -210.5
t-357.5 -70.5z" />
    <glyph glyph-name="quotesingle" unicode="'" horiz-adv-x="476" 
d="M141 845l-60 771h314l-60 -771h-194z" />
    <glyph glyph-name="parenleft" unicode="(" horiz-adv-x="716" 
d="M446 -440q-182 208 -262 469t-80 559t80 559t262 469h333q-123 -152 -200 -314.5t-113 -339.5t-36 -374t36 -374t113 -339.5t200 -314.5h-333z" />
    <glyph glyph-name="parenright" unicode=")" horiz-adv-x="716" 
d="M-63 -440q123 152 200 314.5t112.5 339.5t35.5 374t-35.5 374t-112.5 339.5t-200 314.5h333q182 -208 262 -469t80 -559t-80 -559t-262 -469h-333z" />
    <glyph glyph-name="asterisk" unicode="*" horiz-adv-x="1006" 
d="M621 1138l139 -132l93 -127l-172 -124l-92 126l-86 184l-87 -184l-92 -126l-171 124l92 127l139 132l-187 26l-167 54l66 201l166 -55l171 -93l-36 192v153h212v-153l-36 -192l171 93l166 55l66 -201l-167 -54z" />
    <glyph glyph-name="plus" unicode="+" horiz-adv-x="1100" 
d="M423 319v319h-306v244h306v319h254v-319h306v-244h-306v-319h-254z" />
    <glyph glyph-name="comma" unicode="," horiz-adv-x="556" 
d="M145 -342q49 107 76.5 198t27.5 184l69 -57h-40q-93 0 -150 52.5t-57 141.5q0 91 55 142t147 51q103 0 156.5 -63t53.5 -189q0 -121 -42.5 -242.5t-113.5 -217.5h-182z" />
    <glyph glyph-name="hyphen" unicode="-" horiz-adv-x="909" 
d="M117 437v260h675v-260h-675z" />
    <glyph glyph-name="period" unicode="." horiz-adv-x="556" 
d="M278 -17q-94 0 -150.5 52t-56.5 141q0 90 55.5 142t151.5 52t151.5 -53t55.5 -141q0 -87 -56.5 -140t-150.5 -53z" />
    <glyph glyph-name="slash" unicode="/" horiz-adv-x="788" 
d="M0 -240l474 1856h314l-474 -1856h-314z" />
    <glyph glyph-name="zero" unicode="0" horiz-adv-x="1338" 
d="M669 -19q-179 0 -308 79t-198 247t-69 433t69 433t197.5 247t308.5 79q179 0 308 -79t198 -247t69 -433t-69.5 -433t-198.5 -247t-307 -79zM669 247q81 0 138 44.5t87.5 151.5t30.5 296t-30.5 297t-87.5 152.5t-138 44.5q-80 0 -138 -44.5t-88 -151.5t-30 -296t30 -297
t87.5 -152.5t138.5 -44.5z" />
    <glyph glyph-name="one" unicode="1" horiz-adv-x="831" 
d="M363 0v1291l116 -110l-452 -312v303l452 313h209v-1485h-325z" />
    <glyph glyph-name="two" unicode="2" horiz-adv-x="1074" 
d="M48 0v174l409 510q63 80 101 142t54.5 113.5t16.5 100.5q0 101 -63.5 149.5t-207.5 48.5q-88 0 -174 -15.5t-154 -42.5v264q44 16 105.5 28.5t128.5 19.5t129 7q274 0 415 -102.5t141 -325.5q0 -75 -19.5 -149.5t-66 -156t-125.5 -177.5l-330 -402l-9 82h621v-268h-972z
" />
    <glyph glyph-name="three" unicode="3" horiz-adv-x="1087" 
d="M428 -19q-103 0 -200.5 13t-184.5 38v243q85 -24 184 -38t188 -14q160 0 233 53t73 155q0 98 -69.5 150.5t-234.5 52.5h-217v246h168q160 0 229.5 51t69.5 143q0 90 -63.5 136.5t-200.5 46.5q-83 0 -170.5 -14t-163.5 -41v243q48 16 110 28.5t129 19t130 6.5
q269 0 404.5 -103.5t135.5 -292.5q0 -134 -76.5 -226t-211.5 -121l1 16q161 -24 248 -115.5t87 -245.5q0 -134 -65.5 -230.5t-198.5 -148t-334 -51.5z" />
    <glyph glyph-name="four" unicode="4" horiz-adv-x="1273" 
d="M37 305v177l516 998h312l-510 -999l-36 74h921v-250h-1203zM757 0v555l33 425h259v-980h-292z" />
    <glyph glyph-name="five" unicode="5" horiz-adv-x="1099" 
d="M455 -19q-103 0 -201 14.5t-184 40.5v243q84 -24 183 -38.5t189 -14.5q159 0 231 53t72 155q0 69 -37 115t-132.5 72.5t-271.5 37.5l-188 10l51 811h825v-250h-668l142 140l-39 -577l-190 115l187 -11q225 -12 363 -66t201.5 -151t63.5 -238q0 -225 -151 -343t-446 -118z
" />
    <glyph glyph-name="six" unicode="6" horiz-adv-x="1250" 
d="M681 -19q-129 0 -235 40.5t-182.5 126t-118.5 220.5t-42 324q0 272 83.5 451.5t243.5 267.5t389 88q83 0 160 -9.5t142 -35.5v-248q-66 24 -139 35t-148 11q-140 0 -232 -51t-137.5 -156.5t-45.5 -267.5v-134q0 -125 18.5 -208t53 -131t83 -68.5t109.5 -20.5
q64 0 113.5 23.5t78 72t28.5 124.5q0 77 -30 126t-84.5 72.5t-128.5 23.5q-52 0 -105 -12.5t-101.5 -39t-86.5 -68.5v227q58 60 155.5 93t201.5 33q135 0 242 -47t169 -145.5t62 -253.5q0 -145 -63 -249t-179 -159t-274 -55z" />
    <glyph glyph-name="seven" unicode="7" horiz-adv-x="1023" 
d="M154 0l501 1307l107 -95h-751v268h954v-174l-478 -1306h-333z" />
    <glyph glyph-name="eight" unicode="8" horiz-adv-x="1338" 
d="M673 -19q-204 0 -335.5 49.5t-194 137t-62.5 201.5q0 132 82.5 230.5t237.5 147.5l211 -80q-118 -38 -173 -109t-55 -152q0 -96 71.5 -148.5t218.5 -52.5q143 0 210.5 48t67.5 134q0 58 -29 100t-102.5 75t-206.5 66q-185 47 -292.5 113.5t-153.5 153.5t-46 193
q0 123 63.5 215.5t189 144t312.5 51.5q249 0 387.5 -100t138.5 -274q0 -78 -29 -148t-93 -127t-169 -98l-194 82q110 53 157.5 115t47.5 144q0 88 -63.5 135t-186.5 47q-132 0 -193.5 -49t-61.5 -126q0 -56 26.5 -97t100 -76t214.5 -72q185 -50 291 -113.5t150 -146
t44 -189.5q0 -122 -64.5 -218.5t-193.5 -151.5t-323 -55z" />
    <glyph glyph-name="nine" unicode="9" horiz-adv-x="1250" 
d="M569 1499q129 0 235 -40.5t182.5 -126t118.5 -220.5t42 -324q0 -272 -83.5 -451.5t-243.5 -267.5t-389 -88q-83 0 -160 9.5t-142 35.5v248q66 -24 139 -35t148 -11q140 0 232 51t137.5 156.5t45.5 267.5v134q0 125 -18.5 208t-53 131t-83 68.5t-109.5 20.5
q-64 0 -113.5 -23.5t-78 -72t-28.5 -124.5q0 -77 30 -126t84.5 -72.5t128.5 -23.5q52 0 105 12.5t101.5 39t86.5 68.5v-227q-58 -60 -155.5 -93t-201.5 -33q-135 0 -242 47t-169 145.5t-62 253.5q0 145 63 249t179 159t274 55z" />
    <glyph glyph-name="colon" unicode=":" horiz-adv-x="556" 
d="M278 -17q-94 0 -150.5 52t-56.5 141q0 90 55.5 142t151.5 52t151.5 -53t55.5 -141q0 -87 -56.5 -140t-150.5 -53zM278 724q-94 0 -150.5 52t-56.5 141q0 90 55.5 142t151.5 52t151.5 -53t55.5 -141q0 -87 -56.5 -140t-150.5 -53z" />
    <glyph glyph-name="semicolon" unicode=";" horiz-adv-x="556" 
d="M145 -342q49 107 76.5 198t27.5 184l69 -57h-40q-93 0 -150 52.5t-57 141.5q0 91 55 142t147 51q103 0 156.5 -63t53.5 -189q0 -121 -42.5 -242.5t-113.5 -217.5h-182zM278 724q-94 0 -150.5 52t-56.5 141q0 90 55.5 142t151.5 52t151.5 -53t55.5 -141q0 -87 -56.5 -140
t-150.5 -53z" />
    <glyph glyph-name="less" unicode="&#x3c;" horiz-adv-x="1100" 
d="M983 280l-866 329v302l866 329v-246l-687 -250v36l687 -254v-246z" />
    <glyph glyph-name="equal" unicode="=" horiz-adv-x="1100" 
d="M117 861v244h866v-244h-866zM117 415v244h866v-244h-866z" />
    <glyph glyph-name="greater" unicode="&#x3e;" horiz-adv-x="1100" 
d="M117 280v246l687 254v-36l-687 250v246l866 -329v-302z" />
    <glyph glyph-name="question" unicode="?" horiz-adv-x="991" 
d="M346 463l-55 367q132 28 206 63t103.5 79.5t29.5 100.5q0 87 -64 132t-203 45q-82 0 -169 -14t-163 -41v250q48 16 110 28.5t129 19t130 6.5q270 0 405.5 -104t135.5 -296q0 -107 -43.5 -187.5t-127.5 -138t-206 -95.5l-23 -215h-195zM444 -17q-94 0 -150.5 50t-56.5 134
q0 85 55.5 135t151.5 50t151 -51t55 -134q0 -82 -56 -133t-150 -51z" />
    <glyph glyph-name="at" unicode="@" horiz-adv-x="2091" 
d="M1092 -460q-325 0 -550 104t-341.5 320.5t-116.5 555.5q0 338 114.5 554.5t331.5 320t523 103.5q308 0 521 -101t323 -303.5t110 -509.5q0 -221 -58 -353.5t-160 -191.5t-235 -59q-113 0 -190.5 38t-121.5 112h-17q-38 -81 -117 -115.5t-171 -34.5q-167 0 -261 86.5
t-94 229.5q0 155 107 240.5t345 103.5l233 20l34 -172l-237 -20q-86 -7 -127 -40.5t-41 -97.5t40 -95t105 -31q41 0 90 16.5t84 52.5v388q0 73 -24 115.5t-77 60.5t-140 18q-64 0 -143 -13t-151 -39l2 240q78 27 171 40.5t178 13.5q170 0 279.5 -42.5t162.5 -141t53 -265.5
v-339q0 -65 25.5 -93.5t72.5 -28.5q46 0 82.5 32t57.5 116.5t21 240.5q0 192 -44.5 328t-135 221.5t-228.5 126t-324 40.5q-184 0 -321.5 -42.5t-227.5 -133.5t-135 -238t-45 -357q0 -211 45.5 -359t139.5 -239.5t239 -134t344 -42.5q117 0 228.5 14t224.5 42v-207
q-108 -27 -221.5 -41t-231.5 -14z" />
    <glyph glyph-name="A" unicode="A" horiz-adv-x="1457" 
d="M14 0l478 1480h473l478 -1480h-320l-414 1338h34l-413 -1338h-316zM346 395l70 259h624l69 -259h-763z" />
    <glyph glyph-name="B" unicode="B" horiz-adv-x="1333" 
d="M550 -17q-61 0 -133.5 3.5t-146 10t-137.5 15.5v1435q69 15 148 26.5t162.5 18t164.5 6.5q220 0 359.5 -45.5t205.5 -137t66 -229.5q0 -82 -31.5 -150.5t-91.5 -115.5t-146 -64l1 13q141 -20 224.5 -108.5t83.5 -245.5q0 -103 -39 -183.5t-125 -136t-225.5 -84
t-339.5 -28.5zM637 220q130 0 204.5 23t106 69t31.5 117q0 107 -66.5 156.5t-218.5 49.5h-278v243h247q99 0 158.5 21.5t86 63.5t26.5 106q0 101 -64 146.5t-221 45.5q-57 0 -105 -4.5t-94 -12.5v-1015q51 -5 95 -7t92 -2z" />
    <glyph glyph-name="C" unicode="C" horiz-adv-x="1237" 
d="M855 -19q-184 0 -327 43.5t-242.5 135t-150.5 234.5t-51 343q0 254 92 423.5t268 254t427 84.5q85 0 164 -8.5t154 -26.5v-268q-70 17 -142.5 26t-149.5 9q-160 0 -264.5 -49.5t-156.5 -157.5t-52 -283q0 -181 51.5 -288.5t154 -155.5t256.5 -48q76 0 151 12.5t152 34.5
v-267q-71 -22 -157.5 -35t-176.5 -13z" />
    <glyph glyph-name="D" unicode="D" horiz-adv-x="1500" 
d="M539 -15q-62 0 -130 2.5t-138 7.5t-138 14v1438q69 15 147.5 26t160.5 17t161 6q403 0 608.5 -183.5t205.5 -572.5q0 -265 -97 -431.5t-292 -245t-488 -78.5zM623 249q154 0 256.5 48.5t153 157t50.5 286.5q0 177 -51.5 285.5t-153.5 158t-253 49.5q-38 0 -83 -4t-84 -11
v-963q41 -4 81.5 -5.5t83.5 -1.5z" />
    <glyph glyph-name="E" unicode="E" horiz-adv-x="1254" 
d="M133 0v1480h1039v-260h-718v-960h728v-260h-1049zM326 627v260h744v-260h-744z" />
    <glyph glyph-name="F" unicode="F" horiz-adv-x="1213" 
d="M133 0v1480h1036v-265h-711v-1215h-325zM340 590v265h727v-265h-727z" />
    <glyph glyph-name="G" unicode="G" horiz-adv-x="1426" 
d="M929 -17q-281 0 -469 81.5t-282 248.5t-94 424q0 255 97 424t284 253.5t458 84.5q87 0 170.5 -9t163.5 -28v-268q-78 19 -153.5 28t-151.5 9q-181 0 -298 -50t-174.5 -159.5t-57.5 -289.5q0 -168 53.5 -274.5t160.5 -157t268 -50.5q61 0 121 4.5t110 12.5l-139 -121v574
h303v-704q-96 -16 -187.5 -24.5t-182.5 -8.5z" />
    <glyph glyph-name="H" unicode="H" horiz-adv-x="1526" 
d="M133 0v1480h325v-580h610v580h325v-1480h-325v614h-610v-614h-325z" />
    <glyph glyph-name="I" unicode="I" horiz-adv-x="591" 
d="M133 0v1480h325v-1480h-325z" />
    <glyph glyph-name="J" unicode="J" horiz-adv-x="591" 
d="M185 -350l-207 138q58 78 92.5 153t49.5 161t15 197v1181h323v-1180q0 -124 -26.5 -231.5t-86.5 -210t-160 -208.5z" />
    <glyph glyph-name="K" unicode="K" horiz-adv-x="1330" 
d="M1022 0l-516 754l485 726h342l-509 -762l5 84l547 -802h-354zM133 0v1480h325v-1480h-325zM413 614v286h221v-286h-221z" />
    <glyph glyph-name="L" unicode="L" horiz-adv-x="1148" 
d="M133 0v1480h325v-1210h680v-270h-1005z" />
    <glyph glyph-name="M" unicode="M" horiz-adv-x="1877" 
d="M137 0v1480h395l432 -978h-39l420 978h395v-1480h-303v1196h64l-429 -982h-267l-443 982h78v-1196h-303z" />
    <glyph glyph-name="N" unicode="N" horiz-adv-x="1543" 
d="M133 0v1480h326l701 -1077h-56v1077h306v-1480h-327l-700 1077h56v-1077h-306z" />
    <glyph glyph-name="O" unicode="O" horiz-adv-x="1562" 
d="M781 -19q-211 0 -367.5 82t-243 250.5t-86.5 426.5t86.5 426.5t243 250.5t367.5 82t367.5 -82.5t243 -251t86.5 -425.5t-86.5 -425.5t-243.5 -251t-367 -82.5zM781 243q114 0 195.5 49.5t125 157.5t43.5 283q0 182 -44 292.5t-125.5 161t-194.5 50.5t-194.5 -49
t-125.5 -157t-44 -284q0 -183 43.5 -293.5t125 -160.5t195.5 -50z" />
    <glyph glyph-name="P" unicode="P" horiz-adv-x="1317" 
d="M133 0v1453q104 21 214.5 33t233.5 12q330 0 496.5 -128.5t166.5 -406.5q0 -262 -161.5 -398t-481.5 -136q-38 0 -72 1.5t-71 4.5v-435h-325zM605 673q167 0 245 67.5t78 220.5q0 154 -77.5 223.5t-239.5 69.5q-45 0 -81 -2.5t-72 -9.5v-560q37 -4 71 -6.5t76 -2.5z" />
    <glyph glyph-name="Q" unicode="Q" horiz-adv-x="1562" 
d="M1405 -316q-308 46 -532.5 115t-376.5 161.5t-242.5 209t-130 257t-39.5 306.5q0 261 86.5 431t243 252.5t367.5 82.5t367.5 -82t243 -250.5t86.5 -426.5q0 -228 -73 -391.5t-218.5 -251.5t-363.5 -88q-37 0 -76 2.5t-80 7.5l101 81q114 -45 229 -76t230.5 -52t231.5 -34
zM781 243q114 0 195.5 49.5t125 157.5t43.5 283q0 182 -44 292.5t-125.5 161t-194.5 50.5t-194.5 -49t-125.5 -157t-44 -284q0 -184 43 -294.5t124.5 -160t196.5 -49.5z" />
    <glyph glyph-name="R" unicode="R" horiz-adv-x="1378" 
d="M133 0v1447q67 15 143 26.5t157 18t163 6.5q319 0 480 -115.5t161 -360.5q0 -158 -76 -264.5t-216.5 -160.5t-335.5 -54q-44 0 -81 1.5t-76 3.5v-548h-319zM1004 0l-476 684h348l483 -684h-355zM615 785q161 0 239 56t78 181q0 82 -33 134.5t-100 77.5t-170 25
q-51 0 -94 -4t-83 -12v-450q29 -2 54.5 -4.5t52 -3t56.5 -0.5z" />
    <glyph glyph-name="S" unicode="S" horiz-adv-x="1153" 
d="M503 -19q-107 0 -214.5 16.5t-198.5 46.5v264q63 -21 134 -35.5t142.5 -22.5t135.5 -8q149 0 211 45.5t62 127.5q0 69 -45.5 108t-169.5 71l-112 29q-194 49 -293.5 152.5t-99.5 273.5q0 212 153.5 331t462.5 119q100 0 190.5 -11.5t160.5 -31.5v-264q-71 22 -158 34
t-175 12q-116 0 -184 -21.5t-97.5 -60.5t-29.5 -90q0 -65 40 -102t150 -67l111 -29q144 -35 237 -92.5t137.5 -141t44.5 -197.5q0 -142 -70.5 -244.5t-203.5 -157t-321 -54.5z" />
    <glyph glyph-name="T" unicode="T" horiz-adv-x="1285" 
d="M480 0v1210h-467v270h1259v-270h-466v-1210h-326z" />
    <glyph glyph-name="U" unicode="U" horiz-adv-x="1495" 
d="M751 -19q-216 0 -354 69t-204 209.5t-66 353.5v867h324v-899q0 -176 75 -255t225 -79t224.5 79t74.5 255v899h318v-867q0 -213 -65 -353.5t-202 -209.5t-350 -69z" />
    <glyph glyph-name="V" unicode="V" horiz-adv-x="1431" 
d="M476 0l-475 1480h340l418 -1347h-70l425 1347h316l-474 -1480h-480z" />
    <glyph glyph-name="W" unicode="W" horiz-adv-x="2279" 
d="M421 0l-391 1480h329l334 -1337h-81l357 1337h359l345 -1337h-75l342 1337h308l-391 -1480h-417l-337 1282h86l-351 -1282h-417z" />
    <glyph glyph-name="X" unicode="X" horiz-adv-x="1376" 
d="M1045 0l-361 533l-188 234l-492 713h360l324 -474l189 -236l527 -770h-359zM-32 0l528 767l192 239l324 474h351l-486 -710l-193 -237l-361 -533h-355z" />
    <glyph glyph-name="Y" unicode="Y" horiz-adv-x="1285" 
d="M482 0v758l66 -239l-600 961h345l405 -654h-92l400 654h320l-585 -961l66 234v-753h-325z" />
    <glyph glyph-name="Z" unicode="Z" horiz-adv-x="1239" 
d="M59 0v178l731 1094l4 -62h-724v270h1099v-178l-730 -1094l-5 62h746v-270h-1121z" />
    <glyph glyph-name="bracketleft" unicode="[" horiz-adv-x="716" 
d="M153 -440v2056h593v-251h-274v-1554h267v-251h-586z" />
    <glyph glyph-name="backslash" unicode="\" horiz-adv-x="789" 
d="M475 -240l-475 1856h315l474 -1856h-314z" />
    <glyph glyph-name="bracketright" unicode="]" horiz-adv-x="716" 
d="M-23 -440v251h267v1554h-274v251h593v-2056h-586z" />
    <glyph glyph-name="asciicircum" unicode="^" horiz-adv-x="1254" 
d="M65 740l411 740h302l412 -740h-310l-318 584h130l-317 -584h-310z" />
    <glyph glyph-name="underscore" unicode="_" horiz-adv-x="1210" 
d="M88 -251v250h1034v-250h-1034z" />
    <glyph glyph-name="grave" unicode="`" horiz-adv-x="1140" 
d="M454 1233l-272 383h338l226 -383h-292z" />
    <glyph glyph-name="a" unicode="a" horiz-adv-x="1117" 
d="M418 -20q-168 0 -261.5 87.5t-93.5 228.5q0 155 107.5 242t347.5 103l230 19l34 -176l-232 -19q-92 -7 -132.5 -42t-40.5 -96q0 -60 37 -92.5t108 -32.5q44 0 90 15.5t84 53.5v400q0 75 -24.5 118t-79 61.5t-145.5 18.5q-63 0 -143 -10.5t-153 -33.5v240
q80 23 175.5 34.5t177.5 11.5q174 0 285.5 -43t164.5 -143.5t53 -273.5v-651h-262l-22 109h-15q-49 -67 -125 -98t-165 -31z" />
    <glyph glyph-name="b" unicode="b" horiz-adv-x="1230" 
d="M540 -20q-105 0 -215.5 15t-205.5 46v1575h318v-629h16q48 59 119 91.5t164 32.5q114 0 211 -56t155 -176t58 -310q0 -289 -153.5 -439t-466.5 -150zM568 221q135 0 203.5 74.5t68.5 248.5q0 119 -28.5 185.5t-79 93.5t-117.5 27q-48 0 -95 -15.5t-83 -49.5v-548
q27 -7 60.5 -11.5t70.5 -4.5z" />
    <glyph glyph-name="c" unicode="c" horiz-adv-x="961" 
d="M637 -21q-183 0 -309.5 62t-192.5 187.5t-66 316.5q0 193 70.5 318.5t205 186.5t325.5 61q66 0 127.5 -6t116.5 -19v-252q-52 10 -101 15t-99 5q-110 0 -180 -31t-103 -98.5t-33 -176.5q0 -113 32.5 -181.5t96.5 -99.5t160 -31q52 0 105 9t122 28v-252q-60 -20 -131 -31
t-146 -11z" />
    <glyph glyph-name="d" unicode="d" horiz-adv-x="1230" 
d="M518 -19q-121 0 -223.5 55t-164 175t-61.5 313q0 191 68 322t200.5 198.5t328.5 67.5q33 0 65.5 -2.5t60.5 -5.5v512h319v-1616h-268l-19 115h-15q-47 -60 -120.5 -97t-170.5 -37zM612 241q49 0 97.5 18t82.5 56v542q-26 6 -60 9.5t-67 3.5q-137 0 -206 -73.5t-69 -247.5
q0 -119 28 -186t77.5 -94.5t116.5 -27.5z" />
    <glyph glyph-name="e" unicode="e" horiz-adv-x="1109" 
d="M670 -21q-206 0 -339 59t-197.5 185t-64.5 325q0 181 59.5 307t173 191t275.5 65q155 0 261 -65.5t160 -193.5t54 -314v-83h-801v183h555l-51 -19q0 108 -20 172t-60.5 91t-100.5 27q-61 0 -102.5 -27t-63 -90.5t-21.5 -171.5v-128q0 -101 29.5 -160.5t101 -85.5
t197.5 -26q64 0 134.5 9.5t141.5 25.5v-239q-87 -20 -165.5 -28.5t-155.5 -8.5z" />
    <glyph glyph-name="f" unicode="f" horiz-adv-x="802" 
d="M203 0v1172q0 146 56 250t165.5 159t269.5 55q43 0 82 -3t77 -9v-249q-29 4 -55.5 6t-55.5 2q-116 0 -169.5 -47t-53.5 -149v-1187h-316zM25 843v251h782v-251h-782z" />
    <glyph glyph-name="g" unicode="g" horiz-adv-x="1230" 
d="M512 -460q-87 0 -182 10.5t-184 34.5v249q92 -25 179 -37t162 -12q160 0 232.5 60t72.5 200v72h-15q-47 -58 -118.5 -91t-164.5 -33q-112 0 -209 56.5t-156.5 174t-59.5 301.5q0 283 154 434.5t467 151.5q70 0 144.5 -7t145.5 -20.5t131 -33.5v-947q0 -297 -148 -430
t-451 -133zM615 252q48 0 95 16.5t82 49.5v538q-26 6 -59.5 10t-70.5 4q-132 0 -202 -73.5t-70 -244.5q0 -116 28 -181.5t78.5 -92t118.5 -26.5z" />
    <glyph glyph-name="h" unicode="h" horiz-adv-x="1222" 
d="M119 0v1616h318v-632h16q56 62 132 94.5t170 32.5q100 0 181 -42t128.5 -136.5t47.5 -250.5v-682h-319v661q0 100 -41.5 137.5t-112.5 37.5q-36 0 -73 -9.5t-70.5 -29.5t-58.5 -50v-747h-318z" />
    <glyph glyph-name="i" unicode="i" horiz-adv-x="557" 
d="M119 0v1094h319v-1094h-319zM278 1253q-100 0 -148.5 44t-48.5 122q0 80 48.5 123.5t148.5 43.5q101 0 149 -43.5t48 -123.5q0 -78 -48 -122t-149 -44z" />
    <glyph glyph-name="j" unicode="j" horiz-adv-x="557" 
d="M168 -471l-206 137q58 77 92.5 153t49.5 162.5t15 194.5v918h319v-905q0 -126 -26 -236.5t-85.5 -214t-158.5 -209.5zM275 1255q-100 0 -148.5 44t-48.5 122q0 80 48.5 123.5t148.5 43.5q101 0 149 -43.5t48 -123.5q0 -78 -48 -122t-149 -44z" />
    <glyph glyph-name="k" unicode="k" horiz-adv-x="1179" 
d="M865 0l-387 562l359 532h340l-376 -568v84l411 -610h-347zM410 434v255h181v-255h-181zM119 0v1616h318v-1616h-318z" />
    <glyph glyph-name="l" unicode="l" horiz-adv-x="556" 
d="M119 0v1616h318v-1616h-318z" />
    <glyph glyph-name="m" unicode="m" horiz-adv-x="1804" 
d="M119 0v1094h263l21 -112h15q58 64 135.5 96.5t171.5 32.5q97 0 174.5 -41.5t122 -134t44.5 -244.5v-691h-312v664q0 98 -36.5 135.5t-100.5 37.5q-32 0 -65.5 -10t-63 -30t-51.5 -51v-746h-318zM1376 0v664q0 98 -40 135.5t-103 37.5q-35 0 -69.5 -10.5t-65.5 -32.5
t-54 -57l-63 207q73 89 165 128t185 39q105 0 187 -42t129 -137t47 -251v-681h-318z" />
    <glyph glyph-name="n" unicode="n" horiz-adv-x="1222" 
d="M119 0v1094h263l21 -111h15q61 62 143 95t178 33q108 0 192.5 -42.5t132.5 -137t48 -249.5v-682h-319v662q0 99 -41 137t-113 38q-36 0 -72.5 -9.5t-70 -29.5t-59.5 -50v-748h-318z" />
    <glyph glyph-name="o" unicode="o" horiz-adv-x="1204" 
d="M602 -21q-164 0 -283.5 62.5t-184.5 188t-65 314.5q0 191 63.5 317t183 188t286.5 62t286.5 -62.5t183 -188t63.5 -314.5q0 -190 -65 -316t-184.5 -188.5t-283.5 -62.5zM602 221q67 0 114.5 29t72.5 99.5t25 193.5q0 126 -25 197t-72.5 100.5t-114.5 29.5t-114.5 -29
t-72.5 -99.5t-25 -194.5q0 -126 25 -197t72.5 -100t114.5 -29z" />
    <glyph glyph-name="p" unicode="p" horiz-adv-x="1230" 
d="M119 -440v1534h268l19 -117h15q47 61 120.5 97.5t170.5 36.5q121 0 223 -55t163.5 -174.5t61.5 -313.5q0 -191 -67.5 -322t-200 -198.5t-328.5 -67.5q-33 0 -65.5 2.5t-61.5 5.5v-428h-318zM564 222q138 0 207 74t69 247q0 120 -28 187t-78 94t-116 27q-49 0 -97.5 -17.5
t-83.5 -56.5v-542q27 -5 61 -9t66 -4z" />
    <glyph glyph-name="q" unicode="q" horiz-adv-x="1230" 
d="M792 -440v544h-15q-47 -58 -118.5 -91t-164.5 -33q-115 0 -211.5 56.5t-155 176t-58.5 309.5q0 290 154 439.5t466 149.5q71 0 145.5 -7t145.5 -20.5t131 -33.5v-1490h-319zM615 241q48 0 95 16t82 50v549q-26 6 -59.5 10t-71.5 4q-131 0 -201 -73.5t-70 -248.5
q0 -120 28 -186.5t79 -93.5t118 -27z" />
    <glyph glyph-name="r" unicode="r" horiz-adv-x="810" 
d="M119 0v1094h261l24 -141h16q46 81 122 118.5t167 37.5q25 0 48 -2t41 -6v-288q-25 5 -53.5 6.5t-54.5 1.5q-47 0 -95 -11.5t-89 -35t-69 -57.5v-717h-318z" />
    <glyph glyph-name="s" unicode="s" horiz-adv-x="978" 
d="M440 -21q-94 0 -182.5 12t-166.5 36v234q79 -24 167 -36.5t178 -12.5q108 0 152.5 28.5t44.5 79.5q0 41 -22 62t-77 32l-178 32q-154 29 -224 107t-70 209q0 157 126.5 253t388.5 96q80 0 155.5 -9t136.5 -25v-234q-64 18 -136 27t-147 9q-91 0 -140 -15.5t-68.5 -40.5
t-19.5 -54q0 -35 22 -57t76 -34l178 -32q146 -27 220.5 -99.5t74.5 -215.5q0 -163 -127.5 -257.5t-361.5 -94.5z" />
    <glyph glyph-name="t" unicode="t" horiz-adv-x="843" 
d="M606 -20q-198 0 -304.5 98.5t-106.5 312.5v703l58 386h260v-1039q0 -113 42.5 -156t137.5 -43q26 0 53.5 3.5t61.5 9.5v-252q-43 -9 -96.5 -16t-105.5 -7zM17 843v251h784v-251h-784z" />
    <glyph glyph-name="u" unicode="u" horiz-adv-x="1213" 
d="M487 -19q-109 0 -194 42.5t-134 136.5t-49 249v685h319v-663q0 -99 41.5 -137t108.5 -38q33 0 69.5 9.5t69.5 29.5t58 50v749h318v-1094h-262l-22 110h-14q-62 -63 -141 -96t-168 -33z" />
    <glyph glyph-name="v" unicode="v" horiz-adv-x="1166" 
d="M383 0l-384 1094h333l272 -842h-23l272 842h314l-385 -1094h-399z" />
    <glyph glyph-name="w" unicode="w" horiz-adv-x="1811" 
d="M338 0l-295 1094h302l196 -784h-16l212 784h352l208 -784h-22l203 784h289l-292 -1094h-353l-223 825h19l-228 -825h-352z" />
    <glyph glyph-name="x" unicode="x" horiz-adv-x="1126" 
d="M784 0l-223 332l-186 219l-376 543h351l217 -318l182 -221l386 -555h-351zM-8 0l383 551l192 225l215 318h340l-373 -539l-188 -223l-227 -332h-342z" />
    <glyph glyph-name="y" unicode="y" horiz-adv-x="1166" 
d="M314 -440l157 440l110 252l272 842h314l-540 -1534h-313zM383 0l-384 1094h333l347 -1094h-296z" />
    <glyph glyph-name="z" unicode="z" horiz-adv-x="1012" 
d="M65 0v201l539 700v-58h-528v251h876v-201l-539 -700v58h549v-251h-897z" />
    <glyph glyph-name="braceleft" unicode="{" horiz-adv-x="756" 
d="M612 -460q-208 0 -313.5 99t-105.5 289v444q0 64 -35 98t-96 34h-52v250h52q61 0 96 34.5t35 97.5v362q0 191 105.5 289.5t313.5 98.5q51 0 94.5 -3.5t79.5 -9.5v-243h-120q-77 0 -115.5 -32.5t-38.5 -108.5v-345q0 -134 -73.5 -206t-246.5 -78v38q173 -6 246.5 -78
t73.5 -205v-428q0 -75 38.5 -108t115.5 -33h120v-243q-36 -6 -79.5 -9.5t-94.5 -3.5z" />
    <glyph glyph-name="bar" unicode="|" horiz-adv-x="553" 
d="M133 -440v2056h287v-2056h-287z" />
    <glyph glyph-name="braceright" unicode="}" horiz-adv-x="756" 
d="M144 -460q-50 0 -93.5 3.5t-80.5 9.5v243h120q77 0 115.5 33t38.5 108v428q0 133 74.5 205t245.5 78v-38q-171 6 -245.5 78t-74.5 206v345q0 76 -38.5 108.5t-115.5 32.5h-120v243q37 6 80.5 9.5t93.5 3.5q208 0 313.5 -98.5t105.5 -289.5v-362q0 -63 35 -97.5t96 -34.5
h52v-250h-52q-61 0 -96 -34t-35 -98v-444q0 -190 -105.5 -289t-313.5 -99z" />
    <glyph glyph-name="asciitilde" unicode="~" horiz-adv-x="1100" 
d="M746 580q-59 0 -113 20t-106 43q-46 20 -90.5 37t-88.5 17q-67 0 -121 -26t-110 -83v250q89 99 237 99q60 0 114 -20t104 -43q47 -21 91.5 -38t88.5 -17q68 0 122 26.5t109 83.5v-251q-89 -98 -237 -98z" />
    <glyph glyph-name="uni00A0" unicode="&#xa0;" horiz-adv-x="503" 
 />
    <glyph glyph-name="exclamdown" unicode="&#xa1;" horiz-adv-x="596" 
d="M203 608h194l71 -487v-501h-339v500zM298 1111q94 0 150.5 -52.5t56.5 -140.5q0 -87 -55.5 -140.5t-151.5 -53.5t-151.5 52.5t-55.5 141.5q0 90 56.5 141.5t150.5 51.5z" />
    <glyph glyph-name="cent" unicode="&#xa2;" horiz-adv-x="966" 
d="M637 -21q-183 0 -309.5 62t-192.5 187.5t-66 316.5q0 193 70.5 318.5t205 186.5t325.5 61q67 0 127.5 -6t116.5 -19v-252q-52 10 -101 15t-100 5q-110 0 -179.5 -31t-102.5 -98.5t-33 -176.5q0 -113 32.5 -181.5t96.5 -99.5t160 -31q52 0 105 9t122 28v-252
q-60 -20 -131 -31t-146 -11zM470 -240v282h272v-282h-272zM470 1052v282h272v-282h-272z" />
    <glyph glyph-name="sterling" unicode="&#xa3;" horiz-adv-x="1343" 
d="M269 97v906q0 244 156 370t472 126q94 0 183 -10.5t159 -29.5v-264q-71 21 -156.5 32t-164.5 11q-123 0 -196 -22.5t-105.5 -71.5t-32.5 -129v-918h-315zM73 0v259h1210v-259h-1210zM73 632v236h975v-236h-975z" />
    <glyph glyph-name="currency" unicode="&#xa4;" horiz-adv-x="1254" 
d="M403 842l-200 169l-115 112l156 155l111 -114l171 -201zM851 842l-122 121l170 201l111 114l156 -155l-115 -112zM1010 202l-112 114l-166 196l122 123l197 -166l115 -112zM245 202l-156 155l114 112l197 166l123 -123l-167 -196zM627 372q-105 0 -188 46t-130.5 129
t-47.5 193q0 109 47.5 191.5t130.5 128.5t188 46t188 -46t131 -128.5t48 -191.5q0 -110 -48 -193t-131 -129t-188 -46zM627 548q78 0 128 50.5t50 141.5q0 83 -47 137.5t-129 54.5q-78 0 -129 -51t-51 -141t50.5 -141t127.5 -51z" />
    <glyph glyph-name="yen" unicode="&#xa5;" horiz-adv-x="1299" 
d="M489 0v758l66 -239l-599 961h345l404 -654h-92l401 654h320l-586 -961l66 234v-753h-325zM176 262v189h951v-189h-951zM176 597v189h951v-189h-951z" />
    <glyph glyph-name="brokenbar" unicode="&#xa6;" horiz-adv-x="553" 
d="M133 836v780h287v-780h-287zM133 -440v780h287v-780h-287z" />
    <glyph glyph-name="section" unicode="&#xa7;" horiz-adv-x="1109" 
d="M470 -21q-80 0 -166.5 10.5t-164.5 31.5v221q82 -22 164 -32t164 -10q83 0 130 13t66 37.5t19 57.5q0 42 -23 64t-76 33l-215 42q-129 27 -202.5 100.5t-73.5 205.5q0 87 44 152t119 109l167 -111q-36 -34 -52.5 -66t-16.5 -67q0 -44 26.5 -74.5t93.5 -45.5l215 -42
q139 -28 211 -95.5t72 -186.5q0 -160 -126.5 -253.5t-374.5 -93.5zM842 458l-174 115q48 36 67.5 66.5t19.5 68.5q0 47 -26 76.5t-94 43.5l-215 42q-140 29 -214.5 98t-74.5 182q0 104 54.5 182t170 121.5t300.5 43.5q72 0 143 -6.5t132 -20.5v-221q-65 15 -126.5 21.5
t-125.5 6.5q-104 0 -160.5 -15.5t-78 -41t-21.5 -53.5q0 -37 23.5 -59.5t76.5 -34.5l221 -40q134 -26 205.5 -98t71.5 -206q0 -92 -47.5 -159t-127.5 -112z" />
    <glyph glyph-name="dieresis" unicode="&#xa8;" horiz-adv-x="1140" 
d="M845 1258q-83 0 -127.5 43t-44.5 118q0 76 44.5 119t127.5 43t127.5 -43t44.5 -119q0 -75 -44.5 -118t-127.5 -43zM355 1258q-83 0 -127.5 43t-44.5 118q0 76 44.5 119t127.5 43q84 0 128 -43t44 -119q0 -75 -44 -118t-128 -43z" />
    <glyph glyph-name="copyright" unicode="&#xa9;" horiz-adv-x="1664" 
d="M832 -22q-225 0 -393.5 95t-261.5 266.5t-93 400.5t93 400.5t261.5 266.5t393.5 95t393 -95t261.5 -266.5t93.5 -400.5t-93.5 -400.5t-261.5 -266.5t-393 -95zM891 324q-194 0 -310.5 106t-116.5 303q0 195 118.5 303t324.5 108q55 0 101.5 -6t90.5 -18v-195
q-45 10 -85.5 15t-85.5 5q-117 0 -174.5 -53.5t-57.5 -157.5t57 -157.5t160 -53.5q42 0 84.5 6.5t101.5 23.5v-195q-41 -16 -94 -25t-114 -9zM832 147q179 0 307 72.5t196.5 205.5t68.5 315t-68.5 315t-196.5 205.5t-307 72.5t-307.5 -72.5t-196.5 -205.5t-68 -315t68 -315
t196.5 -205.5t307.5 -72.5z" />
    <glyph glyph-name="ordfeminine" unicode="&#xaa;" horiz-adv-x="936" 
d="M336 593q-144 0 -220.5 72t-76.5 184q0 129 88 197t288 79l193 13l36 -144l-186 -11q-69 -5 -99 -29.5t-30 -68.5q0 -47 29 -71.5t85 -24.5q30 0 61.5 10.5t57.5 32.5v321q0 46 -18 74t-62 41t-122 13q-56 0 -121 -8.5t-126 -26.5v215q71 19 151.5 28.5t152.5 9.5
q152 0 249 -36.5t143 -120.5t46 -226v-506h-245l-21 87h-14q-39 -54 -102.5 -79t-136.5 -25z" />
    <glyph glyph-name="guillemotleft" unicode="&#xab;" horiz-adv-x="1224" 
d="M335 133l-251 434l251 434h324l-251 -434l251 -434h-324zM856 133l-251 434l251 434h324l-251 -434l251 -434h-324z" />
    <glyph glyph-name="logicalnot" unicode="&#xac;" horiz-adv-x="1333" 
d="M967 198v440h-850v244h1105v-684h-255z" />
    <glyph glyph-name="uni00AD" unicode="&#xad;" horiz-adv-x="909" 
d="M117 437v260h675v-260h-675z" />
    <glyph glyph-name="registered" unicode="&#xae;" horiz-adv-x="1438" 
d="M719 268q-181 0 -318.5 77.5t-214.5 216t-77 320.5t77 321t214.5 217t318.5 78t318.5 -78t214.5 -217t77 -321t-77 -320.5t-214.5 -216t-318.5 -77.5zM846 600l-142 206l133 26l160 -232h-151zM719 397q143 0 249 60t164.5 169t58.5 256q0 148 -58.5 257.5t-164.5 169.5
t-249 60t-249.5 -60t-164.5 -169.5t-58 -257.5q0 -147 58 -256t164.5 -169t249.5 -60zM501 600v592h208q130 0 194 -49.5t64 -148.5q0 -98 -63.5 -147t-194.5 -49h-68l-4 -198h-136zM641 909h90q103 0 103 85q0 87 -103 87h-90v-172z" />
    <glyph glyph-name="macron" unicode="&#xaf;" horiz-adv-x="1140" 
d="M245 1324v192h710v-192h-710z" />
    <glyph glyph-name="degree" unicode="&#xb0;" horiz-adv-x="971" 
d="M486 755q-109 0 -194.5 48t-134 132t-48.5 192t48.5 192t134 132t194.5 48t194 -48t134 -132t49 -192t-49 -192t-134 -132t-194 -48zM486 940q77 0 128 50.5t51 136.5q0 88 -51.5 137t-127.5 49t-128 -49t-52 -137q0 -86 51.5 -136.5t128.5 -50.5z" />
    <glyph glyph-name="plusminus" unicode="&#xb1;" horiz-adv-x="1100" 
d="M423 374v298h-306v243h306v298h254v-298h306v-243h-306v-298h-254zM117 1v243h866v-243h-866z" />
    <glyph glyph-name="uni00B2" unicode="&#xb2;" horiz-adv-x="855" 
d="M81 616v132l283 336q63 76 90.5 128t27.5 97q0 62 -42 92t-143 30q-60 0 -121 -11t-107 -28v200q52 18 123 27.5t142 9.5q196 0 297.5 -70t101.5 -225q0 -77 -34.5 -152t-114.5 -169l-218 -255l-1 63h413v-205h-697z" />
    <glyph glyph-name="uni00B3" unicode="&#xb3;" horiz-adv-x="855" 
d="M343 603q-71 0 -141 8.5t-134 25.5v185q64 -17 133.5 -26.5t129.5 -9.5q107 0 154 32.5t47 93.5q0 60 -43 91t-145 31h-173v186h145q96 0 137.5 30.5t41.5 84.5t-42 82.5t-136 28.5q-55 0 -118 -9.5t-115 -29.5v186q50 16 123 26t140 10q196 0 293.5 -70.5t97.5 -200.5
q0 -89 -50.5 -150t-138.5 -81v10q106 -16 164 -77t58 -164q0 -137 -106 -215t-322 -78z" />
    <glyph glyph-name="acute" unicode="&#xb4;" horiz-adv-x="1140" 
d="M454 1233l226 383h338l-272 -383h-292z" />
    <glyph glyph-name="uni00B5" unicode="&#xb5;" horiz-adv-x="1213" 
d="M553 -19q-83 0 -146.5 42.5t-99.5 136.5t-36 249v222h158v-200q0 -99 41.5 -137t108.5 -38q33 0 69.5 9.5t69.5 29.5t58 50v749h318v-1094h-262l-22 110h-14q-48 -63 -110.5 -96t-132.5 -33zM110 -440v1533h319v-1533h-319z" />
    <glyph glyph-name="paragraph" unicode="&#xb6;" horiz-adv-x="1317" 
d="M602 0v433q-24 -2 -46 -3t-48 -1q-217 0 -326 136t-109 398q0 278 115.5 406.5t357.5 128.5q73 0 145.5 -4.5t136.5 -13.5v-1480h-226zM958 0v1480h226v-1480h-226z" />
    <glyph glyph-name="periodcentered" unicode="&#xb7;" horiz-adv-x="556" 
d="M278 366q-94 0 -150.5 52t-56.5 141q0 91 55.5 142.5t151.5 51.5t151.5 -53t55.5 -141q0 -87 -56.5 -140t-150.5 -53z" />
    <glyph glyph-name="cedilla" unicode="&#xb8;" horiz-adv-x="1140" 
d="M596 -442q-50 0 -96.5 8.5t-84.5 22.5v124q40 -17 86 -24.5t81 -7.5q50 0 75.5 16.5t25.5 53.5q0 73 -103 73h-46v196h153v-148l-71 46q115 0 174.5 -47.5t59.5 -132.5q0 -83 -63 -131.5t-191 -48.5z" />
    <glyph glyph-name="uni00B9" unicode="&#xb9;" horiz-adv-x="855" 
d="M342 643v835l90 -80l-298 -191v222l298 191h164v-977h-254zM131 616v205h665v-205h-665z" />
    <glyph glyph-name="ordmasculine" unicode="&#xba;" horiz-adv-x="1009" 
d="M505 593q-218 0 -338.5 117t-120.5 337t120.5 336t338.5 116t338.5 -117.5t120.5 -334.5q0 -145 -54.5 -246.5t-157 -154.5t-247.5 -53zM505 811q50 0 86.5 21.5t56.5 73t20 141.5t-20 141t-56.5 72t-86.5 21t-86.5 -21t-57 -72t-20.5 -141t20.5 -141.5t57 -73
t86.5 -21.5z" />
    <glyph glyph-name="guillemotright" unicode="&#xbb;" horiz-adv-x="1224" 
d="M44 133l251 434l-251 434h324l251 -434l-251 -434h-324zM565 133l251 434l-251 434h324l251 -434l-251 -434h-324z" />
    <glyph glyph-name="onequarter" unicode="&#xbc;" horiz-adv-x="2079" 
d="M342 643v835l90 -80l-298 -191v222l298 191h164v-977h-254zM131 616v205h665v-205h-665zM505 -136l804 1752h265l-804 -1752h-265zM1249 61v135l312 668h236l-310 -668l-22 55h591v-190h-807zM1711 -136v387l45 275h177v-662h-222z" />
    <glyph glyph-name="onehalf" unicode="&#xbd;" horiz-adv-x="2079" 
d="M342 643v835l90 -80l-298 -191v222l298 191h164v-977h-254zM131 616v205h665v-205h-665zM505 -136l804 1752h265l-804 -1752h-265zM1305 -136v132l283 336q63 76 90.5 128t27.5 97q0 62 -42 92t-143 30q-60 0 -121 -11t-107 -28v200q52 18 123 27.5t142 9.5
q196 0 298 -70t101 -225q0 -77 -34.5 -152t-114.5 -169l-218 -255l-1 63h413v-205h-697z" />
    <glyph glyph-name="threequarters" unicode="&#xbe;" horiz-adv-x="2079" 
d="M343 603q-71 0 -141 8.5t-134 25.5v185q64 -17 133.5 -26.5t129.5 -9.5q107 0 154 32.5t47 93.5q0 60 -43 91t-145 31h-173v186h145q96 0 137.5 30.5t41.5 84.5t-42 82.5t-136 28.5q-55 0 -118 -9.5t-115 -29.5v186q50 16 123 26t140 10q196 0 293.5 -70.5t97.5 -200.5
q0 -89 -50.5 -150t-138.5 -81v10q106 -16 164 -77t58 -164q0 -137 -106 -215t-322 -78zM505 -136l804 1752h265l-804 -1752h-265zM1249 61v135l312 668h236l-310 -668l-22 55h591v-190h-807zM1711 -136v387l45 275h177v-662h-222z" />
    <glyph glyph-name="questiondown" unicode="&#xbf;" horiz-adv-x="991" 
d="M645 631l55 -367q-132 -28 -206 -62.5t-103.5 -78.5t-29.5 -99q0 -84 64 -129.5t203 -45.5q83 0 170 14.5t162 41.5v-250q-48 -17 -110 -29t-129 -19t-130 -7q-269 0 -404.5 104t-135.5 293q0 106 43 186.5t127 137.5t206 95l24 215h194zM548 1111q94 0 150 -50t56 -134
q0 -85 -55 -135t-151 -50t-151.5 51.5t-55.5 133.5t56.5 133t150.5 51z" />
    <glyph glyph-name="Agrave" unicode="&#xc0;" horiz-adv-x="1457" 
d="M14 0l478 1480h473l478 -1480h-320l-414 1338h34l-413 -1338h-316zM346 395l70 259h624l69 -259h-763zM584 1595l-228 303h335l181 -303h-288z" />
    <glyph glyph-name="Aacute" unicode="&#xc1;" horiz-adv-x="1457" 
d="M14 0l478 1480h473l478 -1480h-320l-414 1338h34l-413 -1338h-316zM346 395l70 259h624l69 -259h-763zM583 1595l181 303h335l-229 -303h-287z" />
    <glyph glyph-name="Acircumflex" unicode="&#xc2;" horiz-adv-x="1457" 
d="M14 0l478 1480h473l478 -1480h-320l-414 1338h34l-413 -1338h-316zM346 395l70 259h624l69 -259h-763zM337 1595l255 303h272l255 -303h-242l-174 216h50l-174 -216h-242z" />
    <glyph glyph-name="Atilde" unicode="&#xc3;" horiz-adv-x="1457" 
d="M14 0l478 1480h473l478 -1480h-320l-414 1338h34l-413 -1338h-316zM346 395l70 259h624l69 -259h-763zM900 1619q-53 0 -99 13t-90 27q-39 14 -78.5 25t-82.5 11q-61 0 -107 -17.5t-92 -52.5v183q40 37 88.5 55t116.5 18q54 0 100 -13t89 -28q40 -14 79.5 -25.5
t81.5 -11.5q61 0 107 17.5t92 52.5v-183q-39 -36 -88 -53.5t-117 -17.5z" />
    <glyph glyph-name="Adieresis" unicode="&#xc4;" horiz-adv-x="1457" 
d="M14 0l478 1480h473l478 -1480h-320l-414 1338h34l-413 -1338h-316zM346 395l70 259h624l69 -259h-763zM985 1606q-85 0 -128 38t-43 107q0 68 43 106.5t128 38.5t128.5 -38.5t43.5 -106.5q0 -69 -43.5 -107t-128.5 -38zM471 1606q-85 0 -128.5 38t-43.5 107
q0 68 43.5 106.5t128.5 38.5t128 -38.5t43 -106.5q0 -69 -43 -107t-128 -38z" />
    <glyph glyph-name="Aring" unicode="&#xc5;" horiz-adv-x="1457" 
d="M14 0l478 1480h473l478 -1480h-320l-414 1338h34l-413 -1338h-316zM346 395l70 259h624l69 -259h-763zM728 1582q-93 0 -154 59.5t-61 149.5q0 91 61 150.5t154 59.5t154 -59.5t61 -150.5q0 -90 -61 -149.5t-154 -59.5zM728 1695q42 0 67.5 26t25.5 71t-25.5 70.5
t-67.5 25.5q-41 0 -67 -25.5t-26 -70.5t26 -71t67 -26z" />
    <glyph glyph-name="AE" unicode="&#xc6;" horiz-adv-x="2006" 
d="M14 0l481 1480h523l-1 -260h-301l-383 -1220h-319zM348 395l70 259h611v-259h-681zM978 0l-111 1480h1057v-260h-724l78 -960h656v-260h-956zM1089 627v260h733v-260h-733z" />
    <glyph glyph-name="Ccedilla" unicode="&#xc7;" horiz-adv-x="1237" 
d="M855 -19q-184 0 -327 43.5t-242.5 135t-150.5 234.5t-51 343q0 254 92 423.5t268 254t427 84.5q85 0 164 -8.5t154 -26.5v-268q-70 17 -142.5 26t-149.5 9q-160 0 -264.5 -49.5t-156.5 -157.5t-52 -283q0 -181 51.5 -288.5t154 -155.5t256.5 -48q76 0 151 12.5t152 34.5
v-267q-71 -22 -157.5 -35t-176.5 -13zM727 -442q-56 0 -107 8.5t-95 23.5v123q47 -17 96 -24.5t91 -7.5q58 0 89 16t31 54q0 39 -31.5 56t-90.5 17h-48v196h153v-148l-68 46q124 0 188 -46t64 -132q0 -84 -67 -133t-205 -49z" />
    <glyph glyph-name="Egrave" unicode="&#xc8;" horiz-adv-x="1254" 
d="M133 0v1480h1039v-260h-718v-960h728v-260h-1049zM326 627v260h744v-260h-744zM531 1595l-228 303h335l181 -303h-288z" />
    <glyph glyph-name="Eacute" unicode="&#xc9;" horiz-adv-x="1254" 
d="M133 0v1480h1039v-260h-718v-960h728v-260h-1049zM326 627v260h744v-260h-744zM530 1595l181 303h335l-229 -303h-287z" />
    <glyph glyph-name="Ecircumflex" unicode="&#xca;" horiz-adv-x="1254" 
d="M133 0v1480h1039v-260h-718v-960h728v-260h-1049zM326 627v260h744v-260h-744zM284 1595l255 303h272l255 -303h-242l-174 216h50l-174 -216h-242z" />
    <glyph glyph-name="Edieresis" unicode="&#xcb;" horiz-adv-x="1254" 
d="M133 0v1480h1039v-260h-718v-960h728v-260h-1049zM326 627v260h744v-260h-744zM932 1606q-85 0 -128 38t-43 107q0 68 43 106.5t128 38.5t128.5 -38.5t43.5 -106.5q0 -69 -43.5 -107t-128.5 -38zM418 1606q-85 0 -128.5 38t-43.5 107q0 68 43.5 106.5t128.5 38.5
t128 -38.5t43 -106.5q0 -69 -43 -107t-128 -38z" />
    <glyph glyph-name="Igrave" unicode="&#xcc;" horiz-adv-x="591" 
d="M133 0v1480h325v-1480h-325zM152 1595l-228 303h335l181 -303h-288z" />
    <glyph glyph-name="Iacute" unicode="&#xcd;" horiz-adv-x="591" 
d="M133 0v1480h325v-1480h-325zM151 1595l181 303h335l-229 -303h-287z" />
    <glyph glyph-name="Icircumflex" unicode="&#xce;" horiz-adv-x="591" 
d="M133 0v1480h325v-1480h-325zM-95 1595l255 303h272l255 -303h-242l-174 216h50l-174 -216h-242z" />
    <glyph glyph-name="Idieresis" unicode="&#xcf;" horiz-adv-x="591" 
d="M133 0v1480h325v-1480h-325zM553 1606q-85 0 -128 38t-43 107q0 68 43 106.5t128 38.5t128.5 -38.5t43.5 -106.5q0 -69 -43.5 -107t-128.5 -38zM39 1606q-85 0 -128.5 38t-43.5 107q0 68 43.5 106.5t128.5 38.5t128 -38.5t43 -106.5q0 -69 -43 -107t-128 -38z" />
    <glyph glyph-name="Eth" unicode="&#xd0;" horiz-adv-x="1500" 
d="M3 658v208h729v-208h-729zM539 -15q-62 0 -130 2.5t-138 7.5t-138 14v1438q69 15 147.5 26t160.5 17t161 6q403 0 608.5 -183.5t205.5 -572.5q0 -265 -97 -431.5t-292 -245t-488 -78.5zM623 249q154 0 256.5 48.5t153 157t50.5 286.5q0 177 -51.5 285.5t-153.5 158
t-253 49.5q-38 0 -83 -4t-84 -11v-963q41 -4 81.5 -5.5t83.5 -1.5z" />
    <glyph glyph-name="Ntilde" unicode="&#xd1;" horiz-adv-x="1543" 
d="M133 0v1480h326l701 -1077h-56v1077h306v-1480h-327l-700 1077h56v-1077h-306zM944 1619q-53 0 -99 13t-90 27q-39 14 -78.5 25t-82.5 11q-61 0 -107 -17.5t-92 -52.5v183q40 37 88.5 55t116.5 18q54 0 100 -13t89 -28q40 -14 79.5 -25.5t81.5 -11.5q61 0 107 17.5
t92 52.5v-183q-39 -36 -88 -53.5t-117 -17.5z" />
    <glyph glyph-name="Ograve" unicode="&#xd2;" horiz-adv-x="1562" 
d="M781 -19q-211 0 -367.5 82t-243 250.5t-86.5 426.5t86.5 426.5t243 250.5t367.5 82t367.5 -82.5t243 -251t86.5 -425.5t-86.5 -425.5t-243.5 -251t-367 -82.5zM781 243q114 0 195.5 49.5t125 157.5t43.5 283q0 182 -44 292.5t-125.5 161t-194.5 50.5t-194.5 -49
t-125.5 -157t-44 -284q0 -183 43.5 -293.5t125 -160.5t195.5 -50zM637 1595l-228 303h335l181 -303h-288z" />
    <glyph glyph-name="Oacute" unicode="&#xd3;" horiz-adv-x="1562" 
d="M781 -19q-211 0 -367.5 82t-243 250.5t-86.5 426.5t86.5 426.5t243 250.5t367.5 82t367.5 -82.5t243 -251t86.5 -425.5t-86.5 -425.5t-243.5 -251t-367 -82.5zM781 243q114 0 195.5 49.5t125 157.5t43.5 283q0 182 -44 292.5t-125.5 161t-194.5 50.5t-194.5 -49
t-125.5 -157t-44 -284q0 -183 43.5 -293.5t125 -160.5t195.5 -50zM636 1595l181 303h335l-229 -303h-287z" />
    <glyph glyph-name="Ocircumflex" unicode="&#xd4;" horiz-adv-x="1562" 
d="M781 -19q-211 0 -367.5 82t-243 250.5t-86.5 426.5t86.5 426.5t243 250.5t367.5 82t367.5 -82.5t243 -251t86.5 -425.5t-86.5 -425.5t-243.5 -251t-367 -82.5zM781 243q114 0 195.5 49.5t125 157.5t43.5 283q0 182 -44 292.5t-125.5 161t-194.5 50.5t-194.5 -49
t-125.5 -157t-44 -284q0 -183 43.5 -293.5t125 -160.5t195.5 -50zM390 1595l255 303h272l255 -303h-242l-174 216h50l-174 -216h-242z" />
    <glyph glyph-name="Otilde" unicode="&#xd5;" horiz-adv-x="1562" 
d="M781 -19q-211 0 -367.5 82t-243 250.5t-86.5 426.5t86.5 426.5t243 250.5t367.5 82t367.5 -82.5t243 -251t86.5 -425.5t-86.5 -425.5t-243.5 -251t-367 -82.5zM781 243q114 0 195.5 49.5t125 157.5t43.5 283q0 182 -44 292.5t-125.5 161t-194.5 50.5t-194.5 -49
t-125.5 -157t-44 -284q0 -183 43.5 -293.5t125 -160.5t195.5 -50zM953 1619q-53 0 -99 13t-90 27q-39 14 -78.5 25t-82.5 11q-61 0 -107 -17.5t-92 -52.5v183q40 37 88.5 55t116.5 18q54 0 100 -13t89 -28q40 -14 79.5 -25.5t81.5 -11.5q61 0 107 17.5t92 52.5v-183
q-39 -36 -88 -53.5t-117 -17.5z" />
    <glyph glyph-name="Odieresis" unicode="&#xd6;" horiz-adv-x="1562" 
d="M781 -19q-211 0 -367.5 82t-243 250.5t-86.5 426.5t86.5 426.5t243 250.5t367.5 82t367.5 -82.5t243 -251t86.5 -425.5t-86.5 -425.5t-243.5 -251t-367 -82.5zM781 243q114 0 195.5 49.5t125 157.5t43.5 283q0 182 -44 292.5t-125.5 161t-194.5 50.5t-194.5 -49
t-125.5 -157t-44 -284q0 -183 43.5 -293.5t125 -160.5t195.5 -50zM1038 1606q-85 0 -128 38t-43 107q0 68 43 106.5t128 38.5t128.5 -38.5t43.5 -106.5q0 -69 -43.5 -107t-128.5 -38zM524 1606q-85 0 -128.5 38t-43.5 107q0 68 43.5 106.5t128.5 38.5t128 -38.5t43 -106.5
q0 -69 -43 -107t-128 -38z" />
    <glyph glyph-name="multiply" unicode="&#xd7;" horiz-adv-x="1041" 
d="M259 327l-172 171l262 262l-262 262l172 171l261 -261l262 261l172 -171l-262 -262l262 -262l-172 -171l-262 261z" />
    <glyph glyph-name="Oslash" unicode="&#xd8;" horiz-adv-x="1562" 
d="M312 -2h-218l1152 1483h219zM781 -19q-211 0 -367.5 82t-243 250.5t-86.5 426.5t86.5 426.5t243 250.5t367.5 82t367.5 -82.5t243 -251t86.5 -425.5t-86.5 -425.5t-243.5 -251t-367 -82.5zM781 243q114 0 195.5 49.5t125 157.5t43.5 283q0 182 -44 292.5t-125.5 161
t-194.5 50.5t-194.5 -49t-125.5 -157t-44 -284q0 -183 43.5 -293.5t125 -160.5t195.5 -50z" />
    <glyph glyph-name="Ugrave" unicode="&#xd9;" horiz-adv-x="1495" 
d="M751 -19q-216 0 -354 69t-204 209.5t-66 353.5v867h324v-899q0 -176 75 -255t225 -79t224.5 79t74.5 255v899h318v-867q0 -213 -65 -353.5t-202 -209.5t-350 -69zM607 1595l-228 303h335l181 -303h-288z" />
    <glyph glyph-name="Uacute" unicode="&#xda;" horiz-adv-x="1495" 
d="M751 -19q-216 0 -354 69t-204 209.5t-66 353.5v867h324v-899q0 -176 75 -255t225 -79t224.5 79t74.5 255v899h318v-867q0 -213 -65 -353.5t-202 -209.5t-350 -69zM606 1595l181 303h335l-229 -303h-287z" />
    <glyph glyph-name="Ucircumflex" unicode="&#xdb;" horiz-adv-x="1495" 
d="M751 -19q-216 0 -354 69t-204 209.5t-66 353.5v867h324v-899q0 -176 75 -255t225 -79t224.5 79t74.5 255v899h318v-867q0 -213 -65 -353.5t-202 -209.5t-350 -69zM360 1595l255 303h272l255 -303h-242l-174 216h50l-174 -216h-242z" />
    <glyph glyph-name="Udieresis" unicode="&#xdc;" horiz-adv-x="1495" 
d="M751 -19q-216 0 -354 69t-204 209.5t-66 353.5v867h324v-899q0 -176 75 -255t225 -79t224.5 79t74.5 255v899h318v-867q0 -213 -65 -353.5t-202 -209.5t-350 -69zM1008 1606q-85 0 -128 38t-43 107q0 68 43 106.5t128 38.5t128.5 -38.5t43.5 -106.5q0 -69 -43.5 -107
t-128.5 -38zM494 1606q-85 0 -128.5 38t-43.5 107q0 68 43.5 106.5t128.5 38.5t128 -38.5t43 -106.5q0 -69 -43 -107t-128 -38z" />
    <glyph glyph-name="Yacute" unicode="&#xdd;" horiz-adv-x="1285" 
d="M482 0v758l66 -239l-600 961h345l405 -654h-92l400 654h320l-585 -961l66 234v-753h-325zM498 1595l181 303h335l-229 -303h-287z" />
    <glyph glyph-name="Thorn" unicode="&#xde;" horiz-adv-x="1327" 
d="M133 0v1480h325v-193q28 3 62.5 5.5t70.5 2.5q324 0 488.5 -128.5t164.5 -406.5q0 -264 -161 -399t-479 -135q-39 0 -74 1.5t-72 3.5v-231h-325zM605 470q167 0 245 67.5t78 220.5q0 154 -77.5 223.5t-239.5 69.5q-45 0 -81 -3t-72 -9v-561q37 -4 71 -6t76 -2z" />
    <glyph glyph-name="germandbls" unicode="&#xdf;" horiz-adv-x="1567" 
d="M1011 -21q-78 0 -165.5 10.5t-165.5 31.5v233q49 -13 105 -22.5t113 -14.5t109 -5q123 0 169 28.5t46 79.5q0 41 -22 62t-77 32l-177 32q-155 29 -225 107t-70 208q0 158 124.5 249.5t371.5 91.5q20 0 49.5 -0.5t59.5 -2t51 -4.5l-178 -142q11 44 18 89.5t7 91.5
q0 102 -38 164t-105 90t-154 28q-113 0 -187.5 -40t-111.5 -122.5t-37 -210.5v-1043h-318v1040q0 189 74.5 322t215.5 203.5t340 70.5q161 0 284.5 -55t193.5 -171t70 -300q0 -64 -9.5 -124.5t-24.5 -115.5q-33 4 -71.5 6.5t-84.5 2.5q-98 0 -151 -15.5t-73 -40.5t-20 -54
q0 -35 22 -57t76 -34l178 -32q146 -27 220.5 -99.5t74.5 -215.5q0 -163 -129.5 -257.5t-377.5 -94.5zM25 838v256h299v-256h-299z" />
    <glyph glyph-name="agrave" unicode="&#xe0;" horiz-adv-x="1117" 
d="M418 -20q-168 0 -261.5 87.5t-93.5 228.5q0 155 107.5 242t347.5 103l230 19l34 -176l-232 -19q-92 -7 -132.5 -42t-40.5 -96q0 -60 37 -92.5t108 -32.5q44 0 90 15.5t84 53.5v400q0 75 -24.5 118t-79 61.5t-145.5 18.5q-63 0 -143 -10.5t-153 -33.5v240
q80 23 175.5 34.5t177.5 11.5q174 0 285.5 -43t164.5 -143.5t53 -273.5v-651h-262l-22 109h-15q-49 -67 -125 -98t-165 -31zM409 1233l-272 383h338l226 -383h-292z" />
    <glyph glyph-name="aacute" unicode="&#xe1;" horiz-adv-x="1117" 
d="M418 -20q-168 0 -261.5 87.5t-93.5 228.5q0 155 107.5 242t347.5 103l230 19l34 -176l-232 -19q-92 -7 -132.5 -42t-40.5 -96q0 -60 37 -92.5t108 -32.5q44 0 90 15.5t84 53.5v400q0 75 -24.5 118t-79 61.5t-145.5 18.5q-63 0 -143 -10.5t-153 -33.5v240
q80 23 175.5 34.5t177.5 11.5q174 0 285.5 -43t164.5 -143.5t53 -273.5v-651h-262l-22 109h-15q-49 -67 -125 -98t-165 -31zM409 1233l226 383h338l-272 -383h-292z" />
    <glyph glyph-name="acircumflex" unicode="&#xe2;" horiz-adv-x="1117" 
d="M418 -20q-168 0 -261.5 87.5t-93.5 228.5q0 155 107.5 242t347.5 103l230 19l34 -176l-232 -19q-92 -7 -132.5 -42t-40.5 -96q0 -60 37 -92.5t108 -32.5q44 0 90 15.5t84 53.5v400q0 75 -24.5 118t-79 61.5t-145.5 18.5q-63 0 -143 -10.5t-153 -33.5v240
q80 23 175.5 34.5t177.5 11.5q174 0 285.5 -43t164.5 -143.5t53 -273.5v-651h-262l-22 109h-15q-49 -67 -125 -98t-165 -31zM192 1233l232 383h262l232 -383h-228l-159 276h48l-159 -276h-228z" />
    <glyph glyph-name="atilde" unicode="&#xe3;" horiz-adv-x="1117" 
d="M418 -20q-168 0 -261.5 87.5t-93.5 228.5q0 155 107.5 242t347.5 103l230 19l34 -176l-232 -19q-92 -7 -132.5 -42t-40.5 -96q0 -60 37 -92.5t108 -32.5q44 0 90 15.5t84 53.5v400q0 75 -24.5 118t-79 61.5t-145.5 18.5q-63 0 -143 -10.5t-153 -33.5v240
q80 23 175.5 34.5t177.5 11.5q174 0 285.5 -43t164.5 -143.5t53 -273.5v-651h-262l-22 109h-15q-49 -67 -125 -98t-165 -31zM713 1285q-48 0 -91.5 16t-83.5 33q-37 17 -73 30t-73 13q-56 0 -101 -20t-91 -65v200q76 77 197 77q49 0 92 -15.5t83 -33.5q37 -16 73 -29.5
t73 -13.5q57 0 102 20.5t90 64.5v-200q-76 -77 -197 -77z" />
    <glyph glyph-name="adieresis" unicode="&#xe4;" horiz-adv-x="1117" 
d="M418 -20q-168 0 -261.5 87.5t-93.5 228.5q0 155 107.5 242t347.5 103l230 19l34 -176l-232 -19q-92 -7 -132.5 -42t-40.5 -96q0 -60 37 -92.5t108 -32.5q44 0 90 15.5t84 53.5v400q0 75 -24.5 118t-79 61.5t-145.5 18.5q-63 0 -143 -10.5t-153 -33.5v240
q80 23 175.5 34.5t177.5 11.5q174 0 285.5 -43t164.5 -143.5t53 -273.5v-651h-262l-22 109h-15q-49 -67 -125 -98t-165 -31zM800 1258q-83 0 -127.5 43t-44.5 118q0 76 44.5 119t127.5 43t127.5 -43t44.5 -119q0 -75 -44.5 -118t-127.5 -43zM310 1258q-83 0 -127.5 43
t-44.5 118q0 76 44.5 119t127.5 43q84 0 128 -43t44 -119q0 -75 -44 -118t-128 -43z" />
    <glyph glyph-name="aring" unicode="&#xe5;" horiz-adv-x="1117" 
d="M418 -20q-168 0 -261.5 87.5t-93.5 228.5q0 155 107.5 242t347.5 103l230 19l34 -176l-232 -19q-92 -7 -132.5 -42t-40.5 -96q0 -60 37 -92.5t108 -32.5q44 0 90 15.5t84 53.5v400q0 75 -24.5 118t-79 61.5t-145.5 18.5q-63 0 -143 -10.5t-153 -33.5v240
q80 23 175.5 34.5t177.5 11.5q174 0 285.5 -43t164.5 -143.5t53 -273.5v-651h-262l-22 109h-15q-49 -67 -125 -98t-165 -31zM555 1228q-93 0 -154 59t-61 150t61 150t154 59t154 -59t61 -150t-61 -150t-154 -59zM555 1340q42 0 67.5 26.5t25.5 70.5q0 45 -25.5 71t-67.5 26
q-41 0 -67 -26t-26 -71q0 -44 26 -70.5t67 -26.5z" />
    <glyph glyph-name="ae" unicode="&#xe6;" horiz-adv-x="1721" 
d="M1285 -21q-203 0 -332.5 59t-191.5 185t-62 325l49 24q0 169 54.5 289.5t157 185.5t246.5 65t246.5 -64.5t156.5 -192.5t54 -317v-83h-712v183h467l-51 -21q0 110 -20 174t-60 91.5t-98 27.5q-59 0 -99.5 -27.5t-61.5 -91t-21 -171.5v-128q0 -101 29.5 -160.5t99.5 -85.5
t192 -26q64 0 134 9.5t141 25.5v-239q-87 -20 -165 -28.5t-153 -8.5zM446 -20q-125 0 -210.5 39.5t-129 111t-43.5 168.5q0 101 47.5 177.5t150 119t267.5 42.5h230v-177h-199q-67 0 -107 -17.5t-57.5 -48t-17.5 -70.5q0 -59 38 -91t110 -32q60 0 116.5 25t108.5 91l91 -148
q-84 -107 -185 -148.5t-210 -41.5zM699 548v122q0 76 -26 119.5t-82 61.5t-145 18q-62 0 -141.5 -10.5t-153.5 -33.5v240q86 24 173 35t167 11q162 0 265.5 -45t153 -144.5t49.5 -261.5v-118z" />
    <glyph glyph-name="ccedilla" unicode="&#xe7;" horiz-adv-x="961" 
d="M637 -21q-183 0 -309.5 62t-192.5 187.5t-66 316.5q0 193 70.5 318.5t205 186.5t325.5 61q66 0 127.5 -6t116.5 -19v-252q-52 10 -101 15t-99 5q-110 0 -180 -31t-103 -98.5t-33 -176.5q0 -113 32.5 -181.5t96.5 -99.5t160 -31q52 0 105 9t122 28v-252q-60 -20 -131 -31
t-146 -11zM549 -442q-50 0 -96.5 8.5t-84.5 22.5v124q40 -17 86 -24.5t81 -7.5q50 0 75.5 16.5t25.5 53.5q0 73 -103 73h-46v196h153v-148l-71 46q115 0 174.5 -47.5t59.5 -132.5q0 -83 -63 -131.5t-191 -48.5z" />
    <glyph glyph-name="egrave" unicode="&#xe8;" horiz-adv-x="1109" 
d="M670 -21q-206 0 -339 59t-197.5 185t-64.5 325q0 181 59.5 307t173 191t275.5 65q155 0 261 -65.5t160 -193.5t54 -314v-83h-801v183h555l-51 -19q0 108 -20 172t-60.5 91t-100.5 27q-61 0 -102.5 -27t-63 -90.5t-21.5 -171.5v-128q0 -101 29.5 -160.5t101 -85.5
t197.5 -26q64 0 134.5 9.5t141.5 25.5v-239q-87 -20 -165.5 -28.5t-155.5 -8.5zM425 1233l-272 383h338l226 -383h-292z" />
    <glyph glyph-name="eacute" unicode="&#xe9;" horiz-adv-x="1109" 
d="M670 -21q-206 0 -339 59t-197.5 185t-64.5 325q0 181 59.5 307t173 191t275.5 65q155 0 261 -65.5t160 -193.5t54 -314v-83h-801v183h555l-51 -19q0 108 -20 172t-60.5 91t-100.5 27q-61 0 -102.5 -27t-63 -90.5t-21.5 -171.5v-128q0 -101 29.5 -160.5t101 -85.5
t197.5 -26q64 0 134.5 9.5t141.5 25.5v-239q-87 -20 -165.5 -28.5t-155.5 -8.5zM425 1233l226 383h338l-272 -383h-292z" />
    <glyph glyph-name="ecircumflex" unicode="&#xea;" horiz-adv-x="1109" 
d="M670 -21q-206 0 -339 59t-197.5 185t-64.5 325q0 181 59.5 307t173 191t275.5 65q155 0 261 -65.5t160 -193.5t54 -314v-83h-801v183h555l-51 -19q0 108 -20 172t-60.5 91t-100.5 27q-61 0 -102.5 -27t-63 -90.5t-21.5 -171.5v-128q0 -101 29.5 -160.5t101 -85.5
t197.5 -26q64 0 134.5 9.5t141.5 25.5v-239q-87 -20 -165.5 -28.5t-155.5 -8.5zM208 1233l232 383h262l232 -383h-228l-159 276h48l-159 -276h-228z" />
    <glyph glyph-name="edieresis" unicode="&#xeb;" horiz-adv-x="1109" 
d="M670 -21q-206 0 -339 59t-197.5 185t-64.5 325q0 181 59.5 307t173 191t275.5 65q155 0 261 -65.5t160 -193.5t54 -314v-83h-801v183h555l-51 -19q0 108 -20 172t-60.5 91t-100.5 27q-61 0 -102.5 -27t-63 -90.5t-21.5 -171.5v-128q0 -101 29.5 -160.5t101 -85.5
t197.5 -26q64 0 134.5 9.5t141.5 25.5v-239q-87 -20 -165.5 -28.5t-155.5 -8.5zM816 1258q-83 0 -127.5 43t-44.5 118q0 76 44.5 119t127.5 43t127.5 -43t44.5 -119q0 -75 -44.5 -118t-127.5 -43zM326 1258q-83 0 -127.5 43t-44.5 118q0 76 44.5 119t127.5 43q84 0 128 -43
t44 -119q0 -75 -44 -118t-128 -43z" />
    <glyph glyph-name="igrave" unicode="&#xec;" horiz-adv-x="557" 
d="M119 0v1094h319v-1094h-319zM132 1233l-272 383h338l226 -383h-292z" />
    <glyph glyph-name="iacute" unicode="&#xed;" horiz-adv-x="557" 
d="M119 0v1094h319v-1094h-319zM132 1233l226 383h338l-272 -383h-292z" />
    <glyph glyph-name="icircumflex" unicode="&#xee;" horiz-adv-x="557" 
d="M119 0v1094h319v-1094h-319zM-85 1233l232 383h262l232 -383h-228l-159 276h48l-159 -276h-228z" />
    <glyph glyph-name="idieresis" unicode="&#xef;" horiz-adv-x="557" 
d="M119 0v1094h319v-1094h-319zM523 1258q-83 0 -127.5 43t-44.5 118q0 76 44.5 119t127.5 43t127.5 -43t44.5 -119q0 -75 -44.5 -118t-127.5 -43zM33 1258q-83 0 -127.5 43t-44.5 118q0 76 44.5 119t127.5 43q84 0 128 -43t44 -119q0 -75 -44 -118t-128 -43z" />
    <glyph glyph-name="eth" unicode="&#xf0;" horiz-adv-x="1204" 
d="M603 -22q-165 0 -284.5 62.5t-184.5 188.5t-65 315q0 192 63.5 316t177 184t263.5 60q89 0 170.5 -37t134.5 -126l-104 -6q-36 124 -111.5 244.5t-182 231t-236.5 205.5h376q109 -82 203 -196.5t164.5 -248.5t109.5 -278.5t39 -286.5q0 -218 -64 -357t-183.5 -205
t-285.5 -66zM603 219q67 0 114 30.5t72 101t25 190.5q0 125 -25 197t-72.5 101.5t-114.5 29.5t-114.5 -29.5t-72.5 -100.5t-25 -195t25 -194.5t72 -100.5t116 -30zM187 1183l-35 174l919 164l34 -173z" />
    <glyph glyph-name="ntilde" unicode="&#xf1;" horiz-adv-x="1222" 
d="M119 0v1094h263l21 -111h15q61 62 143 95t178 33q108 0 192.5 -42.5t132.5 -137t48 -249.5v-682h-319v662q0 99 -41 137t-113 38q-36 0 -72.5 -9.5t-70 -29.5t-59.5 -50v-748h-318zM774 1285q-48 0 -91.5 16t-83.5 33q-37 17 -73 30t-73 13q-56 0 -101 -20t-91 -65v200
q76 77 197 77q49 0 92 -15.5t83 -33.5q37 -16 73 -29.5t73 -13.5q57 0 102 20.5t90 64.5v-200q-76 -77 -197 -77z" />
    <glyph glyph-name="ograve" unicode="&#xf2;" horiz-adv-x="1204" 
d="M602 -21q-164 0 -283.5 62.5t-184.5 188t-65 314.5q0 191 63.5 317t183 188t286.5 62t286.5 -62.5t183 -188t63.5 -314.5q0 -190 -65 -316t-184.5 -188.5t-283.5 -62.5zM602 221q67 0 114.5 29t72.5 99.5t25 193.5q0 126 -25 197t-72.5 100.5t-114.5 29.5t-114.5 -29
t-72.5 -99.5t-25 -194.5q0 -126 25 -197t72.5 -100t114.5 -29zM456 1233l-272 383h338l226 -383h-292z" />
    <glyph glyph-name="oacute" unicode="&#xf3;" horiz-adv-x="1204" 
d="M602 -21q-164 0 -283.5 62.5t-184.5 188t-65 314.5q0 191 63.5 317t183 188t286.5 62t286.5 -62.5t183 -188t63.5 -314.5q0 -190 -65 -316t-184.5 -188.5t-283.5 -62.5zM602 221q67 0 114.5 29t72.5 99.5t25 193.5q0 126 -25 197t-72.5 100.5t-114.5 29.5t-114.5 -29
t-72.5 -99.5t-25 -194.5q0 -126 25 -197t72.5 -100t114.5 -29zM456 1233l226 383h338l-272 -383h-292z" />
    <glyph glyph-name="ocircumflex" unicode="&#xf4;" horiz-adv-x="1204" 
d="M602 -21q-164 0 -283.5 62.5t-184.5 188t-65 314.5q0 191 63.5 317t183 188t286.5 62t286.5 -62.5t183 -188t63.5 -314.5q0 -190 -65 -316t-184.5 -188.5t-283.5 -62.5zM602 221q67 0 114.5 29t72.5 99.5t25 193.5q0 126 -25 197t-72.5 100.5t-114.5 29.5t-114.5 -29
t-72.5 -99.5t-25 -194.5q0 -126 25 -197t72.5 -100t114.5 -29zM239 1233l232 383h262l232 -383h-228l-159 276h48l-159 -276h-228z" />
    <glyph glyph-name="otilde" unicode="&#xf5;" horiz-adv-x="1204" 
d="M602 -21q-164 0 -283.5 62.5t-184.5 188t-65 314.5q0 191 63.5 317t183 188t286.5 62t286.5 -62.5t183 -188t63.5 -314.5q0 -190 -65 -316t-184.5 -188.5t-283.5 -62.5zM602 221q67 0 114.5 29t72.5 99.5t25 193.5q0 126 -25 197t-72.5 100.5t-114.5 29.5t-114.5 -29
t-72.5 -99.5t-25 -194.5q0 -126 25 -197t72.5 -100t114.5 -29zM760 1285q-48 0 -91.5 16t-83.5 33q-37 17 -73 30t-73 13q-56 0 -101 -20t-91 -65v200q76 77 197 77q49 0 92 -15.5t83 -33.5q37 -16 73 -29.5t73 -13.5q57 0 102 20.5t90 64.5v-200q-76 -77 -197 -77z" />
    <glyph glyph-name="odieresis" unicode="&#xf6;" horiz-adv-x="1204" 
d="M602 -21q-164 0 -283.5 62.5t-184.5 188t-65 314.5q0 191 63.5 317t183 188t286.5 62t286.5 -62.5t183 -188t63.5 -314.5q0 -190 -65 -316t-184.5 -188.5t-283.5 -62.5zM602 221q67 0 114.5 29t72.5 99.5t25 193.5q0 126 -25 197t-72.5 100.5t-114.5 29.5t-114.5 -29
t-72.5 -99.5t-25 -194.5q0 -126 25 -197t72.5 -100t114.5 -29zM847 1258q-83 0 -127.5 43t-44.5 118q0 76 44.5 119t127.5 43t127.5 -43t44.5 -119q0 -75 -44.5 -118t-127.5 -43zM357 1258q-83 0 -127.5 43t-44.5 118q0 76 44.5 119t127.5 43q84 0 128 -43t44 -119
q0 -75 -44 -118t-128 -43z" />
    <glyph glyph-name="divide" unicode="&#xf7;" horiz-adv-x="1100" 
d="M117 638v244h866v-244h-866zM550 180q-85 0 -136.5 47t-51.5 129t50.5 129t137.5 47q88 0 138 -48t50 -128q0 -79 -51 -127.5t-137 -48.5zM550 988q-85 0 -136.5 47t-51.5 129t50.5 129t137.5 47q88 0 138 -48t50 -128q0 -79 -51 -127.5t-137 -48.5z" />
    <glyph glyph-name="oslash" unicode="&#xf8;" horiz-adv-x="1204" 
d="M999 960q66 -70 101 -174t35 -240q0 -190 -65 -316t-184.5 -188.5t-283.5 -62.5q-77 0 -144 15t-123 47l-40 -57h-201l109 151q-64 71 -99 173t-35 236q0 191 63.5 317t183 188t286.5 62q76 0 142 -14.5t121 -44.5l42 58h200zM602 874q-69 0 -119 -29.5t-76 -101
t-26 -196.5q0 -49 6.5 -87t18.5 -66l316 440q-23 21 -53.5 30.5t-66.5 9.5zM602 216q70 0 119.5 29.5t75.5 101t26 196.5q0 52 -6.5 92t-19.5 69l-318 -444q24 -23 55 -33.5t68 -10.5z" />
    <glyph glyph-name="ugrave" unicode="&#xf9;" horiz-adv-x="1213" 
d="M487 -19q-109 0 -194 42.5t-134 136.5t-49 249v685h319v-663q0 -99 41.5 -137t108.5 -38q33 0 69.5 9.5t69.5 29.5t58 50v749h318v-1094h-262l-22 110h-14q-62 -63 -141 -96t-168 -33zM457 1233l-272 383h338l226 -383h-292z" />
    <glyph glyph-name="uacute" unicode="&#xfa;" horiz-adv-x="1213" 
d="M487 -19q-109 0 -194 42.5t-134 136.5t-49 249v685h319v-663q0 -99 41.5 -137t108.5 -38q33 0 69.5 9.5t69.5 29.5t58 50v749h318v-1094h-262l-22 110h-14q-62 -63 -141 -96t-168 -33zM457 1233l226 383h338l-272 -383h-292z" />
    <glyph glyph-name="ucircumflex" unicode="&#xfb;" horiz-adv-x="1213" 
d="M487 -19q-109 0 -194 42.5t-134 136.5t-49 249v685h319v-663q0 -99 41.5 -137t108.5 -38q33 0 69.5 9.5t69.5 29.5t58 50v749h318v-1094h-262l-22 110h-14q-62 -63 -141 -96t-168 -33zM240 1233l232 383h262l232 -383h-228l-159 276h48l-159 -276h-228z" />
    <glyph glyph-name="udieresis" unicode="&#xfc;" horiz-adv-x="1213" 
d="M487 -19q-109 0 -194 42.5t-134 136.5t-49 249v685h319v-663q0 -99 41.5 -137t108.5 -38q33 0 69.5 9.5t69.5 29.5t58 50v749h318v-1094h-262l-22 110h-14q-62 -63 -141 -96t-168 -33zM848 1258q-83 0 -127.5 43t-44.5 118q0 76 44.5 119t127.5 43t127.5 -43t44.5 -119
q0 -75 -44.5 -118t-127.5 -43zM358 1258q-83 0 -127.5 43t-44.5 118q0 76 44.5 119t127.5 43q84 0 128 -43t44 -119q0 -75 -44 -118t-128 -43z" />
    <glyph glyph-name="yacute" unicode="&#xfd;" horiz-adv-x="1166" 
d="M314 -440l157 440l110 252l272 842h314l-540 -1534h-313zM383 0l-384 1094h333l347 -1094h-296zM437 1233l226 383h338l-272 -383h-292z" />
    <glyph glyph-name="thorn" unicode="&#xfe;" horiz-adv-x="1230" 
d="M119 -440v2056h318v-629h16q48 59 119 91.5t164 32.5q115 0 211.5 -56t154.5 -176t58 -311t-67.5 -322t-200 -198.5t-328.5 -67.5q-33 0 -65.5 2.5t-61.5 5.5v-428h-318zM564 222q138 0 207 74t69 247q0 120 -28.5 186.5t-79 93.5t-117.5 27q-48 0 -96 -16.5t-82 -53.5
v-545q27 -5 61 -9t66 -4z" />
    <glyph glyph-name="ydieresis" unicode="&#xff;" horiz-adv-x="1166" 
d="M314 -440l157 440l110 252l272 842h314l-540 -1534h-313zM383 0l-384 1094h333l347 -1094h-296zM828 1258q-83 0 -127.5 43t-44.5 118q0 76 44.5 119t127.5 43t127.5 -43t44.5 -119q0 -75 -44.5 -118t-127.5 -43zM338 1258q-83 0 -127.5 43t-44.5 118q0 76 44.5 119
t127.5 43q84 0 128 -43t44 -119q0 -75 -44 -118t-128 -43z" />
    <glyph glyph-name="Amacron" unicode="&#x100;" horiz-adv-x="1457" 
d="M14 0l478 1480h473l478 -1480h-320l-414 1338h34l-413 -1338h-316zM346 395l70 259h624l69 -259h-763zM360 1644v192h736v-192h-736z" />
    <glyph glyph-name="amacron" unicode="&#x101;" horiz-adv-x="1117" 
d="M418 -20q-168 0 -261.5 87.5t-93.5 228.5q0 155 107.5 242t347.5 103l230 19l34 -176l-232 -19q-92 -7 -132.5 -42t-40.5 -96q0 -60 37 -92.5t108 -32.5q44 0 90 15.5t84 53.5v400q0 75 -24.5 118t-79 61.5t-145.5 18.5q-63 0 -143 -10.5t-153 -33.5v240
q80 23 175.5 34.5t177.5 11.5q174 0 285.5 -43t164.5 -143.5t53 -273.5v-651h-262l-22 109h-15q-49 -67 -125 -98t-165 -31zM200 1324v192h710v-192h-710z" />
    <glyph glyph-name="Abreve" unicode="&#x102;" horiz-adv-x="1457" 
d="M14 0l478 1480h473l478 -1480h-320l-414 1338h34l-413 -1338h-316zM346 395l70 259h624l69 -259h-763zM729 1599q-119 0 -200.5 36t-127 101.5t-55.5 152.5h195q11 -65 55.5 -100t132.5 -35t131.5 35t54.5 100h195q-10 -88 -55 -153t-126 -101t-200 -36z" />
    <glyph glyph-name="abreve" unicode="&#x103;" horiz-adv-x="1117" 
d="M418 -20q-168 0 -261.5 87.5t-93.5 228.5q0 155 107.5 242t347.5 103l230 19l34 -176l-232 -19q-92 -7 -132.5 -42t-40.5 -96q0 -60 37 -92.5t108 -32.5q44 0 90 15.5t84 53.5v400q0 75 -24.5 118t-79 61.5t-145.5 18.5q-63 0 -143 -10.5t-153 -33.5v240
q80 23 175.5 34.5t177.5 11.5q174 0 285.5 -43t164.5 -143.5t53 -273.5v-651h-262l-22 109h-15q-49 -67 -125 -98t-165 -31zM556 1242q-165 0 -260 90t-105 262h194q7 -95 49 -142t122 -47t121.5 47t47.5 142h194q-9 -173 -103.5 -262.5t-259.5 -89.5z" />
    <glyph glyph-name="Aogonek" unicode="&#x104;" horiz-adv-x="1457" 
d="M14 0l478 1480h473l478 -1480h-320l-414 1338h34l-413 -1338h-316zM346 395l70 259h624l69 -259h-763zM1311 -442q-142 0 -211.5 56t-69.5 151q0 62 30.5 116.5t102 102t194.5 88.5l86 -72q-91 -35 -141.5 -69.5t-70 -70t-19.5 -73.5q0 -48 34 -74.5t108 -26.5q30 0 65 7
t77 22v-124q-41 -15 -86 -24t-99 -9z" />
    <glyph glyph-name="aogonek" unicode="&#x105;" horiz-adv-x="1117" 
d="M418 -20q-168 0 -261.5 87.5t-93.5 228.5q0 155 107.5 242t347.5 103l230 19l34 -176l-232 -19q-92 -7 -132.5 -42t-40.5 -96q0 -60 37 -92.5t108 -32.5q44 0 90 15.5t84 53.5v400q0 75 -24.5 118t-79 61.5t-145.5 18.5q-63 0 -143 -10.5t-153 -33.5v240
q80 23 175.5 34.5t177.5 11.5q174 0 285.5 -43t164.5 -143.5t53 -273.5v-651l-245 -14l-39 123h-15q-49 -67 -125 -98t-165 -31zM875 -442q-129 0 -195 56t-66 151q0 62 28.5 117t95.5 102t183 88l86 -72q-82 -35 -127.5 -69t-64.5 -70t-19 -75q0 -46 31 -73t91 -27
q28 0 60.5 7.5t67.5 23.5v-126q-35 -14 -76.5 -23.5t-94.5 -9.5z" />
    <glyph glyph-name="Cacute" unicode="&#x106;" horiz-adv-x="1237" 
d="M855 -19q-184 0 -327 43.5t-242.5 135t-150.5 234.5t-51 343q0 254 92 423.5t268 254t427 84.5q85 0 164 -8.5t154 -26.5v-268q-70 17 -142.5 26t-149.5 9q-160 0 -264.5 -49.5t-156.5 -157.5t-52 -283q0 -181 51.5 -288.5t154 -155.5t256.5 -48q76 0 151 12.5t152 34.5
v-267q-71 -22 -157.5 -35t-176.5 -13zM606 1595l181 303h335l-229 -303h-287z" />
    <glyph glyph-name="cacute" unicode="&#x107;" horiz-adv-x="961" 
d="M637 -21q-183 0 -309.5 62t-192.5 187.5t-66 316.5q0 193 70.5 318.5t205 186.5t325.5 61q66 0 127.5 -6t116.5 -19v-252q-52 10 -101 15t-99 5q-110 0 -180 -31t-103 -98.5t-33 -176.5q0 -113 32.5 -181.5t96.5 -99.5t160 -31q52 0 105 9t122 28v-252q-60 -20 -131 -31
t-146 -11zM391 1233l226 383h338l-272 -383h-292z" />
    <glyph glyph-name="Ccircumflex" unicode="&#x108;" horiz-adv-x="1237" 
d="M855 -19q-184 0 -327 43.5t-242.5 135t-150.5 234.5t-51 343q0 254 92 423.5t268 254t427 84.5q85 0 164 -8.5t154 -26.5v-268q-70 17 -142.5 26t-149.5 9q-160 0 -264.5 -49.5t-156.5 -157.5t-52 -283q0 -181 51.5 -288.5t154 -155.5t256.5 -48q76 0 151 12.5t152 34.5
v-267q-71 -22 -157.5 -35t-176.5 -13zM360 1595l255 303h272l255 -303h-242l-174 216h50l-174 -216h-242z" />
    <glyph glyph-name="ccircumflex" unicode="&#x109;" horiz-adv-x="961" 
d="M637 -21q-183 0 -309.5 62t-192.5 187.5t-66 316.5q0 193 70.5 318.5t205 186.5t325.5 61q66 0 127.5 -6t116.5 -19v-252q-52 10 -101 15t-99 5q-110 0 -180 -31t-103 -98.5t-33 -176.5q0 -113 32.5 -181.5t96.5 -99.5t160 -31q52 0 105 9t122 28v-252q-60 -20 -131 -31
t-146 -11zM174 1233l232 383h262l232 -383h-228l-159 276h48l-159 -276h-228z" />
    <glyph glyph-name="Cdotaccent" unicode="&#x10a;" horiz-adv-x="1237" 
d="M855 -19q-184 0 -327 43.5t-242.5 135t-150.5 234.5t-51 343q0 254 92 423.5t268 254t427 84.5q85 0 164 -8.5t154 -26.5v-268q-70 17 -142.5 26t-149.5 9q-160 0 -264.5 -49.5t-156.5 -157.5t-52 -283q0 -181 51.5 -288.5t154 -155.5t256.5 -48q76 0 151 12.5t152 34.5
v-267q-71 -22 -157.5 -35t-176.5 -13zM751 1606q-97 0 -146 38.5t-49 106.5q0 69 49 107t146 38t146 -38t49 -107q0 -68 -49 -106.5t-146 -38.5z" />
    <glyph glyph-name="cdotaccent" unicode="&#x10b;" horiz-adv-x="961" 
d="M637 -21q-183 0 -309.5 62t-192.5 187.5t-66 316.5q0 193 70.5 318.5t205 186.5t325.5 61q66 0 127.5 -6t116.5 -19v-252q-52 10 -101 15t-99 5q-110 0 -180 -31t-103 -98.5t-33 -176.5q0 -113 32.5 -181.5t96.5 -99.5t160 -31q52 0 105 9t122 28v-252q-60 -20 -131 -31
t-146 -11zM537 1253q-100 0 -148.5 44t-48.5 122q0 80 48.5 123.5t148.5 43.5q101 0 149 -43.5t48 -123.5q0 -78 -48 -122t-149 -44z" />
    <glyph glyph-name="Ccaron" unicode="&#x10c;" horiz-adv-x="1237" 
d="M855 -19q-184 0 -327 43.5t-242.5 135t-150.5 234.5t-51 343q0 254 92 423.5t268 254t427 84.5q85 0 164 -8.5t154 -26.5v-268q-70 17 -142.5 26t-149.5 9q-160 0 -264.5 -49.5t-156.5 -157.5t-52 -283q0 -181 51.5 -288.5t154 -155.5t256.5 -48q76 0 151 12.5t152 34.5
v-267q-71 -22 -157.5 -35t-176.5 -13zM615 1595l-255 303h242l174 -216h-50l174 216h242l-255 -303h-272z" />
    <glyph glyph-name="ccaron" unicode="&#x10d;" horiz-adv-x="961" 
d="M637 -21q-183 0 -309.5 62t-192.5 187.5t-66 316.5q0 193 70.5 318.5t205 186.5t325.5 61q66 0 127.5 -6t116.5 -19v-252q-52 10 -101 15t-99 5q-110 0 -180 -31t-103 -98.5t-33 -176.5q0 -113 32.5 -181.5t96.5 -99.5t160 -31q52 0 105 9t122 28v-252q-60 -20 -131 -31
t-146 -11zM406 1233l-234 383h229l160 -276h-48l160 276h229l-234 -383h-262z" />
    <glyph glyph-name="Dcaron" unicode="&#x10e;" horiz-adv-x="1500" 
d="M539 -15q-62 0 -130 2.5t-138 7.5t-138 14v1438q69 15 147.5 26t160.5 17t161 6q403 0 608.5 -183.5t205.5 -572.5q0 -265 -97 -431.5t-292 -245t-488 -78.5zM623 249q154 0 256.5 48.5t153 157t50.5 286.5q0 177 -51.5 285.5t-153.5 158t-253 49.5q-38 0 -83 -4t-84 -11
v-963q41 -4 81.5 -5.5t83.5 -1.5zM535 1595l-255 303h242l174 -216h-50l174 216h242l-255 -303h-272z" />
    <glyph glyph-name="dcaron" unicode="&#x10f;" horiz-adv-x="1230" 
d="M518 -19q-121 0 -223.5 55t-164 175t-61.5 313q0 191 68 322t200.5 198.5t328.5 67.5q33 0 65.5 -2.5t60.5 -5.5v512h319v-1616h-268l-19 115h-15q-47 -60 -120.5 -97t-170.5 -37zM612 241q49 0 97.5 18t82.5 56v542q-26 6 -60 9.5t-67 3.5q-137 0 -206 -73.5t-69 -247.5
q0 -119 28 -186t77.5 -94.5t116.5 -27.5zM1181 1180q17 113 23 217.5t6 218.5h213q0 -118 -18.5 -232t-51.5 -204h-172z" />
    <glyph glyph-name="Dcroat" unicode="&#x110;" horiz-adv-x="1500" 
d="M3 658v208h729v-208h-729zM539 -15q-62 0 -130 2.5t-138 7.5t-138 14v1438q69 15 147.5 26t160.5 17t161 6q403 0 608.5 -183.5t205.5 -572.5q0 -265 -97 -431.5t-292 -245t-488 -78.5zM623 249q154 0 256.5 48.5t153 157t50.5 286.5q0 177 -51.5 285.5t-153.5 158
t-253 49.5q-38 0 -83 -4t-84 -11v-963q41 -4 81.5 -5.5t83.5 -1.5z" />
    <glyph glyph-name="dcroat" unicode="&#x111;" horiz-adv-x="1230" 
d="M455 1254v200h771v-200h-771zM518 -19q-121 0 -223.5 55t-164 175t-61.5 313q0 191 68 322t200.5 198.5t328.5 67.5q33 0 65.5 -2.5t60.5 -5.5v512h319v-1616h-268l-19 115h-15q-47 -60 -120.5 -97t-170.5 -37zM612 241q49 0 97.5 18t82.5 56v542q-26 6 -60 9.5t-67 3.5
q-137 0 -206 -73.5t-69 -247.5q0 -119 28 -186t77.5 -94.5t116.5 -27.5z" />
    <glyph glyph-name="Emacron" unicode="&#x112;" horiz-adv-x="1254" 
d="M133 0v1480h1039v-260h-718v-960h728v-260h-1049zM326 627v260h744v-260h-744zM307 1644v192h736v-192h-736z" />
    <glyph glyph-name="emacron" unicode="&#x113;" horiz-adv-x="1109" 
d="M670 -21q-206 0 -339 59t-197.5 185t-64.5 325q0 181 59.5 307t173 191t275.5 65q155 0 261 -65.5t160 -193.5t54 -314v-83h-801v183h555l-51 -19q0 108 -20 172t-60.5 91t-100.5 27q-61 0 -102.5 -27t-63 -90.5t-21.5 -171.5v-128q0 -101 29.5 -160.5t101 -85.5
t197.5 -26q64 0 134.5 9.5t141.5 25.5v-239q-87 -20 -165.5 -28.5t-155.5 -8.5zM216 1324v192h710v-192h-710z" />
    <glyph glyph-name="Ebreve" unicode="&#x114;" horiz-adv-x="1254" 
d="M133 0v1480h1039v-260h-718v-960h728v-260h-1049zM326 627v260h744v-260h-744zM676 1599q-119 0 -200.5 36t-127 101.5t-55.5 152.5h195q11 -65 55.5 -100t132.5 -35t131.5 35t54.5 100h195q-10 -88 -55 -153t-126 -101t-200 -36z" />
    <glyph glyph-name="ebreve" unicode="&#x115;" horiz-adv-x="1109" 
d="M670 -21q-206 0 -339 59t-197.5 185t-64.5 325q0 181 59.5 307t173 191t275.5 65q155 0 261 -65.5t160 -193.5t54 -314v-83h-801v183h555l-51 -19q0 108 -20 172t-60.5 91t-100.5 27q-61 0 -102.5 -27t-63 -90.5t-21.5 -171.5v-128q0 -101 29.5 -160.5t101 -85.5
t197.5 -26q64 0 134.5 9.5t141.5 25.5v-239q-87 -20 -165.5 -28.5t-155.5 -8.5zM572 1242q-165 0 -260 90t-105 262h194q7 -95 49 -142t122 -47t121.5 47t47.5 142h194q-9 -173 -103.5 -262.5t-259.5 -89.5z" />
    <glyph glyph-name="Edotaccent" unicode="&#x116;" horiz-adv-x="1254" 
d="M133 0v1480h1039v-260h-718v-960h728v-260h-1049zM326 627v260h744v-260h-744zM675 1606q-97 0 -146 38.5t-49 106.5q0 69 49 107t146 38t146 -38t49 -107q0 -68 -49 -106.5t-146 -38.5z" />
    <glyph glyph-name="edotaccent" unicode="&#x117;" horiz-adv-x="1109" 
d="M670 -21q-206 0 -339 59t-197.5 185t-64.5 325q0 181 59.5 307t173 191t275.5 65q155 0 261 -65.5t160 -193.5t54 -314v-83h-801v183h555l-51 -19q0 108 -20 172t-60.5 91t-100.5 27q-61 0 -102.5 -27t-63 -90.5t-21.5 -171.5v-128q0 -101 29.5 -160.5t101 -85.5
t197.5 -26q64 0 134.5 9.5t141.5 25.5v-239q-87 -20 -165.5 -28.5t-155.5 -8.5zM571 1253q-100 0 -148.5 44t-48.5 122q0 80 48.5 123.5t148.5 43.5q101 0 149 -43.5t48 -123.5q0 -78 -48 -122t-149 -44z" />
    <glyph glyph-name="Eogonek" unicode="&#x118;" horiz-adv-x="1254" 
d="M133 0v1480h1039v-260h-718v-960h728v-260h-1049zM326 627v260h744v-260h-744zM1050 -442q-142 0 -211.5 56t-69.5 151q0 62 30.5 116.5t102 102t194.5 88.5l86 -72q-91 -35 -141.5 -69.5t-70 -70t-19.5 -73.5q0 -48 34 -74.5t108 -26.5q30 0 65 7t77 22v-124
q-41 -15 -86 -24t-99 -9z" />
    <glyph glyph-name="eogonek" unicode="&#x119;" horiz-adv-x="1109" 
d="M820 -442q-129 0 -195 56t-66 151q0 85 54 155.5t192 121.5l10 -56q-37 -3 -74 -5t-71 -2q-206 0 -339 59t-197.5 185t-64.5 325q0 181 59.5 307t173 191t275.5 65q155 0 261 -65.5t160 -193.5t54 -314v-83h-801v176h555l-51 -19q0 108 -20 172t-60.5 91t-100.5 27
q-61 0 -102.5 -27t-63 -90.5t-21.5 -172.5v-120q0 -101 29.5 -160.5t101 -85.5t197.5 -26q64 0 134.5 9.5t141.5 25.5v-239q-101 -35 -155 -73.5t-74.5 -78t-20.5 -78.5q0 -46 31 -73t91 -27q28 0 60.5 7.5t67.5 23.5v-126q-35 -14 -76.5 -23.5t-94.5 -9.5z" />
    <glyph glyph-name="Ecaron" unicode="&#x11a;" horiz-adv-x="1254" 
d="M133 0v1480h1039v-260h-718v-960h728v-260h-1049zM326 627v260h744v-260h-744zM539 1595l-255 303h242l174 -216h-50l174 216h242l-255 -303h-272z" />
    <glyph glyph-name="ecaron" unicode="&#x11b;" horiz-adv-x="1109" 
d="M670 -21q-206 0 -339 59t-197.5 185t-64.5 325q0 181 59.5 307t173 191t275.5 65q155 0 261 -65.5t160 -193.5t54 -314v-83h-801v183h555l-51 -19q0 108 -20 172t-60.5 91t-100.5 27q-61 0 -102.5 -27t-63 -90.5t-21.5 -171.5v-128q0 -101 29.5 -160.5t101 -85.5
t197.5 -26q64 0 134.5 9.5t141.5 25.5v-239q-87 -20 -165.5 -28.5t-155.5 -8.5zM440 1233l-234 383h229l160 -276h-48l160 276h229l-234 -383h-262z" />
    <glyph glyph-name="Gcircumflex" unicode="&#x11c;" horiz-adv-x="1426" 
d="M929 -17q-281 0 -469 81.5t-282 248.5t-94 424q0 255 97 424t284 253.5t458 84.5q87 0 170.5 -9t163.5 -28v-268q-78 19 -153.5 28t-151.5 9q-181 0 -298 -50t-174.5 -159.5t-57.5 -289.5q0 -168 53.5 -274.5t160.5 -157t268 -50.5q61 0 121 4.5t110 12.5l-139 -121v574
h303v-704q-96 -16 -187.5 -24.5t-182.5 -8.5zM413 1595l255 303h272l255 -303h-242l-174 216h50l-174 -216h-242z" />
    <glyph glyph-name="gcircumflex" unicode="&#x11d;" horiz-adv-x="1230" 
d="M512 -460q-87 0 -182 10.5t-184 34.5v249q92 -25 179 -37t162 -12q160 0 232.5 60t72.5 200v72h-15q-47 -58 -118.5 -91t-164.5 -33q-112 0 -209 56.5t-156.5 174t-59.5 301.5q0 283 154 434.5t467 151.5q70 0 144.5 -7t145.5 -20.5t131 -33.5v-947q0 -297 -148 -430
t-451 -133zM615 252q48 0 95 16.5t82 49.5v538q-26 6 -59.5 10t-70.5 4q-132 0 -202 -73.5t-70 -244.5q0 -116 28 -181.5t78.5 -92t118.5 -26.5zM276 1233l232 383h262l232 -383h-228l-159 276h48l-159 -276h-228z" />
    <glyph glyph-name="Gbreve" unicode="&#x11e;" horiz-adv-x="1426" 
d="M929 -17q-281 0 -469 81.5t-282 248.5t-94 424q0 255 97 424t284 253.5t458 84.5q87 0 170.5 -9t163.5 -28v-268q-78 19 -153.5 28t-151.5 9q-181 0 -298 -50t-174.5 -159.5t-57.5 -289.5q0 -168 53.5 -274.5t160.5 -157t268 -50.5q61 0 121 4.5t110 12.5l-139 -121v574
h303v-704q-96 -16 -187.5 -24.5t-182.5 -8.5zM805 1599q-119 0 -200.5 36t-127 101.5t-55.5 152.5h195q11 -65 55.5 -100t132.5 -35t131.5 35t54.5 100h195q-10 -88 -55 -153t-126 -101t-200 -36z" />
    <glyph glyph-name="gbreve" unicode="&#x11f;" horiz-adv-x="1230" 
d="M512 -460q-87 0 -182 10.5t-184 34.5v249q92 -25 179 -37t162 -12q160 0 232.5 60t72.5 200v72h-15q-47 -58 -118.5 -91t-164.5 -33q-112 0 -209 56.5t-156.5 174t-59.5 301.5q0 283 154 434.5t467 151.5q70 0 144.5 -7t145.5 -20.5t131 -33.5v-947q0 -297 -148 -430
t-451 -133zM615 252q48 0 95 16.5t82 49.5v538q-26 6 -59.5 10t-70.5 4q-132 0 -202 -73.5t-70 -244.5q0 -116 28 -181.5t78.5 -92t118.5 -26.5zM640 1242q-165 0 -260 90t-105 262h194q7 -95 49 -142t122 -47t121.5 47t47.5 142h194q-9 -173 -103.5 -262.5t-259.5 -89.5z
" />
    <glyph glyph-name="Gdotaccent" unicode="&#x120;" horiz-adv-x="1426" 
d="M929 -17q-281 0 -469 81.5t-282 248.5t-94 424q0 255 97 424t284 253.5t458 84.5q87 0 170.5 -9t163.5 -28v-268q-78 19 -153.5 28t-151.5 9q-181 0 -298 -50t-174.5 -159.5t-57.5 -289.5q0 -168 53.5 -274.5t160.5 -157t268 -50.5q61 0 121 4.5t110 12.5l-139 -121v574
h303v-704q-96 -16 -187.5 -24.5t-182.5 -8.5zM804 1606q-97 0 -146 38.5t-49 106.5q0 69 49 107t146 38t146 -38t49 -107q0 -68 -49 -106.5t-146 -38.5z" />
    <glyph glyph-name="gdotaccent" unicode="&#x121;" horiz-adv-x="1230" 
d="M512 -460q-87 0 -182 10.5t-184 34.5v249q92 -25 179 -37t162 -12q160 0 232.5 60t72.5 200v72h-15q-47 -58 -118.5 -91t-164.5 -33q-112 0 -209 56.5t-156.5 174t-59.5 301.5q0 283 154 434.5t467 151.5q70 0 144.5 -7t145.5 -20.5t131 -33.5v-947q0 -297 -148 -430
t-451 -133zM615 252q48 0 95 16.5t82 49.5v538q-26 6 -59.5 10t-70.5 4q-132 0 -202 -73.5t-70 -244.5q0 -116 28 -181.5t78.5 -92t118.5 -26.5zM639 1253q-100 0 -148.5 44t-48.5 122q0 80 48.5 123.5t148.5 43.5q101 0 149 -43.5t48 -123.5q0 -78 -48 -122t-149 -44z" />
    <glyph glyph-name="uni0122" unicode="&#x122;" horiz-adv-x="1426" 
d="M929 -17q-281 0 -469 81.5t-282 248.5t-94 424q0 255 97 424t284 253.5t458 84.5q87 0 170.5 -9t163.5 -28v-268q-78 19 -153.5 28t-151.5 9q-181 0 -298 -50t-174.5 -159.5t-57.5 -289.5q0 -168 53.5 -274.5t160.5 -157t268 -50.5q61 0 121 4.5t110 12.5l-139 -121v574
h303v-704q-96 -16 -187.5 -24.5t-182.5 -8.5zM708 -497q34 66 47 112t13 96l59 -65h-23q-95 0 -137 31t-42 83t43 82t135 30q94 0 137 -38.5t43 -110.5q0 -53 -21.5 -114t-56.5 -106h-197z" />
    <glyph glyph-name="uni0123" unicode="&#x123;" horiz-adv-x="1230" 
d="M512 -460q-87 0 -182 10.5t-184 34.5v249q92 -25 179 -37t162 -12q160 0 232.5 60t72.5 200v72h-15q-47 -58 -118.5 -91t-164.5 -33q-112 0 -209 56.5t-156.5 174t-59.5 301.5q0 283 154 434.5t467 151.5q70 0 144.5 -7t145.5 -20.5t131 -33.5v-947q0 -297 -148 -430
t-451 -133zM615 252q48 0 95 16.5t82 49.5v538q-26 6 -59.5 10t-70.5 4q-132 0 -202 -73.5t-70 -244.5q0 -116 28 -181.5t78.5 -92t118.5 -26.5zM640 1256q-93 0 -136.5 39t-43.5 110q0 54 22 114.5t56 105.5h197q-34 -66 -47 -111.5t-13 -96.5l-59 65h23q96 0 137.5 -30.5
t41.5 -82.5t-42.5 -82.5t-135.5 -30.5z" />
    <glyph glyph-name="Hcircumflex" unicode="&#x124;" horiz-adv-x="1526" 
d="M133 0v1480h325v-580h610v580h325v-1480h-325v614h-610v-614h-325zM373 1595l255 303h272l255 -303h-242l-174 216h50l-174 -216h-242z" />
    <glyph glyph-name="hcircumflex" unicode="&#x125;" horiz-adv-x="1222" 
d="M119 0v1616h318v-632h16q56 62 132 94.5t170 32.5q100 0 181 -42t128.5 -136.5t47.5 -250.5v-682h-319v661q0 100 -41.5 137.5t-112.5 37.5q-36 0 -73 -9.5t-70.5 -29.5t-58.5 -50v-747h-318zM225 1691l255 303h272l255 -303h-242l-174 216h50l-174 -216h-242z" />
    <glyph glyph-name="Hbar" unicode="&#x126;" horiz-adv-x="1526" 
d="M3 1090v200h1519v-200h-1519zM133 0v1480h325v-580h610v580h325v-1480h-325v614h-610v-614h-325z" />
    <glyph glyph-name="hbar" unicode="&#x127;" horiz-adv-x="1222" 
d="M4 1252v200h771v-200h-771zM119 0v1616h318v-632h16q56 62 132 94.5t170 32.5q100 0 181 -42t128.5 -136.5t47.5 -250.5v-682h-319v661q0 100 -41.5 137.5t-112.5 37.5q-36 0 -73 -9.5t-70.5 -29.5t-58.5 -50v-747h-318z" />
    <glyph glyph-name="Itilde" unicode="&#x128;" horiz-adv-x="591" 
d="M133 0v1480h325v-1480h-325zM468 1619q-53 0 -99 13t-90 27q-39 14 -78.5 25t-82.5 11q-61 0 -107 -17.5t-92 -52.5v183q40 37 88.5 55t116.5 18q54 0 100 -13t89 -28q40 -14 79.5 -25.5t81.5 -11.5q61 0 107 17.5t92 52.5v-183q-39 -36 -88 -53.5t-117 -17.5z" />
    <glyph glyph-name="itilde" unicode="&#x129;" horiz-adv-x="557" 
d="M119 0v1094h319v-1094h-319zM436 1285q-48 0 -91.5 16t-83.5 33q-37 17 -73 30t-73 13q-56 0 -101 -20t-91 -65v200q76 77 197 77q49 0 92 -15.5t83 -33.5q37 -16 73 -29.5t73 -13.5q57 0 102 20.5t90 64.5v-200q-76 -77 -197 -77z" />
    <glyph glyph-name="Imacron" unicode="&#x12a;" horiz-adv-x="591" 
d="M133 0v1480h325v-1480h-325zM-72 1644v192h736v-192h-736z" />
    <glyph glyph-name="imacron" unicode="&#x12b;" horiz-adv-x="557" 
d="M119 0v1094h319v-1094h-319zM-77 1324v192h710v-192h-710z" />
    <glyph glyph-name="Ibreve" unicode="&#x12c;" horiz-adv-x="591" 
d="M133 0v1480h325v-1480h-325zM297 1599q-119 0 -200.5 36t-127 101.5t-55.5 152.5h195q11 -65 55.5 -100t132.5 -35t131.5 35t54.5 100h195q-10 -88 -55 -153t-126 -101t-200 -36z" />
    <glyph glyph-name="ibreve" unicode="&#x12d;" horiz-adv-x="557" 
d="M119 0v1094h319v-1094h-319zM279 1242q-165 0 -260 90t-105 262h194q7 -95 49 -142t122 -47t121.5 47t47.5 142h194q-9 -173 -103.5 -262.5t-259.5 -89.5z" />
    <glyph glyph-name="Iogonek" unicode="&#x12e;" horiz-adv-x="591" 
d="M133 0v1480h325v-1480h-325zM326 -442q-142 0 -211.5 56t-69.5 151q0 62 30.5 116.5t102 102t194.5 88.5l86 -72q-91 -35 -141.5 -69.5t-70 -70t-19.5 -73.5q0 -48 34 -74.5t108 -26.5q30 0 65 7t77 22v-124q-41 -15 -86 -24t-99 -9z" />
    <glyph glyph-name="iogonek" unicode="&#x12f;" horiz-adv-x="557" 
d="M119 0v1094h319v-1094h-319zM278 1253q-100 0 -148.5 44t-48.5 122q0 80 48.5 123.5t148.5 43.5q101 0 149 -43.5t48 -123.5q0 -78 -48 -122t-149 -44zM306 -442q-129 0 -195 56t-66 151q0 62 28.5 117t95.5 102t183 88l86 -72q-82 -35 -128 -69t-64.5 -70t-18.5 -75
q0 -46 31 -73t91 -27q28 0 60.5 7.5t67.5 23.5v-126q-35 -14 -76.5 -23.5t-94.5 -9.5z" />
    <glyph glyph-name="Idotaccent" unicode="&#x130;" horiz-adv-x="591" 
d="M133 0v1480h325v-1480h-325zM296 1606q-97 0 -146 38.5t-49 106.5q0 69 49 107t146 38t146 -38t49 -107q0 -68 -49 -106.5t-146 -38.5z" />
    <glyph glyph-name="dotlessi" unicode="&#x131;" horiz-adv-x="557" 
d="M119 0v1094h319v-1094h-319z" />
    <glyph glyph-name="Jcircumflex" unicode="&#x134;" horiz-adv-x="591" 
d="M185 -350l-207 138q58 78 92.5 153t49.5 161t15 197v1181h323v-1180q0 -124 -26.5 -231.5t-86.5 -210t-160 -208.5zM-95 1595l255 303h272l255 -303h-242l-174 216h50l-174 -216h-242z" />
    <glyph glyph-name="jcircumflex" unicode="&#x135;" horiz-adv-x="557" 
d="M168 -471l-206 137q58 77 92.5 153t49.5 162.5t15 194.5v918h319v-905q0 -126 -26 -236.5t-85.5 -214t-158.5 -209.5zM-88 1235l232 383h262l232 -383h-228l-159 276h48l-159 -276h-228z" />
    <glyph glyph-name="uni0136" unicode="&#x136;" horiz-adv-x="1330" 
d="M1022 0l-516 754l485 726h342l-509 -762l5 84l547 -802h-354zM133 0v1480h325v-1480h-325zM413 614v286h221v-286h-221zM601 -497q34 66 47 112t13 96l59 -65h-23q-95 0 -137 31t-42 83t43 82t135 30q94 0 137 -38.5t43 -110.5q0 -53 -21.5 -114t-56.5 -106h-197z" />
    <glyph glyph-name="uni0137" unicode="&#x137;" horiz-adv-x="1179" 
d="M865 0l-387 562l359 532h340l-376 -568v84l411 -610h-347zM410 434v255h181v-255h-181zM119 0v1616h318v-1616h-318zM527 -497q34 66 47 112t13 96l59 -65h-23q-95 0 -137 31t-42 83t43 82t135 30q94 0 137 -38.5t43 -110.5q0 -53 -21.5 -114t-56.5 -106h-197z" />
    <glyph glyph-name="kgreenlandic" unicode="&#x138;" horiz-adv-x="1179" 
d="M865 0l-387 562l359 532h340l-376 -568v84l411 -610h-347zM119 0v1094h318v-1094h-318zM410 434v255h181v-255h-181z" />
    <glyph glyph-name="Lacute" unicode="&#x139;" horiz-adv-x="1148" 
d="M133 0v1480h325v-1210h680v-270h-1005zM153 1595l181 303h335l-229 -303h-287z" />
    <glyph glyph-name="lacute" unicode="&#x13a;" horiz-adv-x="556" 
d="M119 0v1616h318v-1616h-318zM133 1691l181 303h335l-229 -303h-287z" />
    <glyph glyph-name="uni013B" unicode="&#x13b;" horiz-adv-x="1148" 
d="M133 0v1480h325v-1210h680v-270h-1005zM540 -497q34 66 47 112t13 96l59 -65h-23q-95 0 -137 31t-42 83t43 82t135 30q94 0 137 -38.5t43 -110.5q0 -53 -21.5 -114t-56.5 -106h-197z" />
    <glyph glyph-name="uni013C" unicode="&#x13c;" horiz-adv-x="556" 
d="M119 0v1616h318v-1616h-318zM182 -497q34 66 47 112t13 96l59 -65h-23q-95 0 -137 31t-42 83t43 82t135 30q94 0 137 -38.5t43 -110.5q0 -53 -21.5 -114t-56.5 -106h-197z" />
    <glyph glyph-name="Lcaron" unicode="&#x13d;" horiz-adv-x="1148" 
d="M133 0v1480h325v-1210h680v-270h-1005zM729 1140q11 75 17 147.5t8.5 152.5t2.5 176h213q0 -148 -18.5 -267t-49.5 -209h-173z" />
    <glyph glyph-name="lcaron" unicode="&#x13e;" horiz-adv-x="556" 
d="M119 0v1616h318v-1616h-318zM507 1180q17 113 23 217.5t6 218.5h213q0 -118 -18.5 -232t-51.5 -204h-172z" />
    <glyph glyph-name="Ldot" unicode="&#x13f;" horiz-adv-x="1148" 
d="M133 0v1480h325v-1210h680v-270h-1005zM860 705q-100 0 -148.5 43.5t-48.5 122.5t48.5 122.5t148.5 43.5q101 0 149 -43.5t48 -122.5t-48 -122.5t-149 -43.5z" />
    <glyph glyph-name="ldot" unicode="&#x140;" horiz-adv-x="862" 
d="M119 0v1616h318v-1616h-318zM705 628q-100 0 -148.5 43.5t-48.5 121.5q0 80 48.5 123.5t148.5 43.5q101 0 149 -43.5t48 -123.5q0 -78 -48 -121.5t-149 -43.5z" />
    <glyph glyph-name="Lslash" unicode="&#x141;" horiz-adv-x="1161" 
d="M4 538v239l775 434v-239zM146 0v1480h325v-1210h681v-270h-1006z" />
    <glyph glyph-name="lslash" unicode="&#x142;" horiz-adv-x="619" 
d="M18 441v227l582 319v-226zM150 0v1616h319v-1616h-319z" />
    <glyph glyph-name="Nacute" unicode="&#x143;" horiz-adv-x="1543" 
d="M133 0v1480h326l701 -1077h-56v1077h306v-1480h-327l-700 1077h56v-1077h-306zM627 1595l181 303h335l-229 -303h-287z" />
    <glyph glyph-name="nacute" unicode="&#x144;" horiz-adv-x="1222" 
d="M119 0v1094h263l21 -111h15q61 62 143 95t178 33q108 0 192.5 -42.5t132.5 -137t48 -249.5v-682h-319v662q0 99 -41 137t-113 38q-36 0 -72.5 -9.5t-70 -29.5t-59.5 -50v-748h-318zM470 1233l226 383h338l-272 -383h-292z" />
    <glyph glyph-name="uni0145" unicode="&#x145;" horiz-adv-x="1543" 
d="M133 0v1480h326l701 -1077h-56v1077h306v-1480h-327l-700 1077h56v-1077h-306zM676 -497q34 66 47 112t13 96l59 -65h-23q-95 0 -137 31t-42 83t43 82t135 30q94 0 137 -38.5t43 -110.5q0 -53 -21.5 -114t-56.5 -106h-197z" />
    <glyph glyph-name="uni0146" unicode="&#x146;" horiz-adv-x="1222" 
d="M119 0v1094h263l21 -111h15q61 62 143 95t178 33q108 0 192.5 -42.5t132.5 -137t48 -249.5v-682h-319v662q0 99 -41 137t-113 38q-36 0 -72.5 -9.5t-70 -29.5t-59.5 -50v-748h-318zM520 -497q34 66 47 112t13 96l59 -65h-23q-95 0 -137 31t-42 83t43 82t135 30
q94 0 137 -38.5t43 -110.5q0 -53 -21.5 -114t-56.5 -106h-197z" />
    <glyph glyph-name="Ncaron" unicode="&#x147;" horiz-adv-x="1543" 
d="M133 0v1480h326l701 -1077h-56v1077h306v-1480h-327l-700 1077h56v-1077h-306zM636 1595l-255 303h242l174 -216h-50l174 216h242l-255 -303h-272z" />
    <glyph glyph-name="ncaron" unicode="&#x148;" horiz-adv-x="1222" 
d="M119 0v1094h263l21 -111h15q61 62 143 95t178 33q108 0 192.5 -42.5t132.5 -137t48 -249.5v-682h-319v662q0 99 -41 137t-113 38q-36 0 -72.5 -9.5t-70 -29.5t-59.5 -50v-748h-318zM485 1233l-234 383h229l160 -276h-48l160 276h229l-234 -383h-262z" />
    <glyph glyph-name="napostrophe" unicode="&#x149;" horiz-adv-x="1222" 
d="M119 0v1094h263l21 -111h15q61 62 143 95t178 33q108 0 192.5 -42.5t132.5 -137t48 -249.5v-682h-319v662q0 99 -41 137t-113 38q-36 0 -72.5 -9.5t-70 -29.5t-59.5 -50v-748h-318zM94 1256q34 66 47 112.5t13 95.5l59 -64h-23q-95 0 -137 31t-42 82q0 52 43 82t135 30
q93 0 136 -38.5t43 -110.5q0 -53 -21 -113.5t-56 -106.5h-197z" />
    <glyph glyph-name="Eng" unicode="&#x14a;" horiz-adv-x="1543" 
d="M1143 -94l-760 1171h56v-1077h-306v1480h326l729 -1115zM1139 -471l-205 137q60 77 97.5 153t55 162.5t17.5 194.5v1304h306v-1263q0 -140 -26.5 -256.5t-85.5 -221t-159 -210.5z" />
    <glyph glyph-name="eng" unicode="&#x14b;" horiz-adv-x="1222" 
d="M842 -471l-205 137q58 77 92.5 153t49 162.5t14.5 194.5v488q0 100 -41.5 138t-112.5 38q-36 0 -73 -9.5t-70.5 -29.5t-58.5 -50v-751h-318v1094h263l21 -111h15q62 63 144 95.5t178 32.5q107 0 191.5 -42t132.5 -136.5t48 -250.5v-505q0 -122 -26 -229.5t-85 -210
t-159 -208.5z" />
    <glyph glyph-name="Omacron" unicode="&#x14c;" horiz-adv-x="1562" 
d="M781 -19q-211 0 -367.5 82t-243 250.5t-86.5 426.5t86.5 426.5t243 250.5t367.5 82t367.5 -82.5t243 -251t86.5 -425.5t-86.5 -425.5t-243.5 -251t-367 -82.5zM781 243q114 0 195.5 49.5t125 157.5t43.5 283q0 182 -44 292.5t-125.5 161t-194.5 50.5t-194.5 -49
t-125.5 -157t-44 -284q0 -183 43.5 -293.5t125 -160.5t195.5 -50zM413 1644v192h736v-192h-736z" />
    <glyph glyph-name="omacron" unicode="&#x14d;" horiz-adv-x="1204" 
d="M602 -21q-164 0 -283.5 62.5t-184.5 188t-65 314.5q0 191 63.5 317t183 188t286.5 62t286.5 -62.5t183 -188t63.5 -314.5q0 -190 -65 -316t-184.5 -188.5t-283.5 -62.5zM602 221q67 0 114.5 29t72.5 99.5t25 193.5q0 126 -25 197t-72.5 100.5t-114.5 29.5t-114.5 -29
t-72.5 -99.5t-25 -194.5q0 -126 25 -197t72.5 -100t114.5 -29zM247 1324v192h710v-192h-710z" />
    <glyph glyph-name="Obreve" unicode="&#x14e;" horiz-adv-x="1562" 
d="M781 -19q-211 0 -367.5 82t-243 250.5t-86.5 426.5t86.5 426.5t243 250.5t367.5 82t367.5 -82.5t243 -251t86.5 -425.5t-86.5 -425.5t-243.5 -251t-367 -82.5zM781 243q114 0 195.5 49.5t125 157.5t43.5 283q0 182 -44 292.5t-125.5 161t-194.5 50.5t-194.5 -49
t-125.5 -157t-44 -284q0 -183 43.5 -293.5t125 -160.5t195.5 -50zM782 1599q-119 0 -200.5 36t-127 101.5t-55.5 152.5h195q11 -65 55.5 -100t132.5 -35t131.5 35t54.5 100h195q-10 -88 -55 -153t-126 -101t-200 -36z" />
    <glyph glyph-name="obreve" unicode="&#x14f;" horiz-adv-x="1204" 
d="M602 -21q-164 0 -283.5 62.5t-184.5 188t-65 314.5q0 191 63.5 317t183 188t286.5 62t286.5 -62.5t183 -188t63.5 -314.5q0 -190 -65 -316t-184.5 -188.5t-283.5 -62.5zM602 221q67 0 114.5 29t72.5 99.5t25 193.5q0 126 -25 197t-72.5 100.5t-114.5 29.5t-114.5 -29
t-72.5 -99.5t-25 -194.5q0 -126 25 -197t72.5 -100t114.5 -29zM603 1242q-165 0 -260 90t-105 262h194q7 -95 49 -142t122 -47t121.5 47t47.5 142h194q-9 -173 -103.5 -262.5t-259.5 -89.5z" />
    <glyph glyph-name="Ohungarumlaut" unicode="&#x150;" horiz-adv-x="1562" 
d="M781 -19q-211 0 -367.5 82t-243 250.5t-86.5 426.5t86.5 426.5t243 250.5t367.5 82t367.5 -82.5t243 -251t86.5 -425.5t-86.5 -425.5t-243.5 -251t-367 -82.5zM781 243q114 0 195.5 49.5t125 157.5t43.5 283q0 182 -44 292.5t-125.5 161t-194.5 50.5t-194.5 -49
t-125.5 -157t-44 -284q0 -183 43.5 -293.5t125 -160.5t195.5 -50zM866 1595l136 303h252l-152 -303h-236zM460 1595l137 303h252l-153 -303h-236z" />
    <glyph glyph-name="ohungarumlaut" unicode="&#x151;" horiz-adv-x="1204" 
d="M602 -21q-164 0 -283.5 62.5t-184.5 188t-65 314.5q0 191 63.5 317t183 188t286.5 62t286.5 -62.5t183 -188t63.5 -314.5q0 -190 -65 -316t-184.5 -188.5t-283.5 -62.5zM602 221q67 0 114.5 29t72.5 99.5t25 193.5q0 126 -25 197t-72.5 100.5t-114.5 29.5t-114.5 -29
t-72.5 -99.5t-25 -194.5q0 -126 25 -197t72.5 -100t114.5 -29zM687 1233l146 383h252l-163 -383h-235zM282 1233l147 383h251l-163 -383h-235z" />
    <glyph glyph-name="OE" unicode="&#x152;" horiz-adv-x="2114" 
d="M930 -11q-284 0 -471.5 78.5t-281 244.5t-93.5 428q0 259 96.5 425.5t284 247t459.5 80.5q80 0 162 -6.5t157 -6.5h789v-260h-686v-960h696v-260h-795q-49 0 -103.5 -3t-109 -5.5t-104.5 -2.5zM864 253q43 0 83 1t78 4v963q-42 4 -82 5.5t-82 1.5q-147 0 -246 -49
t-149 -157t-50 -283q0 -176 50.5 -283t150.5 -155t247 -48zM1220 627v260h710v-260h-710z" />
    <glyph glyph-name="oe" unicode="&#x153;" horiz-adv-x="1845" 
d="M587 -21q-156 0 -272.5 62.5t-181 188t-64.5 314.5q0 191 63 317t179 188t276 62q163 0 271 -67t162 -193.5t54 -304.5q0 -180 -55.5 -307t-164 -193.5t-267.5 -66.5zM601 221q67 0 114 29t72 99.5t25 193.5q0 126 -25 197t-72.5 100.5t-113.5 29.5t-113.5 -29
t-72.5 -99.5t-25 -194.5q0 -126 25 -197t72 -100t114 -29zM1409 -21q-202 0 -326.5 61t-181 187t-56.5 321l27 24q0 165 54.5 286.5t157.5 187.5t247 66t246 -64.5t156.5 -192.5t54.5 -317v-83h-712v183h467l-51 -21q0 110 -20.5 174t-60 91.5t-97.5 27.5q-59 0 -100 -27.5
t-61.5 -91t-20.5 -171.5v-128q0 -101 29 -160.5t99 -85.5t193 -26q63 0 133.5 9.5t141.5 25.5v-239q-87 -20 -165 -28.5t-154 -8.5z" />
    <glyph glyph-name="Racute" unicode="&#x154;" horiz-adv-x="1378" 
d="M133 0v1447q67 15 143 26.5t157 18t163 6.5q319 0 480 -115.5t161 -360.5q0 -158 -76 -264.5t-216.5 -160.5t-335.5 -54q-44 0 -81 1.5t-76 3.5v-548h-319zM1004 0l-476 684h348l483 -684h-355zM615 785q161 0 239 56t78 181q0 82 -33 134.5t-100 77.5t-170 25
q-51 0 -94 -4t-83 -12v-450q29 -2 54.5 -4.5t52 -3t56.5 -0.5zM532 1595l181 303h335l-229 -303h-287z" />
    <glyph glyph-name="racute" unicode="&#x155;" horiz-adv-x="810" 
d="M119 0v1094h261l24 -141h16q46 81 122 118.5t167 37.5q25 0 48 -2t41 -6v-288q-25 5 -53.5 6.5t-54.5 1.5q-47 0 -95 -11.5t-89 -35t-69 -57.5v-717h-318zM309 1233l226 383h338l-272 -383h-292z" />
    <glyph glyph-name="uni0156" unicode="&#x156;" horiz-adv-x="1378" 
d="M133 0v1447q67 15 143 26.5t157 18t163 6.5q319 0 480 -115.5t161 -360.5q0 -158 -76 -264.5t-216.5 -160.5t-335.5 -54q-44 0 -81 1.5t-76 3.5v-548h-319zM1004 0l-476 684h348l483 -684h-355zM615 785q161 0 239 56t78 181q0 82 -33 134.5t-100 77.5t-170 25
q-51 0 -94 -4t-83 -12v-450q29 -2 54.5 -4.5t52 -3t56.5 -0.5zM627 -497q34 66 47 112t13 96l59 -65h-23q-95 0 -137 31t-42 83t43 82t135 30q94 0 137 -38.5t43 -110.5q0 -53 -21.5 -114t-56.5 -106h-197z" />
    <glyph glyph-name="uni0157" unicode="&#x157;" horiz-adv-x="810" 
d="M119 0v1094h261l24 -141h16q46 81 122 118.5t167 37.5q25 0 48 -2t41 -6v-288q-25 5 -53.5 6.5t-54.5 1.5q-47 0 -95 -11.5t-89 -35t-69 -57.5v-717h-318zM182 -497q34 66 47 112t13 96l59 -65h-23q-95 0 -137 31t-42 83t43 82t135 30q94 0 137 -38.5t43 -110.5
q0 -53 -21.5 -114t-56.5 -106h-197z" />
    <glyph glyph-name="Rcaron" unicode="&#x158;" horiz-adv-x="1378" 
d="M133 0v1447q67 15 143 26.5t157 18t163 6.5q319 0 480 -115.5t161 -360.5q0 -158 -76 -264.5t-216.5 -160.5t-335.5 -54q-44 0 -81 1.5t-76 3.5v-548h-319zM1004 0l-476 684h348l483 -684h-355zM615 785q161 0 239 56t78 181q0 82 -33 134.5t-100 77.5t-170 25
q-51 0 -94 -4t-83 -12v-450q29 -2 54.5 -4.5t52 -3t56.5 -0.5zM541 1595l-255 303h242l174 -216h-50l174 216h242l-255 -303h-272z" />
    <glyph glyph-name="rcaron" unicode="&#x159;" horiz-adv-x="810" 
d="M119 0v1094h261l24 -141h16q46 81 122 118.5t167 37.5q25 0 48 -2t41 -6v-288q-25 5 -53.5 6.5t-54.5 1.5q-47 0 -95 -11.5t-89 -35t-69 -57.5v-717h-318zM324 1233l-234 383h229l160 -276h-48l160 276h229l-234 -383h-262z" />
    <glyph glyph-name="Sacute" unicode="&#x15a;" horiz-adv-x="1153" 
d="M503 -19q-107 0 -214.5 16.5t-198.5 46.5v264q63 -21 134 -35.5t142.5 -22.5t135.5 -8q149 0 211 45.5t62 127.5q0 69 -45.5 108t-169.5 71l-112 29q-194 49 -293.5 152.5t-99.5 273.5q0 212 153.5 331t462.5 119q100 0 190.5 -11.5t160.5 -31.5v-264q-71 22 -158 34
t-175 12q-116 0 -184 -21.5t-97.5 -60.5t-29.5 -90q0 -65 40 -102t150 -67l111 -29q144 -35 237 -92.5t137.5 -141t44.5 -197.5q0 -142 -70.5 -244.5t-203.5 -157t-321 -54.5zM443 1595l181 303h335l-229 -303h-287z" />
    <glyph glyph-name="sacute" unicode="&#x15b;" horiz-adv-x="978" 
d="M440 -21q-94 0 -182.5 12t-166.5 36v234q79 -24 167 -36.5t178 -12.5q108 0 152.5 28.5t44.5 79.5q0 41 -22 62t-77 32l-178 32q-154 29 -224 107t-70 209q0 157 126.5 253t388.5 96q80 0 155.5 -9t136.5 -25v-234q-64 18 -136 27t-147 9q-91 0 -140 -15.5t-68.5 -40.5
t-19.5 -54q0 -35 22 -57t76 -34l178 -32q146 -27 220.5 -99.5t74.5 -215.5q0 -163 -127.5 -257.5t-361.5 -94.5zM348 1233l226 383h338l-272 -383h-292z" />
    <glyph glyph-name="Scircumflex" unicode="&#x15c;" horiz-adv-x="1153" 
d="M503 -19q-107 0 -214.5 16.5t-198.5 46.5v264q63 -21 134 -35.5t142.5 -22.5t135.5 -8q149 0 211 45.5t62 127.5q0 69 -45.5 108t-169.5 71l-112 29q-194 49 -293.5 152.5t-99.5 273.5q0 212 153.5 331t462.5 119q100 0 190.5 -11.5t160.5 -31.5v-264q-71 22 -158 34
t-175 12q-116 0 -184 -21.5t-97.5 -60.5t-29.5 -90q0 -65 40 -102t150 -67l111 -29q144 -35 237 -92.5t137.5 -141t44.5 -197.5q0 -142 -70.5 -244.5t-203.5 -157t-321 -54.5zM197 1595l255 303h272l255 -303h-242l-174 216h50l-174 -216h-242z" />
    <glyph glyph-name="scircumflex" unicode="&#x15d;" horiz-adv-x="978" 
d="M440 -21q-94 0 -182.5 12t-166.5 36v234q79 -24 167 -36.5t178 -12.5q108 0 152.5 28.5t44.5 79.5q0 41 -22 62t-77 32l-178 32q-154 29 -224 107t-70 209q0 157 126.5 253t388.5 96q80 0 155.5 -9t136.5 -25v-234q-64 18 -136 27t-147 9q-91 0 -140 -15.5t-68.5 -40.5
t-19.5 -54q0 -35 22 -57t76 -34l178 -32q146 -27 220.5 -99.5t74.5 -215.5q0 -163 -127.5 -257.5t-361.5 -94.5zM131 1233l232 383h262l232 -383h-228l-159 276h48l-159 -276h-228z" />
    <glyph glyph-name="Scedilla" unicode="&#x15e;" horiz-adv-x="1153" 
d="M503 -19q-107 0 -214.5 16.5t-198.5 46.5v264q63 -21 134 -35.5t142.5 -22.5t135.5 -8q149 0 211 45.5t62 127.5q0 69 -45.5 108t-169.5 71l-112 29q-194 49 -293.5 152.5t-99.5 273.5q0 212 153.5 331t462.5 119q100 0 190.5 -11.5t160.5 -31.5v-264q-71 22 -158 34
t-175 12q-116 0 -184 -21.5t-97.5 -60.5t-29.5 -90q0 -65 40 -102t150 -67l111 -29q144 -35 237 -92.5t137.5 -141t44.5 -197.5q0 -142 -70.5 -244.5t-203.5 -157t-321 -54.5zM559 -442q-56 0 -107 8.5t-95 23.5v123q47 -17 96 -24.5t91 -7.5q58 0 89 16t31 54
q0 39 -31.5 56t-90.5 17h-48v196h153v-148l-68 46q124 0 188 -46t64 -132q0 -84 -67 -133t-205 -49z" />
    <glyph glyph-name="scedilla" unicode="&#x15f;" horiz-adv-x="978" 
d="M440 -21q-94 0 -182.5 12t-166.5 36v234q79 -24 167 -36.5t178 -12.5q108 0 152.5 28.5t44.5 79.5q0 41 -22 62t-77 32l-178 32q-154 29 -224 107t-70 209q0 157 126.5 253t388.5 96q80 0 155.5 -9t136.5 -25v-234q-64 18 -136 27t-147 9q-91 0 -140 -15.5t-68.5 -40.5
t-19.5 -54q0 -35 22 -57t76 -34l178 -32q146 -27 220.5 -99.5t74.5 -215.5q0 -163 -127.5 -257.5t-361.5 -94.5zM490 -442q-50 0 -96.5 8.5t-84.5 22.5v124q40 -17 86 -24.5t81 -7.5q50 0 75.5 16.5t25.5 53.5q0 73 -103 73h-46v196h153v-148l-71 46q115 0 174.5 -47.5
t59.5 -132.5q0 -83 -63 -131.5t-191 -48.5z" />
    <glyph glyph-name="Scaron" unicode="&#x160;" horiz-adv-x="1153" 
d="M503 -19q-107 0 -214.5 16.5t-198.5 46.5v264q63 -21 134 -35.5t142.5 -22.5t135.5 -8q149 0 211 45.5t62 127.5q0 69 -45.5 108t-169.5 71l-112 29q-194 49 -293.5 152.5t-99.5 273.5q0 212 153.5 331t462.5 119q100 0 190.5 -11.5t160.5 -31.5v-264q-71 22 -158 34
t-175 12q-116 0 -184 -21.5t-97.5 -60.5t-29.5 -90q0 -65 40 -102t150 -67l111 -29q144 -35 237 -92.5t137.5 -141t44.5 -197.5q0 -142 -70.5 -244.5t-203.5 -157t-321 -54.5zM452 1595l-255 303h242l174 -216h-50l174 216h242l-255 -303h-272z" />
    <glyph glyph-name="scaron" unicode="&#x161;" horiz-adv-x="978" 
d="M440 -21q-94 0 -182.5 12t-166.5 36v234q79 -24 167 -36.5t178 -12.5q108 0 152.5 28.5t44.5 79.5q0 41 -22 62t-77 32l-178 32q-154 29 -224 107t-70 209q0 157 126.5 253t388.5 96q80 0 155.5 -9t136.5 -25v-234q-64 18 -136 27t-147 9q-91 0 -140 -15.5t-68.5 -40.5
t-19.5 -54q0 -35 22 -57t76 -34l178 -32q146 -27 220.5 -99.5t74.5 -215.5q0 -163 -127.5 -257.5t-361.5 -94.5zM363 1233l-234 383h229l160 -276h-48l160 276h229l-234 -383h-262z" />
    <glyph glyph-name="uni0162" unicode="&#x162;" horiz-adv-x="1285" 
d="M480 0v1210h-467v270h1259v-270h-466v-1210h-326zM614 -442q-56 0 -107 8.5t-95 23.5v123q47 -17 96 -24.5t91 -7.5q58 0 89 16t31 54q0 39 -31.5 56t-90.5 17h-48v196h153v-148l-68 46q124 0 188 -46t64 -132q0 -84 -67 -133t-205 -49z" />
    <glyph glyph-name="uni0163" unicode="&#x163;" horiz-adv-x="843" 
d="M606 -20q-198 0 -304.5 98.5t-106.5 312.5v703l58 386h260v-1039q0 -113 42.5 -156t137.5 -43q26 0 53.5 3.5t61.5 9.5v-252q-43 -9 -96.5 -16t-105.5 -7zM17 843v251h784v-251h-784zM498 -442q-50 0 -96.5 8.5t-84.5 22.5v124q40 -17 86 -24.5t81 -7.5q50 0 75.5 16.5
t25.5 53.5q0 73 -103 73h-46v196h153v-148l-71 46q115 0 174.5 -47.5t59.5 -132.5q0 -83 -63 -131.5t-191 -48.5z" />
    <glyph glyph-name="Tcaron" unicode="&#x164;" horiz-adv-x="1285" 
d="M480 0v1210h-467v270h1259v-270h-466v-1210h-326zM507 1595l-255 303h242l174 -216h-50l174 216h242l-255 -303h-272z" />
    <glyph glyph-name="tcaron" unicode="&#x165;" horiz-adv-x="843" 
d="M606 -20q-198 0 -304.5 98.5t-106.5 312.5v703l58 386h260v-1039q0 -113 42.5 -156t137.5 -43q26 0 53.5 3.5t61.5 9.5v-252q-43 -9 -96.5 -16t-105.5 -7zM17 843v251h784v-251h-784zM617 1180q17 113 23 217.5t6 218.5h213q0 -118 -18.5 -232t-51.5 -204h-172z" />
    <glyph glyph-name="Tbar" unicode="&#x166;" horiz-adv-x="1285" 
d="M180 626v208h926v-208h-926zM480 0v1210h-467v270h1259v-270h-466v-1210h-326z" />
    <glyph glyph-name="tbar" unicode="&#x167;" horiz-adv-x="843" 
d="M73 491v193h677v-193h-677zM606 -20q-198 0 -304.5 98.5t-106.5 312.5v703l58 386h260v-1039q0 -113 42.5 -156t137.5 -43q26 0 53.5 3.5t61.5 9.5v-252q-43 -9 -96.5 -16t-105.5 -7zM17 843v251h784v-251h-784z" />
    <glyph glyph-name="Utilde" unicode="&#x168;" horiz-adv-x="1495" 
d="M751 -19q-216 0 -354 69t-204 209.5t-66 353.5v867h324v-899q0 -176 75 -255t225 -79t224.5 79t74.5 255v899h318v-867q0 -213 -65 -353.5t-202 -209.5t-350 -69zM923 1619q-53 0 -99 13t-90 27q-39 14 -78.5 25t-82.5 11q-61 0 -107 -17.5t-92 -52.5v183q40 37 88.5 55
t116.5 18q54 0 100 -13t89 -28q40 -14 79.5 -25.5t81.5 -11.5q61 0 107 17.5t92 52.5v-183q-39 -36 -88 -53.5t-117 -17.5z" />
    <glyph glyph-name="utilde" unicode="&#x169;" horiz-adv-x="1213" 
d="M487 -19q-109 0 -194 42.5t-134 136.5t-49 249v685h319v-663q0 -99 41.5 -137t108.5 -38q33 0 69.5 9.5t69.5 29.5t58 50v749h318v-1094h-262l-22 110h-14q-62 -63 -141 -96t-168 -33zM761 1285q-48 0 -91.5 16t-83.5 33q-37 17 -73 30t-73 13q-56 0 -101 -20t-91 -65
v200q76 77 197 77q49 0 92 -15.5t83 -33.5q37 -16 73 -29.5t73 -13.5q57 0 102 20.5t90 64.5v-200q-76 -77 -197 -77z" />
    <glyph glyph-name="Umacron" unicode="&#x16a;" horiz-adv-x="1495" 
d="M751 -19q-216 0 -354 69t-204 209.5t-66 353.5v867h324v-899q0 -176 75 -255t225 -79t224.5 79t74.5 255v899h318v-867q0 -213 -65 -353.5t-202 -209.5t-350 -69zM383 1644v192h736v-192h-736z" />
    <glyph glyph-name="umacron" unicode="&#x16b;" horiz-adv-x="1213" 
d="M487 -19q-109 0 -194 42.5t-134 136.5t-49 249v685h319v-663q0 -99 41.5 -137t108.5 -38q33 0 69.5 9.5t69.5 29.5t58 50v749h318v-1094h-262l-22 110h-14q-62 -63 -141 -96t-168 -33zM248 1324v192h710v-192h-710z" />
    <glyph glyph-name="Ubreve" unicode="&#x16c;" horiz-adv-x="1495" 
d="M751 -19q-216 0 -354 69t-204 209.5t-66 353.5v867h324v-899q0 -176 75 -255t225 -79t224.5 79t74.5 255v899h318v-867q0 -213 -65 -353.5t-202 -209.5t-350 -69zM752 1599q-119 0 -200.5 36t-127 101.5t-55.5 152.5h195q11 -65 55.5 -100t132.5 -35t131.5 35t54.5 100
h195q-10 -88 -55 -153t-126 -101t-200 -36z" />
    <glyph glyph-name="ubreve" unicode="&#x16d;" horiz-adv-x="1213" 
d="M487 -19q-109 0 -194 42.5t-134 136.5t-49 249v685h319v-663q0 -99 41.5 -137t108.5 -38q33 0 69.5 9.5t69.5 29.5t58 50v749h318v-1094h-262l-22 110h-14q-62 -63 -141 -96t-168 -33zM604 1242q-165 0 -260 90t-105 262h194q7 -95 49 -142t122 -47t121.5 47t47.5 142
h194q-9 -173 -103.5 -262.5t-259.5 -89.5z" />
    <glyph glyph-name="Uring" unicode="&#x16e;" horiz-adv-x="1495" 
d="M751 -19q-216 0 -354 69t-204 209.5t-66 353.5v867h324v-899q0 -176 75 -255t225 -79t224.5 79t74.5 255v899h318v-867q0 -213 -65 -353.5t-202 -209.5t-350 -69zM751 1582q-93 0 -154 59.5t-61 149.5q0 91 61 150.5t154 59.5t154 -59.5t61 -150.5q0 -90 -61 -149.5
t-154 -59.5zM751 1695q42 0 67.5 26t25.5 71t-25.5 70.5t-67.5 25.5q-41 0 -67 -25.5t-26 -70.5t26 -71t67 -26z" />
    <glyph glyph-name="uring" unicode="&#x16f;" horiz-adv-x="1213" 
d="M487 -19q-109 0 -194 42.5t-134 136.5t-49 249v685h319v-663q0 -99 41.5 -137t108.5 -38q33 0 69.5 9.5t69.5 29.5t58 50v749h318v-1094h-262l-22 110h-14q-62 -63 -141 -96t-168 -33zM603 1228q-93 0 -154 59t-61 150t61 150t154 59t154 -59t61 -150t-61 -150t-154 -59z
M603 1340q42 0 67.5 26.5t25.5 70.5q0 45 -25.5 71t-67.5 26q-41 0 -67 -26t-26 -71q0 -44 26 -70.5t67 -26.5z" />
    <glyph glyph-name="Uhungarumlaut" unicode="&#x170;" horiz-adv-x="1495" 
d="M751 -19q-216 0 -354 69t-204 209.5t-66 353.5v867h324v-899q0 -176 75 -255t225 -79t224.5 79t74.5 255v899h318v-867q0 -213 -65 -353.5t-202 -209.5t-350 -69zM836 1595l136 303h252l-152 -303h-236zM430 1595l137 303h252l-153 -303h-236z" />
    <glyph glyph-name="uhungarumlaut" unicode="&#x171;" horiz-adv-x="1213" 
d="M487 -19q-109 0 -194 42.5t-134 136.5t-49 249v685h319v-663q0 -99 41.5 -137t108.5 -38q33 0 69.5 9.5t69.5 29.5t58 50v749h318v-1094h-262l-22 110h-14q-62 -63 -141 -96t-168 -33zM688 1233l146 383h252l-163 -383h-235zM283 1233l147 383h251l-163 -383h-235z" />
    <glyph glyph-name="Uogonek" unicode="&#x172;" horiz-adv-x="1495" 
d="M838 -442q-142 0 -211.5 56.5t-69.5 152.5q0 83 58.5 153t205.5 124l-24 -63h-46q-216 0 -354 69t-204 209.5t-66 353.5v867h324v-899q0 -176 75 -255t225 -79t224.5 79t74.5 255v899h318v-867q0 -240 -84 -389.5t-267 -207.5q-112 -36 -172 -73.5t-83 -76t-23 -77.5
q0 -49 34 -76t108 -27q30 0 65 7.5t78 22.5v-125q-42 -15 -87 -24t-99 -9z" />
    <glyph glyph-name="uogonek" unicode="&#x173;" horiz-adv-x="1213" 
d="M487 -19q-109 0 -194 42.5t-134 136.5t-49 249v685h319v-663q0 -99 41.5 -137t108.5 -38q33 0 69.5 9.5t69.5 29.5t58 50v749h318v-1094l-251 -14l-33 124h-14q-62 -63 -141 -96t-168 -33zM963 -442q-129 0 -195.5 56t-66.5 151q0 62 28.5 117t95.5 102t183 88l86 -72
q-82 -35 -127.5 -69t-64 -70t-18.5 -75q0 -46 31 -73t90 -27q29 0 61 7.5t68 23.5v-126q-36 -14 -77.5 -23.5t-93.5 -9.5z" />
    <glyph glyph-name="Wcircumflex" unicode="&#x174;" horiz-adv-x="2279" 
d="M421 0l-391 1480h329l334 -1337h-81l357 1337h359l345 -1337h-75l342 1337h308l-391 -1480h-417l-337 1282h86l-351 -1282h-417zM749 1595l255 303h272l255 -303h-242l-174 216h50l-174 -216h-242z" />
    <glyph glyph-name="wcircumflex" unicode="&#x175;" horiz-adv-x="1811" 
d="M338 0l-295 1094h302l196 -784h-16l212 784h352l208 -784h-22l203 784h289l-292 -1094h-353l-223 825h19l-228 -825h-352zM544 1233l232 383h262l232 -383h-228l-159 276h48l-159 -276h-228z" />
    <glyph glyph-name="Ycircumflex" unicode="&#x176;" horiz-adv-x="1285" 
d="M482 0v758l66 -239l-600 961h345l405 -654h-92l400 654h320l-585 -961l66 234v-753h-325zM252 1595l255 303h272l255 -303h-242l-174 216h50l-174 -216h-242z" />
    <glyph glyph-name="ycircumflex" unicode="&#x177;" horiz-adv-x="1166" 
d="M314 -440l157 440l110 252l272 842h314l-540 -1534h-313zM383 0l-384 1094h333l347 -1094h-296zM220 1233l232 383h262l232 -383h-228l-159 276h48l-159 -276h-228z" />
    <glyph glyph-name="Ydieresis" unicode="&#x178;" horiz-adv-x="1285" 
d="M482 0v758l66 -239l-600 961h345l405 -654h-92l400 654h320l-585 -961l66 234v-753h-325zM900 1606q-85 0 -128 38t-43 107q0 68 43 106.5t128 38.5t128.5 -38.5t43.5 -106.5q0 -69 -43.5 -107t-128.5 -38zM386 1606q-85 0 -128.5 38t-43.5 107q0 68 43.5 106.5
t128.5 38.5t128 -38.5t43 -106.5q0 -69 -43 -107t-128 -38z" />
    <glyph glyph-name="Zacute" unicode="&#x179;" horiz-adv-x="1239" 
d="M59 0v178l731 1094l4 -62h-724v270h1099v-178l-730 -1094l-5 62h746v-270h-1121zM476 1595l181 303h335l-229 -303h-287z" />
    <glyph glyph-name="zacute" unicode="&#x17a;" horiz-adv-x="1012" 
d="M65 0v201l539 700v-58h-528v251h876v-201l-539 -700v58h549v-251h-897zM368 1233l226 383h338l-272 -383h-292z" />
    <glyph glyph-name="Zdotaccent" unicode="&#x17b;" horiz-adv-x="1239" 
d="M59 0v178l731 1094l4 -62h-724v270h1099v-178l-730 -1094l-5 62h746v-270h-1121zM621 1606q-97 0 -146 38.5t-49 106.5q0 69 49 107t146 38t146 -38t49 -107q0 -68 -49 -106.5t-146 -38.5z" />
    <glyph glyph-name="zdotaccent" unicode="&#x17c;" horiz-adv-x="1012" 
d="M65 0v201l539 700v-58h-528v251h876v-201l-539 -700v58h549v-251h-897zM514 1253q-100 0 -148.5 44t-48.5 122q0 80 48.5 123.5t148.5 43.5q101 0 149 -43.5t48 -123.5q0 -78 -48 -122t-149 -44z" />
    <glyph glyph-name="Zcaron" unicode="&#x17d;" horiz-adv-x="1239" 
d="M59 0v178l731 1094l4 -62h-724v270h1099v-178l-730 -1094l-5 62h746v-270h-1121zM485 1595l-255 303h242l174 -216h-50l174 216h242l-255 -303h-272z" />
    <glyph glyph-name="zcaron" unicode="&#x17e;" horiz-adv-x="1012" 
d="M65 0v201l539 700v-58h-528v251h876v-201l-539 -700v58h549v-251h-897zM383 1233l-234 383h229l160 -276h-48l160 276h229l-234 -383h-262z" />
    <glyph glyph-name="uni018F" unicode="&#x18f;" horiz-adv-x="1541" 
d="M775 -19q-211 0 -369 81t-245 247.5t-87 420.5v110h1164v-236h-948l115 116q0 -181 41 -287.5t123.5 -153.5t207.5 -47q117 0 197 45t121.5 151.5t41.5 290.5q0 196 -62.5 309.5t-187.5 162t-312 48.5q-95 0 -202 -11.5t-203 -34.5v263q104 22 215.5 32.5t216.5 10.5
q282 0 472.5 -81.5t287 -253t96.5 -438.5q0 -249 -85.5 -414.5t-239 -248t-358.5 -82.5z" />
    <glyph glyph-name="florin" unicode="&#x192;" horiz-adv-x="802" 
d="M29 -460q-42 0 -81 3t-79 9v249q32 -4 58 -6t53 -2q117 0 170 46t53 144v1194q0 145 56 247.5t165.5 157t268.5 54.5q43 0 82 -3t78 -9v-249q-31 4 -57 6t-54 2q-116 0 -169.5 -46t-53.5 -144v-1194q0 -145 -56 -247.5t-165.5 -157t-268.5 -54.5zM25 843v251h782v-251
h-782z" />
    <glyph glyph-name="Ohorn" unicode="&#x1a0;" horiz-adv-x="1562" 
d="M781 -19q-212 0 -368.5 82t-242.5 250.5t-86 426.5t86.5 426.5t243 250.5t367.5 82q56 0 107 -5t99.5 -10.5t97.5 -5.5q91 0 139 35.5t48 121.5q0 34 -3.5 67t-13.5 74h215q12 -40 16.5 -76.5t4.5 -77.5q0 -101 -40 -166.5t-112.5 -97t-168.5 -31.5l22 63
q136 -85 211 -247.5t75 -402.5q0 -258 -86 -426.5t-242.5 -250.5t-368.5 -82zM781 243q114 0 195.5 49.5t125 157.5t43.5 283q0 182 -44 292.5t-125.5 161t-194.5 50.5t-194.5 -49t-125.5 -157t-44 -284q0 -183 43.5 -293.5t125 -160.5t195.5 -50z" />
    <glyph glyph-name="ohorn" unicode="&#x1a1;" horiz-adv-x="1204" 
d="M602 -21q-164 0 -283.5 62.5t-184.5 188t-65 314.5q0 191 64 317t184.5 188t291.5 62q60 0 106.5 -5t80.5 -5q85 0 132.5 35.5t47.5 120.5q0 32 -4 65t-14 74h203q11 -40 15.5 -76.5t4.5 -75.5q0 -101 -40 -166t-111.5 -96.5t-166.5 -31.5l51 82q221 -134 221 -486
q0 -190 -65 -316t-184.5 -188.5t-283.5 -62.5zM602 221q67 0 114.5 29t72.5 99.5t25 193.5q0 126 -25 197t-72.5 100.5t-114.5 29.5t-114.5 -29t-72.5 -99.5t-25 -194.5q0 -126 25 -197t72.5 -100t114.5 -29z" />
    <glyph glyph-name="Uhorn" unicode="&#x1af;" horiz-adv-x="1498" 
d="M751 -19q-216 0 -354 69t-204 209.5t-66 353.5v867h324v-899q0 -176 75 -255t225 -79t224.5 79t74.5 255v899h104q91 0 139 34.5t48 120.5q0 34 -4 67t-13 74h215q12 -40 16.5 -76.5t4.5 -77.5q0 -112 -51.5 -179.5t-140.5 -92.5v-737q0 -213 -65 -353.5t-202 -209.5
t-350 -69z" />
    <glyph glyph-name="uhorn" unicode="&#x1b0;" horiz-adv-x="1247" 
d="M487 -19q-109 0 -194 42.5t-134 136.5t-49 249v685h319v-663q0 -99 41.5 -137t108.5 -38q33 0 69.5 9.5t69.5 29.5t58 50v749h123q86 0 133 35.5t47 120.5q0 32 -3.5 65t-13.5 74h202q12 -40 16 -76.5t4 -75.5q0 -101 -39.5 -166t-111 -96.5t-167.5 -31.5l128 126v-1069
h-262l-22 110h-14q-62 -63 -141 -96t-168 -33z" />
    <glyph glyph-name="uni01C4" unicode="&#x1c4;" horiz-adv-x="2690" 
d="M539 -15q-62 0 -130 2.5t-138 7.5t-138 14v1438q69 15 147.5 26t160.5 17t161 6q403 0 608.5 -183.5t205.5 -572.5q0 -265 -97 -431.5t-292 -245t-488 -78.5zM623 249q154 0 256.5 48.5t153 157t50.5 286.5q0 177 -51.5 285.5t-153.5 158t-253 49.5q-38 0 -83 -4t-84 -11
v-963q41 -4 81.5 -5.5t83.5 -1.5zM1510 0v178l731 1094l4 -62h-724v270h1099v-178l-730 -1094l-5 62h746v-270h-1121zM1935 1595l-255 303h242l174 -216h-50l174 216h242l-255 -303h-272z" />
    <glyph glyph-name="uni01C5" unicode="&#x1c5;" horiz-adv-x="2512" 
d="M539 -15q-62 0 -130 2.5t-138 7.5t-138 14v1438q69 15 147.5 26t160.5 17t161 6q403 0 608.5 -183.5t205.5 -572.5q0 -265 -97 -431.5t-292 -245t-488 -78.5zM623 249q154 0 256.5 48.5t153 157t50.5 286.5q0 177 -51.5 285.5t-153.5 158t-253 49.5q-38 0 -83 -4t-84 -11
v-963q41 -4 81.5 -5.5t83.5 -1.5zM1565 0v201l539 700v-58h-528v251h876v-201l-539 -700v58h549v-251h-897zM1878 1275l-255 303h242l174 -216h-50l174 216h242l-255 -303h-272z" />
    <glyph glyph-name="uni01C6" unicode="&#x1c6;" horiz-adv-x="2242" 
d="M518 -19q-121 0 -223.5 55t-164 175t-61.5 313q0 191 68 322t200.5 198.5t328.5 67.5q33 0 65.5 -2.5t60.5 -5.5v512h319v-1616h-268l-19 115h-15q-47 -60 -120.5 -97t-170.5 -37zM612 241q49 0 97.5 18t82.5 56v542q-26 6 -60 9.5t-67 3.5q-137 0 -206 -73.5t-69 -247.5
q0 -119 28 -186t77.5 -94.5t116.5 -27.5zM1295 0v201l539 700v-58h-528v251h876v-201l-539 -700v58h549v-251h-897zM1613 1233l-234 383h229l160 -276h-48l160 276h229l-234 -383h-262z" />
    <glyph glyph-name="uni01C7" unicode="&#x1c7;" horiz-adv-x="1739" 
d="M133 0v1480h325v-1210h680v-270h-1005zM1333 -350l-207 138q58 78 92.5 153t49.5 161t15 197v1181h323v-1180q0 -124 -26.5 -231.5t-86.5 -210t-160 -208.5z" />
    <glyph glyph-name="uni01C8" unicode="&#x1c8;" horiz-adv-x="1705" 
d="M133 0v1480h325v-1210h680v-270h-1005zM1316 -471l-206 137q58 77 92.5 153t49.5 162.5t15 194.5v918h319v-905q0 -126 -26 -236.5t-85.5 -214t-158.5 -209.5zM1423 1255q-100 0 -148.5 44t-48.5 122q0 80 48.5 123.5t148.5 43.5q101 0 149 -43.5t48 -123.5
q0 -78 -48 -122t-149 -44z" />
    <glyph glyph-name="uni01C9" unicode="&#x1c9;" horiz-adv-x="1113" 
d="M119 0v1616h318v-1616h-318zM724 -471l-206 137q58 77 92.5 153t49.5 162.5t15 194.5v918h319v-905q0 -126 -26 -236.5t-85.5 -214t-158.5 -209.5zM831 1255q-100 0 -148.5 44t-48.5 122q0 80 48.5 123.5t148.5 43.5q101 0 149 -43.5t48 -123.5q0 -78 -48 -122t-149 -44z
" />
    <glyph glyph-name="uni01CA" unicode="&#x1ca;" horiz-adv-x="2134" 
d="M133 0v1480h326l701 -1077h-56v1077h306v-1480h-327l-700 1077h56v-1077h-306zM1728 -350l-207 138q58 78 92.5 153t49.5 161t15 197v1181h323v-1180q0 -124 -26.5 -231.5t-86.5 -210t-160 -208.5z" />
    <glyph glyph-name="uni01CB" unicode="&#x1cb;" horiz-adv-x="2100" 
d="M133 0v1480h326l701 -1077h-56v1077h306v-1480h-327l-700 1077h56v-1077h-306zM1711 -471l-206 137q58 77 92.5 153t49.5 162.5t15 194.5v918h319v-905q0 -126 -26 -236.5t-85.5 -214t-158.5 -209.5zM1818 1255q-100 0 -148.5 44t-48.5 122q0 80 48.5 123.5t148.5 43.5
q101 0 149 -43.5t48 -123.5q0 -78 -48 -122t-149 -44z" />
    <glyph glyph-name="uni01CC" unicode="&#x1cc;" horiz-adv-x="1779" 
d="M119 0v1094h263l21 -111h15q61 62 143 95t178 33q108 0 192.5 -42.5t132.5 -137t48 -249.5v-682h-319v662q0 99 -41 137t-113 38q-36 0 -72.5 -9.5t-70 -29.5t-59.5 -50v-748h-318zM1390 -471l-206 137q58 77 92.5 153t49.5 162.5t15 194.5v918h319v-905
q0 -126 -26 -236.5t-85.5 -214t-158.5 -209.5zM1497 1255q-100 0 -148.5 44t-48.5 122q0 80 48.5 123.5t148.5 43.5q101 0 149 -43.5t48 -123.5q0 -78 -48 -122t-149 -44z" />
    <glyph glyph-name="Gcaron" unicode="&#x1e6;" horiz-adv-x="1426" 
d="M929 -17q-281 0 -469 81.5t-282 248.5t-94 424q0 255 97 424t284 253.5t458 84.5q87 0 170.5 -9t163.5 -28v-268q-78 19 -153.5 28t-151.5 9q-181 0 -298 -50t-174.5 -159.5t-57.5 -289.5q0 -168 53.5 -274.5t160.5 -157t268 -50.5q61 0 121 4.5t110 12.5l-139 -121v574
h303v-704q-96 -16 -187.5 -24.5t-182.5 -8.5zM668 1595l-255 303h242l174 -216h-50l174 216h242l-255 -303h-272z" />
    <glyph glyph-name="gcaron" unicode="&#x1e7;" horiz-adv-x="1230" 
d="M512 -460q-87 0 -182 10.5t-184 34.5v249q92 -25 179 -37t162 -12q160 0 232.5 60t72.5 200v72h-15q-47 -58 -118.5 -91t-164.5 -33q-112 0 -209 56.5t-156.5 174t-59.5 301.5q0 283 154 434.5t467 151.5q70 0 144.5 -7t145.5 -20.5t131 -33.5v-947q0 -297 -148 -430
t-451 -133zM615 252q48 0 95 16.5t82 49.5v538q-26 6 -59.5 10t-70.5 4q-132 0 -202 -73.5t-70 -244.5q0 -116 28 -181.5t78.5 -92t118.5 -26.5zM508 1233l-234 383h229l160 -276h-48l160 276h229l-234 -383h-262z" />
    <glyph glyph-name="uni01EA" unicode="&#x1ea;" horiz-adv-x="1562" 
d="M855 -442q-141 0 -211.5 56t-70.5 151q0 85 58.5 155.5t203.5 122.5l-21 -62h-42q-210 0 -364.5 83t-239 251.5t-84.5 424.5q0 258 86.5 426.5t243 250.5t367.5 82t367.5 -82t243 -250.5t86.5 -426.5q0 -218 -61 -366t-163.5 -235.5t-227.5 -124.5q-104 -33 -163 -70
t-83 -76.5t-24 -80.5q0 -48 34 -74.5t108 -26.5q30 0 65 7t78 22v-124q-42 -15 -87 -24t-99 -9zM781 243q114 0 195.5 49.5t125 157.5t43.5 283q0 182 -44 292.5t-125.5 161t-194.5 50.5t-194.5 -49t-125.5 -157t-44 -284q0 -183 43.5 -293.5t125 -160.5t195.5 -50z" />
    <glyph glyph-name="uni01EB" unicode="&#x1eb;" horiz-adv-x="1204" 
d="M656 -442q-128 0 -194.5 56.5t-66.5 152.5q0 85 51 150.5t165 114.5l-8 -53q-164 0 -283.5 62.5t-185 188t-65.5 314.5q0 191 63.5 317t183 188t286.5 62t286.5 -62.5t183 -188t63.5 -314.5q0 -217 -83.5 -349t-234.5 -185q-96 -35 -148 -71t-72 -74t-20 -76
q0 -48 31.5 -76.5t90.5 -28.5q27 0 58 6.5t64 20.5l6 -122q-36 -15 -77 -24t-94 -9zM602 221q67 0 114.5 29t72.5 99.5t25 193.5q0 126 -25 197t-72.5 100.5t-114.5 29.5t-114.5 -29t-72.5 -99.5t-25 -194.5q0 -126 25 -197t72.5 -100t114.5 -29z" />
    <glyph glyph-name="uni01F1" unicode="&#x1f1;" horiz-adv-x="2690" 
d="M539 -15q-62 0 -130 2.5t-138 7.5t-138 14v1438q69 15 147.5 26t160.5 17t161 6q403 0 608.5 -183.5t205.5 -572.5q0 -265 -97 -431.5t-292 -245t-488 -78.5zM623 249q154 0 256.5 48.5t153 157t50.5 286.5q0 177 -51.5 285.5t-153.5 158t-253 49.5q-38 0 -83 -4t-84 -11
v-963q41 -4 81.5 -5.5t83.5 -1.5zM1510 0v178l731 1094l4 -62h-724v270h1099v-178l-730 -1094l-5 62h746v-270h-1121z" />
    <glyph glyph-name="uni01F2" unicode="&#x1f2;" horiz-adv-x="2512" 
d="M539 -15q-62 0 -130 2.5t-138 7.5t-138 14v1438q69 15 147.5 26t160.5 17t161 6q403 0 608.5 -183.5t205.5 -572.5q0 -265 -97 -431.5t-292 -245t-488 -78.5zM623 249q154 0 256.5 48.5t153 157t50.5 286.5q0 177 -51.5 285.5t-153.5 158t-253 49.5q-38 0 -83 -4t-84 -11
v-963q41 -4 81.5 -5.5t83.5 -1.5zM1565 0v201l539 700v-58h-528v251h876v-201l-539 -700v58h549v-251h-897z" />
    <glyph glyph-name="uni01F3" unicode="&#x1f3;" horiz-adv-x="2242" 
d="M518 -19q-121 0 -223.5 55t-164 175t-61.5 313q0 191 68 322t200.5 198.5t328.5 67.5q33 0 65.5 -2.5t60.5 -5.5v512h319v-1616h-268l-19 115h-15q-47 -60 -120.5 -97t-170.5 -37zM612 241q49 0 97.5 18t82.5 56v542q-26 6 -60 9.5t-67 3.5q-137 0 -206 -73.5t-69 -247.5
q0 -119 28 -186t77.5 -94.5t116.5 -27.5zM1295 0v201l539 700v-58h-528v251h876v-201l-539 -700v58h549v-251h-897z" />
    <glyph glyph-name="uni01F4" unicode="&#x1f4;" horiz-adv-x="1426" 
d="M929 -17q-281 0 -469 81.5t-282 248.5t-94 424q0 255 97 424t284 253.5t458 84.5q87 0 170.5 -9t163.5 -28v-268q-78 19 -153.5 28t-151.5 9q-181 0 -298 -50t-174.5 -159.5t-57.5 -289.5q0 -168 53.5 -274.5t160.5 -157t268 -50.5q61 0 121 4.5t110 12.5l-139 -121v574
h303v-704q-96 -16 -187.5 -24.5t-182.5 -8.5zM659 1595l181 303h335l-229 -303h-287z" />
    <glyph glyph-name="uni01F5" unicode="&#x1f5;" horiz-adv-x="1230" 
d="M512 -460q-87 0 -182 10.5t-184 34.5v249q92 -25 179 -37t162 -12q160 0 232.5 60t72.5 200v72h-15q-47 -58 -118.5 -91t-164.5 -33q-112 0 -209 56.5t-156.5 174t-59.5 301.5q0 283 154 434.5t467 151.5q70 0 144.5 -7t145.5 -20.5t131 -33.5v-947q0 -297 -148 -430
t-451 -133zM615 252q48 0 95 16.5t82 49.5v538q-26 6 -59.5 10t-70.5 4q-132 0 -202 -73.5t-70 -244.5q0 -116 28 -181.5t78.5 -92t118.5 -26.5zM493 1233l226 383h338l-272 -383h-292z" />
    <glyph glyph-name="Aringacute" unicode="&#x1fa;" horiz-adv-x="1457" 
d="M14 0l478 1480h473l478 -1480h-320l-414 1338h34l-413 -1338h-316zM346 395l70 259h624l69 -259h-763zM728 1583q-93 0 -154 59t-61 150t61 150t154 59t154 -59t61 -150t-61 -150t-154 -59zM728 1695q42 0 67.5 26.5t25.5 70.5q0 45 -25.5 71t-67.5 26q-41 0 -67 -26
t-26 -71q0 -44 26 -70.5t67 -26.5zM882 1863l-140 88l141 171h232z" />
    <glyph glyph-name="aringacute" unicode="&#x1fb;" horiz-adv-x="1117" 
d="M418 -20q-168 0 -261.5 87.5t-93.5 228.5q0 155 107.5 242t347.5 103l230 19l34 -176l-232 -19q-92 -7 -132.5 -42t-40.5 -96q0 -60 37 -92.5t108 -32.5q44 0 90 15.5t84 53.5v400q0 75 -24.5 118t-79 61.5t-145.5 18.5q-63 0 -143 -10.5t-153 -33.5v240
q80 23 175.5 34.5t177.5 11.5q174 0 285.5 -43t164.5 -143.5t53 -273.5v-651h-262l-22 109h-15q-49 -67 -125 -98t-165 -31zM555 1228q-93 0 -154 59t-61 150t61 150t154 59t154 -59t61 -150t-61 -150t-154 -59zM555 1340q42 0 68 26.5t26 70.5q0 45 -26 71t-68 26
q-41 0 -67 -26t-26 -71q0 -44 26 -70.5t67 -26.5zM707 1509l-141 87l145 184h231z" />
    <glyph glyph-name="AEacute" unicode="&#x1fc;" horiz-adv-x="2006" 
d="M14 0l481 1480h523l-1 -260h-301l-383 -1220h-319zM348 395l70 259h611v-259h-681zM978 0l-111 1480h1057v-260h-724l78 -960h656v-260h-956zM1089 627v260h733v-260h-733zM880 1595l181 303h335l-229 -303h-287z" />
    <glyph glyph-name="aeacute" unicode="&#x1fd;" horiz-adv-x="1721" 
d="M1285 -21q-203 0 -332.5 59t-191.5 185t-62 325l49 24q0 169 54.5 289.5t157 185.5t246.5 65t246.5 -64.5t156.5 -192.5t54 -317v-83h-712v183h467l-51 -21q0 110 -20 174t-60 91.5t-98 27.5q-59 0 -99.5 -27.5t-61.5 -91t-21 -171.5v-128q0 -101 29.5 -160.5t99.5 -85.5
t192 -26q64 0 134 9.5t141 25.5v-239q-87 -20 -165 -28.5t-153 -8.5zM446 -20q-125 0 -210.5 39.5t-129 111t-43.5 168.5q0 101 47.5 177.5t150 119t267.5 42.5h230v-177h-199q-67 0 -107 -17.5t-57.5 -48t-17.5 -70.5q0 -59 38 -91t110 -32q60 0 116.5 25t108.5 91l91 -148
q-84 -107 -185 -148.5t-210 -41.5zM699 548v122q0 76 -26 119.5t-82 61.5t-145 18q-62 0 -141.5 -10.5t-153.5 -33.5v240q86 24 173 35t167 11q162 0 265.5 -45t153 -144.5t49.5 -261.5v-118zM712 1233l226 383h338l-272 -383h-292z" />
    <glyph glyph-name="Oslashacute" unicode="&#x1fe;" horiz-adv-x="1562" 
d="M312 -2h-218l1152 1483h219zM781 -19q-211 0 -367.5 82t-243 250.5t-86.5 426.5t86.5 426.5t243 250.5t367.5 82t367.5 -82.5t243 -251t86.5 -425.5t-86.5 -425.5t-243.5 -251t-367 -82.5zM781 243q114 0 195.5 49.5t125 157.5t43.5 283q0 182 -44 292.5t-125.5 161
t-194.5 50.5t-194.5 -49t-125.5 -157t-44 -284q0 -183 43.5 -293.5t125 -160.5t195.5 -50zM634 1595l181 303h335l-229 -303h-287z" />
    <glyph glyph-name="oslashacute" unicode="&#x1ff;" horiz-adv-x="1204" 
d="M999 960q66 -70 101 -174t35 -240q0 -190 -65 -316t-184.5 -188.5t-283.5 -62.5q-77 0 -144 15t-123 47l-40 -57h-201l109 151q-64 71 -99 173t-35 236q0 191 63.5 317t183 188t286.5 62q76 0 142 -14.5t121 -44.5l42 58h200zM602 874q-69 0 -119 -29.5t-76 -101
t-26 -196.5q0 -49 6.5 -87t18.5 -66l316 440q-23 21 -53.5 30.5t-66.5 9.5zM602 216q70 0 119.5 29.5t75.5 101t26 196.5q0 52 -6.5 92t-19.5 69l-318 -444q24 -23 55 -33.5t68 -10.5zM453 1233l226 383h338l-272 -383h-292z" />
    <glyph glyph-name="uni0200" unicode="&#x200;" horiz-adv-x="1457" 
d="M14 0l478 1480h473l478 -1480h-320l-414 1338h34l-413 -1338h-316zM346 395l70 259h624l69 -259h-763zM813 1595l-153 303h252l137 -303h-236zM407 1595l-152 303h252l136 -303h-236z" />
    <glyph glyph-name="uni0201" unicode="&#x201;" horiz-adv-x="1117" 
d="M418 -20q-168 0 -261.5 87.5t-93.5 228.5q0 155 107.5 242t347.5 103l230 19l34 -176l-232 -19q-92 -7 -132.5 -42t-40.5 -96q0 -60 37 -92.5t108 -32.5q44 0 90 15.5t84 53.5v400q0 75 -24.5 118t-79 61.5t-145.5 18.5q-63 0 -143 -10.5t-153 -33.5v240
q80 23 175.5 34.5t177.5 11.5q174 0 285.5 -43t164.5 -143.5t53 -273.5v-651h-262l-22 109h-15q-49 -67 -125 -98t-165 -31zM640 1233l-163 383h252l147 -383h-236zM234 1233l-163 383h253l146 -383h-236z" />
    <glyph glyph-name="uni0202" unicode="&#x202;" horiz-adv-x="1457" 
d="M14 0l478 1480h473l478 -1480h-320l-414 1338h34l-413 -1338h-316zM346 395l70 259h624l69 -259h-763zM346 1603q10 88 55 153.5t126 101.5t200 36t200.5 -36t127 -101.5t55.5 -153.5h-195q-11 67 -55 101t-133 34q-87 0 -131 -34t-55 -101h-195z" />
    <glyph glyph-name="uni0203" unicode="&#x203;" horiz-adv-x="1117" 
d="M418 -20q-168 0 -261.5 87.5t-93.5 228.5q0 155 107.5 242t347.5 103l230 19l34 -176l-232 -19q-92 -7 -132.5 -42t-40.5 -96q0 -60 37 -92.5t108 -32.5q44 0 90 15.5t84 53.5v400q0 75 -24.5 118t-79 61.5t-145.5 18.5q-63 0 -143 -10.5t-153 -33.5v240
q80 23 175.5 34.5t177.5 11.5q174 0 285.5 -43t164.5 -143.5t53 -273.5v-651h-262l-22 109h-15q-49 -67 -125 -98t-165 -31zM191 1261q10 174 103.5 262.5t259.5 88.5q165 0 260.5 -89t104.5 -262h-194q-6 97 -48.5 144t-122.5 47q-81 0 -121.5 -47t-47.5 -144h-194z" />
    <glyph glyph-name="uni0204" unicode="&#x204;" horiz-adv-x="1254" 
d="M133 0v1480h1039v-260h-718v-960h728v-260h-1049zM326 627v260h744v-260h-744zM760 1595l-153 303h252l137 -303h-236zM354 1595l-152 303h252l136 -303h-236z" />
    <glyph glyph-name="uni0205" unicode="&#x205;" horiz-adv-x="1109" 
d="M670 -21q-206 0 -339 59t-197.5 185t-64.5 325q0 181 59.5 307t173 191t275.5 65q155 0 261 -65.5t160 -193.5t54 -314v-83h-801v183h555l-51 -19q0 108 -20 172t-60.5 91t-100.5 27q-61 0 -102.5 -27t-63 -90.5t-21.5 -171.5v-128q0 -101 29.5 -160.5t101 -85.5
t197.5 -26q64 0 134.5 9.5t141.5 25.5v-239q-87 -20 -165.5 -28.5t-155.5 -8.5zM656 1233l-163 383h252l147 -383h-236zM250 1233l-163 383h253l146 -383h-236z" />
    <glyph glyph-name="uni0206" unicode="&#x206;" horiz-adv-x="1254" 
d="M133 0v1480h1039v-260h-718v-960h728v-260h-1049zM326 627v260h744v-260h-744zM293 1603q10 88 55 153.5t126 101.5t200 36t200.5 -36t127 -101.5t55.5 -153.5h-195q-11 67 -55 101t-133 34q-87 0 -131 -34t-55 -101h-195z" />
    <glyph glyph-name="uni0207" unicode="&#x207;" horiz-adv-x="1109" 
d="M670 -21q-206 0 -339 59t-197.5 185t-64.5 325q0 181 59.5 307t173 191t275.5 65q155 0 261 -65.5t160 -193.5t54 -314v-83h-801v183h555l-51 -19q0 108 -20 172t-60.5 91t-100.5 27q-61 0 -102.5 -27t-63 -90.5t-21.5 -171.5v-128q0 -101 29.5 -160.5t101 -85.5
t197.5 -26q64 0 134.5 9.5t141.5 25.5v-239q-87 -20 -165.5 -28.5t-155.5 -8.5zM207 1261q10 174 103.5 262.5t259.5 88.5q165 0 260.5 -89t104.5 -262h-194q-6 97 -48.5 144t-122.5 47q-81 0 -121.5 -47t-47.5 -144h-194z" />
    <glyph glyph-name="uni0208" unicode="&#x208;" horiz-adv-x="591" 
d="M133 0v1480h325v-1480h-325zM381 1595l-153 303h252l137 -303h-236zM-25 1595l-152 303h252l136 -303h-236z" />
    <glyph glyph-name="uni0209" unicode="&#x209;" horiz-adv-x="557" 
d="M119 0v1094h319v-1094h-319zM363 1233l-163 383h252l147 -383h-236zM-43 1233l-163 383h253l146 -383h-236z" />
    <glyph glyph-name="uni020A" unicode="&#x20a;" horiz-adv-x="591" 
d="M133 0v1480h325v-1480h-325zM-86 1603q10 88 55 153.5t126 101.5t200 36t200.5 -36t127 -101.5t55.5 -153.5h-195q-11 67 -55 101t-133 34q-87 0 -131 -34t-55 -101h-195z" />
    <glyph glyph-name="uni020B" unicode="&#x20b;" horiz-adv-x="557" 
d="M119 0v1094h319v-1094h-319zM-86 1261q10 174 103.5 262.5t259.5 88.5q165 0 260.5 -89t104.5 -262h-194q-6 97 -48.5 144t-122.5 47q-81 0 -121.5 -47t-47.5 -144h-194z" />
    <glyph glyph-name="uni020C" unicode="&#x20c;" horiz-adv-x="1562" 
d="M781 -19q-211 0 -367.5 82t-243 250.5t-86.5 426.5t86.5 426.5t243 250.5t367.5 82t367.5 -82.5t243 -251t86.5 -425.5t-86.5 -425.5t-243.5 -251t-367 -82.5zM781 243q114 0 195.5 49.5t125 157.5t43.5 283q0 182 -44 292.5t-125.5 161t-194.5 50.5t-194.5 -49
t-125.5 -157t-44 -284q0 -183 43.5 -293.5t125 -160.5t195.5 -50zM866 1595l-153 303h252l137 -303h-236zM460 1595l-152 303h252l136 -303h-236z" />
    <glyph glyph-name="uni020D" unicode="&#x20d;" horiz-adv-x="1204" 
d="M602 -21q-164 0 -283.5 62.5t-184.5 188t-65 314.5q0 191 63.5 317t183 188t286.5 62t286.5 -62.5t183 -188t63.5 -314.5q0 -190 -65 -316t-184.5 -188.5t-283.5 -62.5zM602 221q67 0 114.5 29t72.5 99.5t25 193.5q0 126 -25 197t-72.5 100.5t-114.5 29.5t-114.5 -29
t-72.5 -99.5t-25 -194.5q0 -126 25 -197t72.5 -100t114.5 -29zM687 1233l-163 383h252l147 -383h-236zM281 1233l-163 383h253l146 -383h-236z" />
    <glyph glyph-name="uni020E" unicode="&#x20e;" horiz-adv-x="1562" 
d="M781 -19q-211 0 -367.5 82t-243 250.5t-86.5 426.5t86.5 426.5t243 250.5t367.5 82t367.5 -82.5t243 -251t86.5 -425.5t-86.5 -425.5t-243.5 -251t-367 -82.5zM781 243q114 0 195.5 49.5t125 157.5t43.5 283q0 182 -44 292.5t-125.5 161t-194.5 50.5t-194.5 -49
t-125.5 -157t-44 -284q0 -183 43.5 -293.5t125 -160.5t195.5 -50zM399 1603q10 88 55 153.5t126 101.5t200 36t200.5 -36t127 -101.5t55.5 -153.5h-195q-11 67 -55 101t-133 34q-87 0 -131 -34t-55 -101h-195z" />
    <glyph glyph-name="uni020F" unicode="&#x20f;" horiz-adv-x="1204" 
d="M602 -21q-164 0 -283.5 62.5t-184.5 188t-65 314.5q0 191 63.5 317t183 188t286.5 62t286.5 -62.5t183 -188t63.5 -314.5q0 -190 -65 -316t-184.5 -188.5t-283.5 -62.5zM602 221q67 0 114.5 29t72.5 99.5t25 193.5q0 126 -25 197t-72.5 100.5t-114.5 29.5t-114.5 -29
t-72.5 -99.5t-25 -194.5q0 -126 25 -197t72.5 -100t114.5 -29zM238 1261q10 174 103.5 262.5t259.5 88.5q165 0 260.5 -89t104.5 -262h-194q-6 97 -48.5 144t-122.5 47q-81 0 -121.5 -47t-47.5 -144h-194z" />
    <glyph glyph-name="uni0210" unicode="&#x210;" horiz-adv-x="1378" 
d="M133 0v1447q67 15 143 26.5t157 18t163 6.5q319 0 480 -115.5t161 -360.5q0 -158 -76 -264.5t-216.5 -160.5t-335.5 -54q-44 0 -81 1.5t-76 3.5v-548h-319zM1004 0l-476 684h348l483 -684h-355zM615 785q161 0 239 56t78 181q0 82 -33 134.5t-100 77.5t-170 25
q-51 0 -94 -4t-83 -12v-450q29 -2 54.5 -4.5t52 -3t56.5 -0.5zM762 1595l-153 303h252l137 -303h-236zM356 1595l-152 303h252l136 -303h-236z" />
    <glyph glyph-name="uni0211" unicode="&#x211;" horiz-adv-x="810" 
d="M119 0v1094h261l24 -141h16q46 81 122 118.5t167 37.5q25 0 48 -2t41 -6v-288q-25 5 -53.5 6.5t-54.5 1.5q-47 0 -95 -11.5t-89 -35t-69 -57.5v-717h-318zM540 1233l-163 383h252l147 -383h-236zM134 1233l-163 383h253l146 -383h-236z" />
    <glyph glyph-name="uni0212" unicode="&#x212;" horiz-adv-x="1378" 
d="M133 0v1447q67 15 143 26.5t157 18t163 6.5q319 0 480 -115.5t161 -360.5q0 -158 -76 -264.5t-216.5 -160.5t-335.5 -54q-44 0 -81 1.5t-76 3.5v-548h-319zM1004 0l-476 684h348l483 -684h-355zM615 785q161 0 239 56t78 181q0 82 -33 134.5t-100 77.5t-170 25
q-51 0 -94 -4t-83 -12v-450q29 -2 54.5 -4.5t52 -3t56.5 -0.5zM295 1603q10 88 55 153.5t126 101.5t200 36t200.5 -36t127 -101.5t55.5 -153.5h-195q-11 67 -55 101t-133 34q-87 0 -131 -34t-55 -101h-195z" />
    <glyph glyph-name="uni0213" unicode="&#x213;" horiz-adv-x="810" 
d="M119 0v1094h261l24 -141h16q46 81 122 118.5t167 37.5q25 0 48 -2t41 -6v-288q-25 5 -53.5 6.5t-54.5 1.5q-47 0 -95 -11.5t-89 -35t-69 -57.5v-717h-318zM91 1261q10 174 103.5 262.5t259.5 88.5q165 0 260.5 -89t104.5 -262h-194q-6 97 -48.5 144t-122.5 47
q-81 0 -121.5 -47t-47.5 -144h-194z" />
    <glyph glyph-name="uni0214" unicode="&#x214;" horiz-adv-x="1495" 
d="M751 -19q-216 0 -354 69t-204 209.5t-66 353.5v867h324v-899q0 -176 75 -255t225 -79t224.5 79t74.5 255v899h318v-867q0 -213 -65 -353.5t-202 -209.5t-350 -69zM836 1595l-153 303h252l137 -303h-236zM430 1595l-152 303h252l136 -303h-236z" />
    <glyph glyph-name="uni0215" unicode="&#x215;" horiz-adv-x="1213" 
d="M487 -19q-109 0 -194 42.5t-134 136.5t-49 249v685h319v-663q0 -99 41.5 -137t108.5 -38q33 0 69.5 9.5t69.5 29.5t58 50v749h318v-1094h-262l-22 110h-14q-62 -63 -141 -96t-168 -33zM688 1233l-163 383h252l147 -383h-236zM282 1233l-163 383h253l146 -383h-236z" />
    <glyph glyph-name="uni0216" unicode="&#x216;" horiz-adv-x="1495" 
d="M751 -19q-216 0 -354 69t-204 209.5t-66 353.5v867h324v-899q0 -176 75 -255t225 -79t224.5 79t74.5 255v899h318v-867q0 -213 -65 -353.5t-202 -209.5t-350 -69zM369 1603q10 88 55 153.5t126 101.5t200 36t200.5 -36t127 -101.5t55.5 -153.5h-195q-11 67 -55 101
t-133 34q-87 0 -131 -34t-55 -101h-195z" />
    <glyph glyph-name="uni0217" unicode="&#x217;" horiz-adv-x="1213" 
d="M487 -19q-109 0 -194 42.5t-134 136.5t-49 249v685h319v-663q0 -99 41.5 -137t108.5 -38q33 0 69.5 9.5t69.5 29.5t58 50v749h318v-1094h-262l-22 110h-14q-62 -63 -141 -96t-168 -33zM239 1261q10 174 103.5 262.5t259.5 88.5q165 0 260.5 -89t104.5 -262h-194
q-6 97 -48.5 144t-122.5 47q-81 0 -121.5 -47t-47.5 -144h-194z" />
    <glyph glyph-name="uni0218" unicode="&#x218;" horiz-adv-x="1153" 
d="M503 -19q-107 0 -214.5 16.5t-198.5 46.5v264q63 -21 134 -35.5t142.5 -22.5t135.5 -8q149 0 211 45.5t62 127.5q0 69 -45.5 108t-169.5 71l-112 29q-194 49 -293.5 152.5t-99.5 273.5q0 212 153.5 331t462.5 119q100 0 190.5 -11.5t160.5 -31.5v-264q-71 22 -158 34
t-175 12q-116 0 -184 -21.5t-97.5 -60.5t-29.5 -90q0 -65 40 -102t150 -67l111 -29q144 -35 237 -92.5t137.5 -141t44.5 -197.5q0 -142 -70.5 -244.5t-203.5 -157t-321 -54.5zM492 -497q34 66 47 112t13 96l59 -65h-23q-95 0 -137 31t-42 83t43 82t135 30q94 0 137 -38.5
t43 -110.5q0 -53 -21.5 -114t-56.5 -106h-197z" />
    <glyph glyph-name="uni0219" unicode="&#x219;" horiz-adv-x="978" 
d="M440 -21q-94 0 -182.5 12t-166.5 36v234q79 -24 167 -36.5t178 -12.5q108 0 152.5 28.5t44.5 79.5q0 41 -22 62t-77 32l-178 32q-154 29 -224 107t-70 209q0 157 126.5 253t388.5 96q80 0 155.5 -9t136.5 -25v-234q-64 18 -136 27t-147 9q-91 0 -140 -15.5t-68.5 -40.5
t-19.5 -54q0 -35 22 -57t76 -34l178 -32q146 -27 220.5 -99.5t74.5 -215.5q0 -163 -127.5 -257.5t-361.5 -94.5zM398 -497q34 66 47 112t13 96l59 -65h-23q-95 0 -137 31t-42 83t43 82t135 30q94 0 137 -38.5t43 -110.5q0 -53 -21.5 -114t-56.5 -106h-197z" />
    <glyph glyph-name="uni021A" unicode="&#x21a;" horiz-adv-x="1285" 
d="M480 0v1210h-467v270h1259v-270h-466v-1210h-326zM547 -497q34 66 47 112t13 96l59 -65h-23q-95 0 -137 31t-42 83t43 82t135 30q94 0 137 -38.5t43 -110.5q0 -53 -21.5 -114t-56.5 -106h-197z" />
    <glyph glyph-name="uni021B" unicode="&#x21b;" horiz-adv-x="843" 
d="M606 -20q-198 0 -304.5 98.5t-106.5 312.5v703l58 386h260v-1039q0 -113 42.5 -156t137.5 -43q26 0 53.5 3.5t61.5 9.5v-252q-43 -9 -96.5 -16t-105.5 -7zM17 843v251h784v-251h-784zM406 -497q34 66 47 112t13 96l59 -65h-23q-95 0 -137 31t-42 83t43 82t135 30
q94 0 137 -38.5t43 -110.5q0 -53 -21.5 -114t-56.5 -106h-197z" />
    <glyph glyph-name="uni022A" unicode="&#x22a;" horiz-adv-x="1562" 
d="M781 -19q-211 0 -367.5 82t-243 250.5t-86.5 426.5t86.5 426.5t243 250.5t367.5 82t367.5 -82.5t243 -251t86.5 -425.5t-86.5 -425.5t-243.5 -251t-367 -82.5zM781 243q114 0 195.5 49.5t125 157.5t43.5 283q0 182 -44 292.5t-125.5 161t-194.5 50.5t-194.5 -49
t-125.5 -157t-44 -284q0 -183 43.5 -293.5t125 -160.5t195.5 -50zM1038 1606q-85 0 -128 38t-43 107q0 68 43 106.5t128 38.5t128.5 -38.5t43.5 -106.5q0 -69 -43.5 -107t-128.5 -38zM524 1606q-85 0 -128.5 38t-43.5 107q0 68 43.5 106.5t128.5 38.5t128 -38.5t43 -106.5
q0 -69 -43 -107t-128 -38zM413 2007v192h736v-192h-736z" />
    <glyph glyph-name="uni022B" unicode="&#x22b;" horiz-adv-x="1204" 
d="M602 -21q-164 0 -283.5 62.5t-184.5 188t-65 314.5q0 191 63.5 317t183 188t286.5 62t286.5 -62.5t183 -188t63.5 -314.5q0 -190 -65 -316t-184.5 -188.5t-283.5 -62.5zM602 221q67 0 114.5 29t72.5 99.5t25 193.5q0 126 -25 197t-72.5 100.5t-114.5 29.5t-114.5 -29
t-72.5 -99.5t-25 -194.5q0 -126 25 -197t72.5 -100t114.5 -29zM847 1258q-83 0 -127.5 43t-44.5 118q0 76 44.5 119t127.5 43t127.5 -43t44.5 -119q0 -75 -44.5 -118t-127.5 -43zM357 1258q-83 0 -127.5 43t-44.5 118q0 76 44.5 119t127.5 43q84 0 128 -43t44 -119
q0 -75 -44 -118t-128 -43zM247 1716v192h710v-192h-710z" />
    <glyph glyph-name="uni022C" unicode="&#x22c;" horiz-adv-x="1562" 
d="M781 -19q-211 0 -367.5 82t-243 250.5t-86.5 426.5t86.5 426.5t243 250.5t367.5 82t367.5 -82.5t243 -251t86.5 -425.5t-86.5 -425.5t-243.5 -251t-367 -82.5zM781 243q114 0 195.5 49.5t125 157.5t43.5 283q0 182 -44 292.5t-125.5 161t-194.5 50.5t-194.5 -49
t-125.5 -157t-44 -284q0 -183 43.5 -293.5t125 -160.5t195.5 -50zM953 1619q-53 0 -99 13t-90 27q-39 14 -78.5 25t-82.5 11q-61 0 -107 -17.5t-92 -52.5v183q40 37 88.5 55t116.5 18q54 0 100 -13t89 -28q40 -14 79.5 -25.5t81.5 -11.5q61 0 107 17.5t92 52.5v-183
q-39 -36 -88 -53.5t-117 -17.5zM413 1993v192h736v-192h-736z" />
    <glyph glyph-name="uni022D" unicode="&#x22d;" horiz-adv-x="1204" 
d="M602 -21q-164 0 -283.5 62.5t-184.5 188t-65 314.5q0 191 63.5 317t183 188t286.5 62t286.5 -62.5t183 -188t63.5 -314.5q0 -190 -65 -316t-184.5 -188.5t-283.5 -62.5zM602 221q67 0 114.5 29t72.5 99.5t25 193.5q0 126 -25 197t-72.5 100.5t-114.5 29.5t-114.5 -29
t-72.5 -99.5t-25 -194.5q0 -126 25 -197t72.5 -100t114.5 -29zM760 1285q-48 0 -91.5 16t-83.5 33q-37 17 -73 30t-73 13q-56 0 -101 -20t-91 -65v200q76 77 197 77q49 0 92 -15.5t83 -33.5q37 -16 73 -29.5t73 -13.5q57 0 102 20.5t90 64.5v-200q-76 -77 -197 -77z
M247 1712v192h710v-192h-710z" />
    <glyph glyph-name="uni0230" unicode="&#x230;" horiz-adv-x="1562" 
d="M781 -19q-211 0 -367.5 82t-243 250.5t-86.5 426.5t86.5 426.5t243 250.5t367.5 82t367.5 -82.5t243 -251t86.5 -425.5t-86.5 -425.5t-243.5 -251t-367 -82.5zM781 243q114 0 195.5 49.5t125 157.5t43.5 283q0 182 -44 292.5t-125.5 161t-194.5 50.5t-194.5 -49
t-125.5 -157t-44 -284q0 -183 43.5 -293.5t125 -160.5t195.5 -50zM781 1606q-97 0 -146 38.5t-49 106.5q0 69 49 107t146 38t146 -38t49 -107q0 -68 -49 -106.5t-146 -38.5zM413 1993v192h736v-192h-736z" />
    <glyph glyph-name="uni0231" unicode="&#x231;" horiz-adv-x="1204" 
d="M602 -21q-164 0 -283.5 62.5t-184.5 188t-65 314.5q0 191 63.5 317t183 188t286.5 62t286.5 -62.5t183 -188t63.5 -314.5q0 -190 -65 -316t-184.5 -188.5t-283.5 -62.5zM602 221q67 0 114.5 29t72.5 99.5t25 193.5q0 126 -25 197t-72.5 100.5t-114.5 29.5t-114.5 -29
t-72.5 -99.5t-25 -194.5q0 -126 25 -197t72.5 -100t114.5 -29zM602 1253q-100 0 -148.5 44t-48.5 122q0 80 48.5 123.5t148.5 43.5q101 0 149 -43.5t48 -123.5q0 -78 -48 -122t-149 -44zM247 1698v192h710v-192h-710z" />
    <glyph glyph-name="uni0232" unicode="&#x232;" horiz-adv-x="1285" 
d="M482 0v758l66 -239l-600 961h345l405 -654h-92l400 654h320l-585 -961l66 234v-753h-325zM275 1644v192h736v-192h-736z" />
    <glyph glyph-name="uni0233" unicode="&#x233;" horiz-adv-x="1166" 
d="M314 -440l157 440l110 252l272 842h314l-540 -1534h-313zM383 0l-384 1094h333l347 -1094h-296zM228 1324v192h710v-192h-710z" />
    <glyph glyph-name="uni0237" unicode="&#x237;" horiz-adv-x="557" 
d="M168 -471l-206 137q58 77 92.5 153t49.5 162.5t15 194.5v918h319v-905q0 -126 -26 -236.5t-85.5 -214t-158.5 -209.5z" />
    <glyph glyph-name="uni0259" unicode="&#x259;" horiz-adv-x="1109" 
d="M439 1115q206 0 339 -59t197.5 -185t64.5 -325q0 -181 -59.5 -307t-173 -191t-275.5 -65q-155 0 -261 65.5t-160 193.5t-54 314v83h801v-183h-555l51 19q0 -108 20 -172t60.5 -91t100.5 -27q61 0 102.5 27t63 90.5t21.5 171.5v128q0 101 -29.5 160.5t-101 85.5t-197.5 26
q-64 0 -134.5 -9.5t-141.5 -25.5v239q87 20 165.5 28.5t155.5 8.5z" />
    <glyph glyph-name="uni02BB" unicode="&#x2bb;" horiz-adv-x="1140" 
d="M571 1256q-93 0 -136 39t-43 110q0 54 21.5 114.5t55.5 105.5h197q-34 -66 -47 -111.5t-13 -96.5l-59 65h23q96 0 137.5 -30.5t41.5 -82.5t-42.5 -82.5t-135.5 -30.5z" />
    <glyph glyph-name="uni02BC" unicode="&#x2bc;" horiz-adv-x="1140" 
d="M653 1256q34 66 47 112.5t13 95.5l59 -64h-23q-95 0 -137 31t-42 82q0 52 43 82t135 30q93 0 136 -38.5t43 -110.5q0 -53 -21 -113.5t-56 -106.5h-197z" />
    <glyph glyph-name="uni02BE" unicode="&#x2be;" horiz-adv-x="1140" 
d="M570 1228v112q42 0 68 26.5t26 70.5q0 45 -26 71t-68 26v112q94 0 154.5 -59t60.5 -150t-60.5 -150t-154.5 -59z" />
    <glyph glyph-name="uni02BF" unicode="&#x2bf;" horiz-adv-x="1140" 
d="M570 1228q-93 0 -154 59t-61 150t61 150t154 59v-112q-41 0 -67 -26t-26 -71q0 -44 26 -70.5t67 -26.5v-112z" />
    <glyph glyph-name="circumflex" unicode="&#x2c6;" horiz-adv-x="1140" 
d="M237 1233l232 383h262l232 -383h-228l-159 276h48l-159 -276h-228z" />
    <glyph glyph-name="caron" unicode="&#x2c7;" horiz-adv-x="1140" 
d="M469 1233l-234 383h229l160 -276h-48l160 276h229l-234 -383h-262z" />
    <glyph glyph-name="uni02C8" unicode="&#x2c8;" horiz-adv-x="1200" 
d="M528 1218v400h144v-400h-144z" />
    <glyph glyph-name="uni02C9" unicode="&#x2c9;" horiz-adv-x="1140" 
d="M215 1324v192h711v-192h-711z" />
    <glyph glyph-name="uni02CA" unicode="&#x2ca;" horiz-adv-x="1140" 
d="M417 1233l225 383h353l-271 -383h-307z" />
    <glyph glyph-name="uni02CB" unicode="&#x2cb;" horiz-adv-x="1140" 
d="M417 1233l-272 383h353l226 -383h-307z" />
    <glyph glyph-name="uni02CC" unicode="&#x2cc;" horiz-adv-x="1200" 
d="M528 -440v400h144v-400h-144z" />
    <glyph glyph-name="breve" unicode="&#x2d8;" horiz-adv-x="1140" 
d="M601 1242q-165 0 -260 90t-105 262h194q7 -95 49 -142t122 -47t121.5 47t47.5 142h194q-9 -173 -103.5 -262.5t-259.5 -89.5z" />
    <glyph glyph-name="dotaccent" unicode="&#x2d9;" horiz-adv-x="1140" 
d="M600 1253q-100 0 -148.5 44t-48.5 122q0 80 48.5 123.5t148.5 43.5q101 0 149 -43.5t48 -123.5q0 -78 -48 -122t-149 -44z" />
    <glyph glyph-name="ring" unicode="&#x2da;" horiz-adv-x="1140" 
d="M600 1228q-93 0 -154 59t-61 150t61 150t154 59t154 -59t61 -150t-61 -150t-154 -59zM600 1340q42 0 67.5 26.5t25.5 70.5q0 45 -25.5 71t-67.5 26q-41 0 -67 -26t-26 -71q0 -44 26 -70.5t67 -26.5z" />
    <glyph glyph-name="ogonek" unicode="&#x2db;" horiz-adv-x="1140" 
d="M468 -442q-129 0 -195 56t-66 151q0 62 28.5 117t95.5 102t183 88l86 -72q-82 -35 -128 -69t-64.5 -70t-18.5 -75q0 -46 31 -73t91 -27q28 0 60.5 7.5t67.5 23.5v-126q-35 -14 -76.5 -23.5t-94.5 -9.5z" />
    <glyph glyph-name="tilde" unicode="&#x2dc;" horiz-adv-x="1140" 
d="M758 1285q-48 0 -91.5 16t-83.5 33q-37 17 -73 30t-73 13q-56 0 -101 -20t-91 -65v200q76 77 197 77q49 0 92 -15.5t83 -33.5q37 -16 73 -29.5t73 -13.5q57 0 102 20.5t90 64.5v-200q-76 -77 -197 -77z" />
    <glyph glyph-name="hungarumlaut" unicode="&#x2dd;" horiz-adv-x="1140" 
d="M685 1233l146 383h252l-163 -383h-235zM280 1233l147 383h251l-163 -383h-235z" />
    <glyph glyph-name="gravecomb" unicode="&#x300;" 
d="M454 1233l-272 383h338l226 -383h-292z" />
    <glyph glyph-name="acutecomb" unicode="&#x301;" 
d="M454 1233l226 383h338l-272 -383h-292z" />
    <glyph glyph-name="uni0302" unicode="&#x302;" 
d="M237 1233l232 383h262l232 -383h-228l-159 276h48l-159 -276h-228z" />
    <glyph glyph-name="tildecomb" unicode="&#x303;" 
d="M758 1285q-48 0 -91.5 16t-83.5 33q-37 17 -73 30t-73 13q-56 0 -101 -20t-91 -65v200q76 77 197 77q49 0 92 -15.5t83 -33.5q37 -16 73 -29.5t73 -13.5q57 0 102 20.5t90 64.5v-200q-76 -77 -197 -77z" />
    <glyph glyph-name="uni0304" unicode="&#x304;" 
d="M245 1324v192h710v-192h-710z" />
    <glyph glyph-name="uni0306" unicode="&#x306;" 
d="M601 1242q-165 0 -260 90t-105 262h194q7 -95 49 -142t122 -47t121.5 47t47.5 142h194q-9 -173 -103.5 -262.5t-259.5 -89.5z" />
    <glyph glyph-name="uni0307" unicode="&#x307;" 
d="M600 1253q-100 0 -148.5 44t-48.5 122q0 80 48.5 123.5t148.5 43.5q101 0 149 -43.5t48 -123.5q0 -78 -48 -122t-149 -44z" />
    <glyph glyph-name="uni0308" unicode="&#x308;" 
d="M845 1258q-83 0 -127.5 43t-44.5 118q0 76 44.5 119t127.5 43t127.5 -43t44.5 -119q0 -75 -44.5 -118t-127.5 -43zM355 1258q-83 0 -127.5 43t-44.5 118q0 76 44.5 119t127.5 43q84 0 128 -43t44 -119q0 -75 -44 -118t-128 -43z" />
    <glyph glyph-name="hookabovecomb" unicode="&#x309;" 
d="M522 1233q2 56 25.5 88t52.5 52.5t50.5 38.5t21.5 43t-23 37t-74 12q-39 0 -81 -5.5t-85 -18.5v123q38 12 91 18.5t97 6.5q125 0 184.5 -38t59.5 -115q0 -52 -22.5 -81.5t-53 -50.5t-55 -44.5t-28.5 -65.5h-160z" />
    <glyph glyph-name="uni030A" unicode="&#x30a;" 
d="M600 1228q-93 0 -154 59t-61 150t61 150t154 59t154 -59t61 -150t-61 -150t-154 -59zM600 1340q42 0 67.5 26.5t25.5 70.5q0 45 -25.5 71t-67.5 26q-41 0 -67 -26t-26 -71q0 -44 26 -70.5t67 -26.5z" />
    <glyph glyph-name="uni030B" unicode="&#x30b;" 
d="M685 1233l146 383h252l-163 -383h-235zM280 1233l147 383h251l-163 -383h-235z" />
    <glyph glyph-name="uni030C" unicode="&#x30c;" 
d="M469 1233l-234 383h229l160 -276h-48l160 276h229l-234 -383h-262z" />
    <glyph glyph-name="uni030F" unicode="&#x30f;" 
d="M685 1233l-163 383h252l147 -383h-236zM279 1233l-163 383h253l146 -383h-236z" />
    <glyph glyph-name="uni0311" unicode="&#x311;" 
d="M236 1261q10 174 103.5 262.5t259.5 88.5q165 0 260.5 -89t104.5 -262h-194q-6 97 -48.5 144t-122.5 47q-81 0 -121.5 -47t-47.5 -144h-194z" />
    <glyph glyph-name="uni0312" unicode="&#x312;" 
d="M601 1256q-93 0 -136.5 39t-43.5 110q0 54 22 114.5t56 105.5h197q-34 -66 -47 -111.5t-13 -96.5l-59 65h23q96 0 137.5 -30.5t41.5 -82.5t-42.5 -82.5t-135.5 -30.5z" />
    <glyph glyph-name="uni031B" unicode="&#x31b;" 
d="M460 1329v151h101q85 0 132.5 35.5t47.5 120.5q0 32 -4 65t-14 74h202q12 -40 16.5 -76.5t4.5 -75.5q0 -101 -40 -166t-111.5 -96.5t-166.5 -31.5h-168z" />
    <glyph glyph-name="dotbelowcomb" unicode="&#x323;" 
d="M600 -443q-83 0 -127.5 42.5t-44.5 114.5q0 73 44.5 115.5t127.5 42.5q84 0 128 -42.5t44 -115.5q0 -72 -44 -114.5t-128 -42.5z" />
    <glyph glyph-name="uni0324" unicode="&#x324;" 
d="M845 -450q-83 0 -127.5 42.5t-44.5 118.5q0 75 44.5 118t127.5 43t127.5 -43t44.5 -118t-44.5 -118t-127.5 -43zM355 -450q-83 0 -127.5 42.5t-44.5 118.5q0 75 44.5 118t127.5 43q84 0 128 -43t44 -118t-44 -118t-128 -43z" />
    <glyph glyph-name="uni0326" unicode="&#x326;" 
d="M504 -497q34 66 47 112t13 96l59 -65h-23q-95 0 -137 31t-42 83t43 82t135 30q94 0 137 -38.5t43 -110.5q0 -53 -21.5 -114t-56.5 -106h-197z" />
    <glyph glyph-name="uni0327" unicode="&#x327;" 
d="M596 -442q-50 0 -96.5 8.5t-84.5 22.5v124q40 -17 86 -24.5t81 -7.5q50 0 75.5 16.5t25.5 53.5q0 73 -103 73h-46v196h153v-148l-71 46q115 0 174.5 -47.5t59.5 -132.5q0 -83 -63 -131.5t-191 -48.5z" />
    <glyph glyph-name="uni0328" unicode="&#x328;" 
d="M468 -442q-129 0 -195 56t-66 151q0 62 28.5 117t95.5 102t183 88l86 -72q-82 -35 -128 -69t-64.5 -70t-18.5 -75q0 -46 31 -73t91 -27q28 0 60.5 7.5t67.5 23.5v-126q-35 -14 -76.5 -23.5t-94.5 -9.5z" />
    <glyph glyph-name="uni032E" unicode="&#x32e;" 
d="M601 -457q-170 0 -265 83.5t-100 228.5h194q4 -75 45.5 -113t125.5 -38q82 0 124 38t45 113h194q-5 -146 -99 -229t-264 -83z" />
    <glyph glyph-name="uni0331" unicode="&#x331;" 
d="M255 -378v190h690v-190h-690z" />
    <glyph glyph-name="uni0394" unicode="&#x394;" horiz-adv-x="1457" 
d="M14 0l478 1480h473l478 -1480h-1429zM365 123l-24 135h772l-25 -135l-378 1214h33z" />
    <glyph glyph-name="uni03A9" unicode="&#x3a9;" horiz-adv-x="1562" 
d="M84 0v253h407l60 -132q-148 58 -252.5 156t-159.5 231t-55 297q0 223 85.5 378t241.5 235.5t369 80.5q214 0 371 -80.5t242 -235.5t85 -378q0 -164 -55 -297t-160 -231t-253 -156l60 132h408v-253h-603v204q93 82 152.5 168.5t88.5 186t29 221.5q0 156 -42.5 257
t-124 150.5t-198.5 49.5q-116 0 -197 -49.5t-123.5 -150.5t-42.5 -257q0 -122 28.5 -221.5t88.5 -186t153 -168.5v-204h-603z" />
    <glyph glyph-name="uni03BC" unicode="&#x3bc;" horiz-adv-x="1213" 
d="M553 -19q-83 0 -146.5 42.5t-99.5 136.5t-36 249v222h158v-200q0 -99 41.5 -137t108.5 -38q33 0 69.5 9.5t69.5 29.5t58 50v749h318v-1094h-262l-22 110h-14q-48 -63 -110.5 -96t-132.5 -33zM110 -440v1533h319v-1533h-319z" />
    <glyph glyph-name="pi" unicode="&#x3c0;" horiz-adv-x="1438" 
d="M1208 -20q-191 0 -294 96t-103 305v568h319v-518q0 -108 38.5 -148.5t126.5 -40.5q25 0 51 3.5t57 8.5v-252q-40 -8 -92.5 -15t-102.5 -7zM195 -1v952h318v-952h-318zM17 843v251h1291v-251h-1291z" />
    <glyph glyph-name="uni1E08" unicode="&#x1e08;" horiz-adv-x="1237" 
d="M855 -19q-184 0 -327 43.5t-242.5 135t-150.5 234.5t-51 343q0 254 92 423.5t268 254t427 84.5q85 0 164 -8.5t154 -26.5v-268q-70 17 -142.5 26t-149.5 9q-160 0 -264.5 -49.5t-156.5 -157.5t-52 -283q0 -181 51.5 -288.5t154 -155.5t256.5 -48q76 0 151 12.5t152 34.5
v-267q-71 -22 -157.5 -35t-176.5 -13zM727 -442q-56 0 -107 8.5t-95 23.5v123q47 -17 96 -24.5t91 -7.5q58 0 89 16t31 54q0 39 -31.5 56t-90.5 17h-48v196h153v-148l-68 46q124 0 188 -46t64 -132q0 -84 -67 -133t-205 -49zM606 1595l181 303h335l-229 -303h-287z" />
    <glyph glyph-name="uni1E09" unicode="&#x1e09;" horiz-adv-x="961" 
d="M637 -21q-183 0 -309.5 62t-192.5 187.5t-66 316.5q0 193 70.5 318.5t205 186.5t325.5 61q66 0 127.5 -6t116.5 -19v-252q-52 10 -101 15t-99 5q-110 0 -180 -31t-103 -98.5t-33 -176.5q0 -113 32.5 -181.5t96.5 -99.5t160 -31q52 0 105 9t122 28v-252q-60 -20 -131 -31
t-146 -11zM549 -442q-50 0 -96.5 8.5t-84.5 22.5v124q40 -17 86 -24.5t81 -7.5q50 0 75.5 16.5t25.5 53.5q0 73 -103 73h-46v196h153v-148l-71 46q115 0 174.5 -47.5t59.5 -132.5q0 -83 -63 -131.5t-191 -48.5zM391 1233l226 383h338l-272 -383h-292z" />
    <glyph glyph-name="uni1E0C" unicode="&#x1e0c;" horiz-adv-x="1500" 
d="M539 -15q-62 0 -130 2.5t-138 7.5t-138 14v1438q69 15 147.5 26t160.5 17t161 6q403 0 608.5 -183.5t205.5 -572.5q0 -265 -97 -431.5t-292 -245t-488 -78.5zM623 249q154 0 256.5 48.5t153 157t50.5 286.5q0 177 -51.5 285.5t-153.5 158t-253 49.5q-38 0 -83 -4t-84 -11
v-963q41 -4 81.5 -5.5t83.5 -1.5zM685 -418q-97 0 -146 38.5t-49 106.5q0 69 49 107t146 38t146 -38t49 -107q0 -68 -49 -106.5t-146 -38.5z" />
    <glyph glyph-name="uni1E0D" unicode="&#x1e0d;" horiz-adv-x="1230" 
d="M518 -19q-121 0 -223.5 55t-164 175t-61.5 313q0 191 68 322t200.5 198.5t328.5 67.5q33 0 65.5 -2.5t60.5 -5.5v512h319v-1616h-268l-19 115h-15q-47 -60 -120.5 -97t-170.5 -37zM612 241q49 0 97.5 18t82.5 56v542q-26 6 -60 9.5t-67 3.5q-137 0 -206 -73.5t-69 -247.5
q0 -119 28 -186t77.5 -94.5t116.5 -27.5zM623 -443q-83 0 -127.5 42.5t-44.5 114.5q0 73 44.5 115.5t127.5 42.5q84 0 128 -42.5t44 -115.5q0 -72 -44 -114.5t-128 -42.5z" />
    <glyph glyph-name="uni1E0E" unicode="&#x1e0e;" horiz-adv-x="1500" 
d="M539 -15q-62 0 -130 2.5t-138 7.5t-138 14v1438q69 15 147.5 26t160.5 17t161 6q403 0 608.5 -183.5t205.5 -572.5q0 -265 -97 -431.5t-292 -245t-488 -78.5zM623 249q154 0 256.5 48.5t153 157t50.5 286.5q0 177 -51.5 285.5t-153.5 158t-253 49.5q-38 0 -83 -4t-84 -11
v-963q41 -4 81.5 -5.5t83.5 -1.5zM317 -362v192h736v-192h-736z" />
    <glyph glyph-name="uni1E0F" unicode="&#x1e0f;" horiz-adv-x="1230" 
d="M518 -19q-121 0 -223.5 55t-164 175t-61.5 313q0 191 68 322t200.5 198.5t328.5 67.5q33 0 65.5 -2.5t60.5 -5.5v512h319v-1616h-268l-19 115h-15q-47 -60 -120.5 -97t-170.5 -37zM612 241q49 0 97.5 18t82.5 56v542q-26 6 -60 9.5t-67 3.5q-137 0 -206 -73.5t-69 -247.5
q0 -119 28 -186t77.5 -94.5t116.5 -27.5zM278 -378v190h690v-190h-690z" />
    <glyph glyph-name="uni1E14" unicode="&#x1e14;" horiz-adv-x="1254" 
d="M133 0v1480h1039v-260h-718v-960h728v-260h-1049zM326 627v260h744v-260h-744zM515 1956l-229 232h369l181 -232h-321zM307 1644v192h736v-192h-736z" />
    <glyph glyph-name="uni1E15" unicode="&#x1e15;" horiz-adv-x="1109" 
d="M670 -21q-206 0 -339 59t-197.5 185t-64.5 325q0 181 59.5 307t173 191t275.5 65q155 0 261 -65.5t160 -193.5t54 -314v-83h-801v183h555l-51 -19q0 108 -20 172t-60.5 91t-100.5 27q-61 0 -102.5 -27t-63 -90.5t-21.5 -171.5v-128q0 -101 29.5 -160.5t101 -85.5
t197.5 -26q64 0 134.5 9.5t141.5 25.5v-239q-87 -20 -165.5 -28.5t-155.5 -8.5zM216 1324v192h710v-192h-710zM427 1656l-228 303h335l181 -303h-288z" />
    <glyph glyph-name="uni1E16" unicode="&#x1e16;" horiz-adv-x="1254" 
d="M133 0v1480h1039v-260h-718v-960h728v-260h-1049zM326 627v260h744v-260h-744zM514 1956l180 232h370l-229 -232h-321zM307 1644v192h736v-192h-736z" />
    <glyph glyph-name="uni1E17" unicode="&#x1e17;" horiz-adv-x="1109" 
d="M670 -21q-206 0 -339 59t-197.5 185t-64.5 325q0 181 59.5 307t173 191t275.5 65q155 0 261 -65.5t160 -193.5t54 -314v-83h-801v183h555l-51 -19q0 108 -20 172t-60.5 91t-100.5 27q-61 0 -102.5 -27t-63 -90.5t-21.5 -171.5v-128q0 -101 29.5 -160.5t101 -85.5
t197.5 -26q64 0 134.5 9.5t141.5 25.5v-239q-87 -20 -165.5 -28.5t-155.5 -8.5zM216 1324v192h710v-192h-710zM426 1656l181 303h335l-229 -303h-287z" />
    <glyph glyph-name="uni1E1C" unicode="&#x1e1c;" horiz-adv-x="1254" 
d="M133 0v1480h1039v-260h-718v-960h728v-260h-1049zM326 627v260h744v-260h-744zM646 -442q-56 0 -107 8.5t-95 23.5v123q47 -17 96 -24.5t91 -7.5q58 0 89 16t31 54q0 39 -31.5 56t-90.5 17h-48v196h153v-148l-68 46q124 0 188 -46t64 -132q0 -84 -67 -133t-205 -49z
M676 1599q-119 0 -200.5 36t-127 101.5t-55.5 152.5h195q11 -65 55.5 -100t132.5 -35t131.5 35t54.5 100h195q-10 -88 -55 -153t-126 -101t-200 -36z" />
    <glyph glyph-name="uni1E1D" unicode="&#x1e1d;" horiz-adv-x="1109" 
d="M670 -21q-206 0 -339 59t-197.5 185t-64.5 325q0 181 59.5 307t173 191t275.5 65q155 0 261 -65.5t160 -193.5t54 -314v-83h-801v183h555l-51 -19q0 108 -20 172t-60.5 91t-100.5 27q-61 0 -102.5 -27t-63 -90.5t-21.5 -171.5v-128q0 -101 29.5 -160.5t101 -85.5
t197.5 -26q64 0 134.5 9.5t141.5 25.5v-239q-87 -20 -165.5 -28.5t-155.5 -8.5zM567 -442q-50 0 -96.5 8.5t-84.5 22.5v124q40 -17 86 -24.5t81 -7.5q50 0 75.5 16.5t25.5 53.5q0 73 -103 73h-46v196h153v-148l-71 46q115 0 174.5 -47.5t59.5 -132.5q0 -83 -63 -131.5
t-191 -48.5zM572 1242q-165 0 -260 90t-105 262h194q7 -95 49 -142t122 -47t121.5 47t47.5 142h194q-9 -173 -103.5 -262.5t-259.5 -89.5z" />
    <glyph glyph-name="uni1E20" unicode="&#x1e20;" horiz-adv-x="1426" 
d="M929 -17q-281 0 -469 81.5t-282 248.5t-94 424q0 255 97 424t284 253.5t458 84.5q87 0 170.5 -9t163.5 -28v-268q-78 19 -153.5 28t-151.5 9q-181 0 -298 -50t-174.5 -159.5t-57.5 -289.5q0 -168 53.5 -274.5t160.5 -157t268 -50.5q61 0 121 4.5t110 12.5l-139 -121v574
h303v-704q-96 -16 -187.5 -24.5t-182.5 -8.5zM436 1644v192h736v-192h-736z" />
    <glyph glyph-name="uni1E21" unicode="&#x1e21;" horiz-adv-x="1230" 
d="M512 -460q-87 0 -182 10.5t-184 34.5v249q92 -25 179 -37t162 -12q160 0 232.5 60t72.5 200v72h-15q-47 -58 -118.5 -91t-164.5 -33q-112 0 -209 56.5t-156.5 174t-59.5 301.5q0 283 154 434.5t467 151.5q70 0 144.5 -7t145.5 -20.5t131 -33.5v-947q0 -297 -148 -430
t-451 -133zM615 252q48 0 95 16.5t82 49.5v538q-26 6 -59.5 10t-70.5 4q-132 0 -202 -73.5t-70 -244.5q0 -116 28 -181.5t78.5 -92t118.5 -26.5zM284 1324v192h710v-192h-710z" />
    <glyph glyph-name="uni1E24" unicode="&#x1e24;" horiz-adv-x="1526" 
d="M133 0v1480h325v-580h610v580h325v-1480h-325v614h-610v-614h-325zM764 -418q-97 0 -146 38.5t-49 106.5q0 69 49 107t146 38t146 -38t49 -107q0 -68 -49 -106.5t-146 -38.5z" />
    <glyph glyph-name="uni1E25" unicode="&#x1e25;" horiz-adv-x="1222" 
d="M119 0v1616h318v-632h16q56 62 132 94.5t170 32.5q100 0 181 -42t128.5 -136.5t47.5 -250.5v-682h-319v661q0 100 -41.5 137.5t-112.5 37.5q-36 0 -73 -9.5t-70.5 -29.5t-58.5 -50v-747h-318zM616 -443q-83 0 -127.5 42.5t-44.5 114.5q0 73 44.5 115.5t127.5 42.5
q84 0 128 -42.5t44 -115.5q0 -72 -44 -114.5t-128 -42.5z" />
    <glyph glyph-name="uni1E2A" unicode="&#x1e2a;" horiz-adv-x="1526" 
d="M133 0v1480h325v-580h610v580h325v-1480h-325v614h-610v-614h-325zM765 -436q-120 0 -202.5 37t-127 102.5t-53.5 154.5h195q9 -67 54 -102.5t134 -35.5t133 35.5t53 102.5h195q-9 -89 -53.5 -155t-126 -102.5t-201.5 -36.5z" />
    <glyph glyph-name="uni1E2B" unicode="&#x1e2b;" horiz-adv-x="1222" 
d="M119 0v1616h318v-632h16q56 62 132 94.5t170 32.5q100 0 181 -42t128.5 -136.5t47.5 -250.5v-682h-319v661q0 100 -41.5 137.5t-112.5 37.5q-36 0 -73 -9.5t-70.5 -29.5t-58.5 -50v-747h-318zM617 -457q-170 0 -265 83.5t-100 228.5h194q4 -75 45.5 -113t125.5 -38
q82 0 124 38t45 113h194q-5 -146 -99 -229t-264 -83z" />
    <glyph glyph-name="uni1E2E" unicode="&#x1e2e;" horiz-adv-x="591" 
d="M133 0v1480h325v-1480h-325zM135 1956l180 232h370l-229 -232h-321zM553 1606q-85 0 -128 38t-43 107q0 68 43 106.5t128 38.5t128.5 -38.5t43.5 -106.5q0 -69 -43.5 -107t-128.5 -38zM39 1606q-85 0 -128.5 38t-43.5 107q0 68 43.5 106.5t128.5 38.5t128 -38.5
t43 -106.5q0 -69 -43 -107t-128 -38z" />
    <glyph glyph-name="uni1E2F" unicode="&#x1e2f;" horiz-adv-x="557" 
d="M119 0v1094h319v-1094h-319zM523 1258q-83 0 -127.5 43t-44.5 118q0 76 44.5 119t127.5 43t127.5 -43t44.5 -119q0 -75 -44.5 -118t-127.5 -43zM33 1258q-83 0 -127.5 43t-44.5 118q0 76 44.5 119t127.5 43q84 0 128 -43t44 -119q0 -75 -44 -118t-128 -43zM133 1694
l181 303h335l-229 -303h-287z" />
    <glyph glyph-name="uni1E36" unicode="&#x1e36;" horiz-adv-x="1148" 
d="M133 0v1480h325v-1210h680v-270h-1005zM636 -418q-97 0 -146 38.5t-49 106.5q0 69 49 107t146 38t146 -38t49 -107q0 -68 -49 -106.5t-146 -38.5z" />
    <glyph glyph-name="uni1E37" unicode="&#x1e37;" horiz-adv-x="556" 
d="M119 0v1616h318v-1616h-318zM278 -443q-83 0 -127.5 42.5t-44.5 114.5q0 73 44.5 115.5t127.5 42.5q84 0 128 -42.5t44 -115.5q0 -72 -44 -114.5t-128 -42.5z" />
    <glyph glyph-name="uni1E3A" unicode="&#x1e3a;" horiz-adv-x="1148" 
d="M133 0v1480h325v-1210h680v-270h-1005zM268 -362v192h736v-192h-736z" />
    <glyph glyph-name="uni1E3B" unicode="&#x1e3b;" horiz-adv-x="556" 
d="M119 0v1616h318v-1616h-318zM-67 -378v190h690v-190h-690z" />
    <glyph glyph-name="uni1E42" unicode="&#x1e42;" horiz-adv-x="1877" 
d="M137 0v1480h395l432 -978h-39l420 978h395v-1480h-303v1196h64l-429 -982h-267l-443 982h78v-1196h-303zM959 -418q-97 0 -146 38.5t-49 106.5q0 69 49 107t146 38t146 -38t49 -107q0 -68 -49 -106.5t-146 -38.5z" />
    <glyph glyph-name="uni1E43" unicode="&#x1e43;" horiz-adv-x="1804" 
d="M119 0v1094h263l21 -112h15q58 64 135.5 96.5t171.5 32.5q97 0 174.5 -41.5t122 -134t44.5 -244.5v-691h-312v664q0 98 -36.5 135.5t-100.5 37.5q-32 0 -65.5 -10t-63 -30t-51.5 -51v-746h-318zM1376 0v664q0 98 -40 135.5t-103 37.5q-35 0 -69.5 -10.5t-65.5 -32.5
t-54 -57l-63 207q73 89 165 128t185 39q105 0 187 -42t129 -137t47 -251v-681h-318zM911 -443q-83 0 -127.5 42.5t-44.5 114.5q0 73 44.5 115.5t127.5 42.5q84 0 128 -42.5t44 -115.5q0 -72 -44 -114.5t-128 -42.5z" />
    <glyph glyph-name="uni1E44" unicode="&#x1e44;" horiz-adv-x="1543" 
d="M133 0v1480h326l701 -1077h-56v1077h306v-1480h-327l-700 1077h56v-1077h-306zM772 1606q-97 0 -146 38.5t-49 106.5q0 69 49 107t146 38t146 -38t49 -107q0 -68 -49 -106.5t-146 -38.5z" />
    <glyph glyph-name="uni1E45" unicode="&#x1e45;" horiz-adv-x="1222" 
d="M119 0v1094h263l21 -111h15q61 62 143 95t178 33q108 0 192.5 -42.5t132.5 -137t48 -249.5v-682h-319v662q0 99 -41 137t-113 38q-36 0 -72.5 -9.5t-70 -29.5t-59.5 -50v-748h-318zM616 1253q-100 0 -148.5 44t-48.5 122q0 80 48.5 123.5t148.5 43.5q101 0 149 -43.5
t48 -123.5q0 -78 -48 -122t-149 -44z" />
    <glyph glyph-name="uni1E46" unicode="&#x1e46;" horiz-adv-x="1543" 
d="M133 0v1480h326l701 -1077h-56v1077h306v-1480h-327l-700 1077h56v-1077h-306zM772 -418q-97 0 -146 38.5t-49 106.5q0 69 49 107t146 38t146 -38t49 -107q0 -68 -49 -106.5t-146 -38.5z" />
    <glyph glyph-name="uni1E47" unicode="&#x1e47;" horiz-adv-x="1222" 
d="M119 0v1094h263l21 -111h15q61 62 143 95t178 33q108 0 192.5 -42.5t132.5 -137t48 -249.5v-682h-319v662q0 99 -41 137t-113 38q-36 0 -72.5 -9.5t-70 -29.5t-59.5 -50v-748h-318zM616 -443q-83 0 -127.5 42.5t-44.5 114.5q0 73 44.5 115.5t127.5 42.5q84 0 128 -42.5
t44 -115.5q0 -72 -44 -114.5t-128 -42.5z" />
    <glyph glyph-name="uni1E48" unicode="&#x1e48;" horiz-adv-x="1543" 
d="M133 0v1480h326l701 -1077h-56v1077h306v-1480h-327l-700 1077h56v-1077h-306zM404 -362v192h736v-192h-736z" />
    <glyph glyph-name="uni1E49" unicode="&#x1e49;" horiz-adv-x="1222" 
d="M119 0v1094h263l21 -111h15q61 62 143 95t178 33q108 0 192.5 -42.5t132.5 -137t48 -249.5v-682h-319v662q0 99 -41 137t-113 38q-36 0 -72.5 -9.5t-70 -29.5t-59.5 -50v-748h-318zM271 -378v190h690v-190h-690z" />
    <glyph glyph-name="uni1E4C" unicode="&#x1e4c;" horiz-adv-x="1562" 
d="M781 -19q-211 0 -367.5 82t-243 250.5t-86.5 426.5t86.5 426.5t243 250.5t367.5 82t367.5 -82.5t243 -251t86.5 -425.5t-86.5 -425.5t-243.5 -251t-367 -82.5zM781 243q114 0 195.5 49.5t125 157.5t43.5 283q0 182 -44 292.5t-125.5 161t-194.5 50.5t-194.5 -49
t-125.5 -157t-44 -284q0 -183 43.5 -293.5t125 -160.5t195.5 -50zM620 1956l180 232h369l-228 -232h-321zM953 1619q-53 0 -99 13t-90 27q-39 14 -78.5 25t-82.5 11q-61 0 -107 -17.5t-92 -52.5v183q40 37 88.5 55t116.5 18q54 0 100 -13t89 -28q40 -14 79.5 -25.5
t81.5 -11.5q61 0 107 17.5t92 52.5v-183q-39 -36 -88 -53.5t-117 -17.5z" />
    <glyph glyph-name="uni1E4D" unicode="&#x1e4d;" horiz-adv-x="1204" 
d="M602 -21q-164 0 -283.5 62.5t-184.5 188t-65 314.5q0 191 63.5 317t183 188t286.5 62t286.5 -62.5t183 -188t63.5 -314.5q0 -190 -65 -316t-184.5 -188.5t-283.5 -62.5zM602 221q67 0 114.5 29t72.5 99.5t25 193.5q0 126 -25 197t-72.5 100.5t-114.5 29.5t-114.5 -29
t-72.5 -99.5t-25 -194.5q0 -126 25 -197t72.5 -100t114.5 -29zM760 1285q-48 0 -91.5 16t-83.5 33q-37 17 -73 30t-73 13q-56 0 -101 -20t-91 -65v200q76 77 197 77q49 0 92 -15.5t83 -33.5q37 -16 73 -29.5t73 -13.5q57 0 102 20.5t90 64.5v-200q-76 -77 -197 -77z
M457 1674l181 303h335l-229 -303h-287z" />
    <glyph glyph-name="uni1E4E" unicode="&#x1e4e;" horiz-adv-x="1562" 
d="M781 -19q-211 0 -367.5 82t-243 250.5t-86.5 426.5t86.5 426.5t243 250.5t367.5 82t367.5 -82.5t243 -251t86.5 -425.5t-86.5 -425.5t-243.5 -251t-367 -82.5zM781 243q114 0 195.5 49.5t125 157.5t43.5 283q0 182 -44 292.5t-125.5 161t-194.5 50.5t-194.5 -49
t-125.5 -157t-44 -284q0 -183 43.5 -293.5t125 -160.5t195.5 -50zM953 1619q-53 0 -99 13t-90 27q-39 14 -78.5 25t-82.5 11q-61 0 -107 -17.5t-92 -52.5v183q40 37 88.5 55t116.5 18q54 0 100 -13t89 -28q40 -14 79.5 -25.5t81.5 -11.5q61 0 107 17.5t92 52.5v-183
q-39 -36 -88 -53.5t-117 -17.5zM1038 1955q-85 0 -128 38t-43 107q0 68 43 106.5t128 38.5t128.5 -38.5t43.5 -106.5q0 -69 -43.5 -107t-128.5 -38zM524 1955q-85 0 -128.5 38t-43.5 107q0 68 43.5 106.5t128.5 38.5t128 -38.5t43 -106.5q0 -69 -43 -107t-128 -38z" />
    <glyph glyph-name="uni1E4F" unicode="&#x1e4f;" horiz-adv-x="1204" 
d="M602 -21q-164 0 -283.5 62.5t-184.5 188t-65 314.5q0 191 63.5 317t183 188t286.5 62t286.5 -62.5t183 -188t63.5 -314.5q0 -190 -65 -316t-184.5 -188.5t-283.5 -62.5zM602 221q67 0 114.5 29t72.5 99.5t25 193.5q0 126 -25 197t-72.5 100.5t-114.5 29.5t-114.5 -29
t-72.5 -99.5t-25 -194.5q0 -126 25 -197t72.5 -100t114.5 -29zM760 1285q-48 0 -91.5 16t-83.5 33q-37 17 -73 30t-73 13q-56 0 -101 -20t-91 -65v200q76 77 197 77q49 0 92 -15.5t83 -33.5q37 -16 73 -29.5t73 -13.5q57 0 102 20.5t90 64.5v-200q-76 -77 -197 -77z
M847 1646q-83 0 -127.5 43t-44.5 118q0 76 44.5 119t127.5 43t127.5 -43t44.5 -119q0 -75 -44.5 -118t-127.5 -43zM357 1646q-83 0 -127.5 43t-44.5 118q0 76 44.5 119t127.5 43q84 0 128 -43t44 -119q0 -75 -44 -118t-128 -43z" />
    <glyph glyph-name="uni1E50" unicode="&#x1e50;" horiz-adv-x="1562" 
d="M781 -19q-211 0 -367.5 82t-243 250.5t-86.5 426.5t86.5 426.5t243 250.5t367.5 82t367.5 -82.5t243 -251t86.5 -425.5t-86.5 -425.5t-243.5 -251t-367 -82.5zM781 243q114 0 195.5 49.5t125 157.5t43.5 283q0 182 -44 292.5t-125.5 161t-194.5 50.5t-194.5 -49
t-125.5 -157t-44 -284q0 -183 43.5 -293.5t125 -160.5t195.5 -50zM621 1956l-229 232h369l181 -232h-321zM413 1644v192h736v-192h-736z" />
    <glyph glyph-name="uni1E51" unicode="&#x1e51;" horiz-adv-x="1204" 
d="M602 -21q-164 0 -283.5 62.5t-184.5 188t-65 314.5q0 191 63.5 317t183 188t286.5 62t286.5 -62.5t183 -188t63.5 -314.5q0 -190 -65 -316t-184.5 -188.5t-283.5 -62.5zM602 221q67 0 114.5 29t72.5 99.5t25 193.5q0 126 -25 197t-72.5 100.5t-114.5 29.5t-114.5 -29
t-72.5 -99.5t-25 -194.5q0 -126 25 -197t72.5 -100t114.5 -29zM247 1324v192h710v-192h-710zM458 1656l-228 303h335l181 -303h-288z" />
    <glyph glyph-name="uni1E52" unicode="&#x1e52;" horiz-adv-x="1562" 
d="M781 -19q-211 0 -367.5 82t-243 250.5t-86.5 426.5t86.5 426.5t243 250.5t367.5 82t367.5 -82.5t243 -251t86.5 -425.5t-86.5 -425.5t-243.5 -251t-367 -82.5zM781 243q114 0 195.5 49.5t125 157.5t43.5 283q0 182 -44 292.5t-125.5 161t-194.5 50.5t-194.5 -49
t-125.5 -157t-44 -284q0 -183 43.5 -293.5t125 -160.5t195.5 -50zM620 1956l180 232h370l-229 -232h-321zM413 1644v192h736v-192h-736z" />
    <glyph glyph-name="uni1E53" unicode="&#x1e53;" horiz-adv-x="1204" 
d="M602 -21q-164 0 -283.5 62.5t-184.5 188t-65 314.5q0 191 63.5 317t183 188t286.5 62t286.5 -62.5t183 -188t63.5 -314.5q0 -190 -65 -316t-184.5 -188.5t-283.5 -62.5zM602 221q67 0 114.5 29t72.5 99.5t25 193.5q0 126 -25 197t-72.5 100.5t-114.5 29.5t-114.5 -29
t-72.5 -99.5t-25 -194.5q0 -126 25 -197t72.5 -100t114.5 -29zM247 1324v192h710v-192h-710zM457 1656l181 303h335l-229 -303h-287z" />
    <glyph glyph-name="uni1E5A" unicode="&#x1e5a;" horiz-adv-x="1378" 
d="M133 0v1447q67 15 143 26.5t157 18t163 6.5q319 0 480 -115.5t161 -360.5q0 -158 -76 -264.5t-216.5 -160.5t-335.5 -54q-44 0 -81 1.5t-76 3.5v-548h-319zM1004 0l-476 684h348l483 -684h-355zM615 785q161 0 239 56t78 181q0 82 -33 134.5t-100 77.5t-170 25
q-51 0 -94 -4t-83 -12v-450q29 -2 54.5 -4.5t52 -3t56.5 -0.5zM723 -418q-97 0 -146 38.5t-49 106.5q0 69 49 107t146 38t146 -38t49 -107q0 -68 -49 -106.5t-146 -38.5z" />
    <glyph glyph-name="uni1E5B" unicode="&#x1e5b;" horiz-adv-x="810" 
d="M119 0v1094h261l24 -141h16q46 81 122 118.5t167 37.5q25 0 48 -2t41 -6v-288q-25 5 -53.5 6.5t-54.5 1.5q-47 0 -95 -11.5t-89 -35t-69 -57.5v-717h-318zM278 -443q-83 0 -127.5 42.5t-44.5 114.5q0 73 44.5 115.5t127.5 42.5q84 0 128 -42.5t44 -115.5
q0 -72 -44 -114.5t-128 -42.5z" />
    <glyph glyph-name="uni1E5E" unicode="&#x1e5e;" horiz-adv-x="1378" 
d="M133 0v1447q67 15 143 26.5t157 18t163 6.5q319 0 480 -115.5t161 -360.5q0 -158 -76 -264.5t-216.5 -160.5t-335.5 -54q-44 0 -81 1.5t-76 3.5v-548h-319zM1004 0l-476 684h348l483 -684h-355zM615 785q161 0 239 56t78 181q0 82 -33 134.5t-100 77.5t-170 25
q-51 0 -94 -4t-83 -12v-450q29 -2 54.5 -4.5t52 -3t56.5 -0.5zM355 -362v192h736v-192h-736z" />
    <glyph glyph-name="uni1E5F" unicode="&#x1e5f;" horiz-adv-x="810" 
d="M119 0v1094h261l24 -141h16q46 81 122 118.5t167 37.5q25 0 48 -2t41 -6v-288q-25 5 -53.5 6.5t-54.5 1.5q-47 0 -95 -11.5t-89 -35t-69 -57.5v-717h-318zM-67 -378v190h690v-190h-690z" />
    <glyph glyph-name="uni1E60" unicode="&#x1e60;" horiz-adv-x="1153" 
d="M503 -19q-107 0 -214.5 16.5t-198.5 46.5v264q63 -21 134 -35.5t142.5 -22.5t135.5 -8q149 0 211 45.5t62 127.5q0 69 -45.5 108t-169.5 71l-112 29q-194 49 -293.5 152.5t-99.5 273.5q0 212 153.5 331t462.5 119q100 0 190.5 -11.5t160.5 -31.5v-264q-71 22 -158 34
t-175 12q-116 0 -184 -21.5t-97.5 -60.5t-29.5 -90q0 -65 40 -102t150 -67l111 -29q144 -35 237 -92.5t137.5 -141t44.5 -197.5q0 -142 -70.5 -244.5t-203.5 -157t-321 -54.5zM588 1606q-97 0 -146 38.5t-49 106.5q0 69 49 107t146 38t146 -38t49 -107q0 -68 -49 -106.5
t-146 -38.5z" />
    <glyph glyph-name="uni1E61" unicode="&#x1e61;" horiz-adv-x="978" 
d="M440 -21q-94 0 -182.5 12t-166.5 36v234q79 -24 167 -36.5t178 -12.5q108 0 152.5 28.5t44.5 79.5q0 41 -22 62t-77 32l-178 32q-154 29 -224 107t-70 209q0 157 126.5 253t388.5 96q80 0 155.5 -9t136.5 -25v-234q-64 18 -136 27t-147 9q-91 0 -140 -15.5t-68.5 -40.5
t-19.5 -54q0 -35 22 -57t76 -34l178 -32q146 -27 220.5 -99.5t74.5 -215.5q0 -163 -127.5 -257.5t-361.5 -94.5zM494 1253q-100 0 -148.5 44t-48.5 122q0 80 48.5 123.5t148.5 43.5q101 0 149 -43.5t48 -123.5q0 -78 -48 -122t-149 -44z" />
    <glyph glyph-name="uni1E62" unicode="&#x1e62;" horiz-adv-x="1153" 
d="M503 -19q-107 0 -214.5 16.5t-198.5 46.5v264q63 -21 134 -35.5t142.5 -22.5t135.5 -8q149 0 211 45.5t62 127.5q0 69 -45.5 108t-169.5 71l-112 29q-194 49 -293.5 152.5t-99.5 273.5q0 212 153.5 331t462.5 119q100 0 190.5 -11.5t160.5 -31.5v-264q-71 22 -158 34
t-175 12q-116 0 -184 -21.5t-97.5 -60.5t-29.5 -90q0 -65 40 -102t150 -67l111 -29q144 -35 237 -92.5t137.5 -141t44.5 -197.5q0 -142 -70.5 -244.5t-203.5 -157t-321 -54.5zM588 -418q-97 0 -146 38.5t-49 106.5q0 69 49 107t146 38t146 -38t49 -107q0 -68 -49 -106.5
t-146 -38.5z" />
    <glyph glyph-name="uni1E63" unicode="&#x1e63;" horiz-adv-x="978" 
d="M440 -21q-94 0 -182.5 12t-166.5 36v234q79 -24 167 -36.5t178 -12.5q108 0 152.5 28.5t44.5 79.5q0 41 -22 62t-77 32l-178 32q-154 29 -224 107t-70 209q0 157 126.5 253t388.5 96q80 0 155.5 -9t136.5 -25v-234q-64 18 -136 27t-147 9q-91 0 -140 -15.5t-68.5 -40.5
t-19.5 -54q0 -35 22 -57t76 -34l178 -32q146 -27 220.5 -99.5t74.5 -215.5q0 -163 -127.5 -257.5t-361.5 -94.5zM494 -443q-83 0 -127.5 42.5t-44.5 114.5q0 73 44.5 115.5t127.5 42.5q84 0 128 -42.5t44 -115.5q0 -72 -44 -114.5t-128 -42.5z" />
    <glyph glyph-name="uni1E64" unicode="&#x1e64;" horiz-adv-x="1153" 
d="M503 -19q-107 0 -214.5 16.5t-198.5 46.5v264q63 -21 134 -35.5t142.5 -22.5t135.5 -8q149 0 211 45.5t62 127.5q0 69 -45.5 108t-169.5 71l-112 29q-194 49 -293.5 152.5t-99.5 273.5q0 212 153.5 331t462.5 119q100 0 190.5 -11.5t160.5 -31.5v-264q-71 22 -158 34
t-175 12q-116 0 -184 -21.5t-97.5 -60.5t-29.5 -90q0 -65 40 -102t150 -67l111 -29q144 -35 237 -92.5t137.5 -141t44.5 -197.5q0 -142 -70.5 -244.5t-203.5 -157t-321 -54.5zM355 1858q-78 0 -118.5 31.5t-40.5 87.5q0 57 40.5 89t118.5 32q80 0 120 -32t40 -89
q0 -56 -40 -87.5t-120 -31.5zM443 1595l181 303h335l-229 -303h-287z" />
    <glyph glyph-name="uni1E65" unicode="&#x1e65;" horiz-adv-x="978" 
d="M440 -21q-94 0 -182.5 12t-166.5 36v234q79 -24 167 -36.5t178 -12.5q108 0 152.5 28.5t44.5 79.5q0 41 -22 62t-77 32l-178 32q-154 29 -224 107t-70 209q0 157 126.5 253t388.5 96q80 0 155.5 -9t136.5 -25v-234q-64 18 -136 27t-147 9q-91 0 -140 -15.5t-68.5 -40.5
t-19.5 -54q0 -35 22 -57t76 -34l178 -32q146 -27 220.5 -99.5t74.5 -215.5q0 -163 -127.5 -257.5t-361.5 -94.5zM321 1576q-79 0 -119 31.5t-40 88.5q0 56 40 88t119 32q80 0 120 -32t40 -88q0 -57 -40 -88.5t-120 -31.5zM348 1233l226 383h338l-272 -383h-292z" />
    <glyph glyph-name="uni1E66" unicode="&#x1e66;" horiz-adv-x="1153" 
d="M503 -19q-107 0 -214.5 16.5t-198.5 46.5v264q63 -21 134 -35.5t142.5 -22.5t135.5 -8q149 0 211 45.5t62 127.5q0 69 -45.5 108t-169.5 71l-112 29q-194 49 -293.5 152.5t-99.5 273.5q0 212 153.5 331t462.5 119q100 0 190.5 -11.5t160.5 -31.5v-264q-71 22 -158 34
t-175 12q-116 0 -184 -21.5t-97.5 -60.5t-29.5 -90q0 -65 40 -102t150 -67l111 -29q144 -35 237 -92.5t137.5 -141t44.5 -197.5q0 -142 -70.5 -244.5t-203.5 -157t-321 -54.5zM588 1926q-79 0 -119.5 31.5t-40.5 87.5q0 57 40.5 89t119.5 32t119.5 -32t40.5 -89
q0 -56 -40.5 -87.5t-119.5 -31.5zM452 1595l-255 303h242l174 -216h-50l174 216h242l-255 -303h-272z" />
    <glyph glyph-name="uni1E67" unicode="&#x1e67;" horiz-adv-x="978" 
d="M440 -21q-94 0 -182.5 12t-166.5 36v234q79 -24 167 -36.5t178 -12.5q108 0 152.5 28.5t44.5 79.5q0 41 -22 62t-77 32l-178 32q-154 29 -224 107t-70 209q0 157 126.5 253t388.5 96q80 0 155.5 -9t136.5 -25v-234q-64 18 -136 27t-147 9q-91 0 -140 -15.5t-68.5 -40.5
t-19.5 -54q0 -35 22 -57t76 -34l178 -32q146 -27 220.5 -99.5t74.5 -215.5q0 -163 -127.5 -257.5t-361.5 -94.5zM494 1643q-79 0 -119.5 32t-40.5 88q0 57 40.5 88.5t119.5 31.5t119.5 -31.5t40.5 -88.5q0 -56 -40.5 -88t-119.5 -32zM363 1233l-234 383h229l160 -276h-48
l160 276h229l-234 -383h-262z" />
    <glyph glyph-name="uni1E68" unicode="&#x1e68;" horiz-adv-x="1153" 
d="M503 -19q-107 0 -214.5 16.5t-198.5 46.5v264q63 -21 134 -35.5t142.5 -22.5t135.5 -8q149 0 211 45.5t62 127.5q0 69 -45.5 108t-169.5 71l-112 29q-194 49 -293.5 152.5t-99.5 273.5q0 212 153.5 331t462.5 119q100 0 190.5 -11.5t160.5 -31.5v-264q-71 22 -158 34
t-175 12q-116 0 -184 -21.5t-97.5 -60.5t-29.5 -90q0 -65 40 -102t150 -67l111 -29q144 -35 237 -92.5t137.5 -141t44.5 -197.5q0 -142 -70.5 -244.5t-203.5 -157t-321 -54.5zM588 -418q-97 0 -146 38.5t-49 106.5q0 69 49 107t146 38t146 -38t49 -107q0 -68 -49 -106.5
t-146 -38.5zM588 1606q-97 0 -146 38.5t-49 106.5q0 69 49 107t146 38t146 -38t49 -107q0 -68 -49 -106.5t-146 -38.5z" />
    <glyph glyph-name="uni1E69" unicode="&#x1e69;" horiz-adv-x="978" 
d="M440 -21q-94 0 -182.5 12t-166.5 36v234q79 -24 167 -36.5t178 -12.5q108 0 152.5 28.5t44.5 79.5q0 41 -22 62t-77 32l-178 32q-154 29 -224 107t-70 209q0 157 126.5 253t388.5 96q80 0 155.5 -9t136.5 -25v-234q-64 18 -136 27t-147 9q-91 0 -140 -15.5t-68.5 -40.5
t-19.5 -54q0 -35 22 -57t76 -34l178 -32q146 -27 220.5 -99.5t74.5 -215.5q0 -163 -127.5 -257.5t-361.5 -94.5zM494 -443q-83 0 -127.5 42.5t-44.5 114.5q0 73 44.5 115.5t127.5 42.5q84 0 128 -42.5t44 -115.5q0 -72 -44 -114.5t-128 -42.5zM494 1253q-100 0 -148.5 44
t-48.5 122q0 80 48.5 123.5t148.5 43.5q101 0 149 -43.5t48 -123.5q0 -78 -48 -122t-149 -44z" />
    <glyph glyph-name="uni1E6C" unicode="&#x1e6c;" horiz-adv-x="1285" 
d="M480 0v1210h-467v270h1259v-270h-466v-1210h-326zM643 -418q-97 0 -146 38.5t-49 106.5q0 69 49 107t146 38t146 -38t49 -107q0 -68 -49 -106.5t-146 -38.5z" />
    <glyph glyph-name="uni1E6D" unicode="&#x1e6d;" horiz-adv-x="843" 
d="M606 -20q-198 0 -304.5 98.5t-106.5 312.5v703l58 386h260v-1039q0 -113 42.5 -156t137.5 -43q26 0 53.5 3.5t61.5 9.5v-252q-43 -9 -96.5 -16t-105.5 -7zM17 843v251h784v-251h-784zM502 -443q-83 0 -127.5 42.5t-44.5 114.5q0 73 44.5 115.5t127.5 42.5q84 0 128 -42.5
t44 -115.5q0 -72 -44 -114.5t-128 -42.5z" />
    <glyph glyph-name="uni1E6E" unicode="&#x1e6e;" horiz-adv-x="1285" 
d="M480 0v1210h-467v270h1259v-270h-466v-1210h-326zM275 -362v192h736v-192h-736z" />
    <glyph glyph-name="uni1E6F" unicode="&#x1e6f;" horiz-adv-x="843" 
d="M606 -20q-198 0 -304.5 98.5t-106.5 312.5v703l58 386h260v-1039q0 -113 42.5 -156t137.5 -43q26 0 53.5 3.5t61.5 9.5v-252q-43 -9 -96.5 -16t-105.5 -7zM17 843v251h784v-251h-784zM157 -378v190h690v-190h-690z" />
    <glyph glyph-name="uni1E78" unicode="&#x1e78;" horiz-adv-x="1495" 
d="M751 -19q-216 0 -354 69t-204 209.5t-66 353.5v867h324v-899q0 -176 75 -255t225 -79t224.5 79t74.5 255v899h318v-867q0 -213 -65 -353.5t-202 -209.5t-350 -69zM590 1956l180 232h369l-228 -232h-321zM923 1619q-53 0 -99 13t-90 27q-39 14 -78.5 25t-82.5 11
q-61 0 -107 -17.5t-92 -52.5v183q40 37 88.5 55t116.5 18q54 0 100 -13t89 -28q40 -14 79.5 -25.5t81.5 -11.5q61 0 107 17.5t92 52.5v-183q-39 -36 -88 -53.5t-117 -17.5z" />
    <glyph glyph-name="uni1E79" unicode="&#x1e79;" horiz-adv-x="1213" 
d="M487 -19q-109 0 -194 42.5t-134 136.5t-49 249v685h319v-663q0 -99 41.5 -137t108.5 -38q33 0 69.5 9.5t69.5 29.5t58 50v749h318v-1094h-262l-22 110h-14q-62 -63 -141 -96t-168 -33zM761 1285q-48 0 -91.5 16t-83.5 33q-37 17 -73 30t-73 13q-56 0 -101 -20t-91 -65
v200q76 77 197 77q49 0 92 -15.5t83 -33.5q37 -16 73 -29.5t73 -13.5q57 0 102 20.5t90 64.5v-200q-76 -77 -197 -77zM458 1674l181 303h335l-229 -303h-287z" />
    <glyph glyph-name="uni1E7A" unicode="&#x1e7a;" horiz-adv-x="1495" 
d="M751 -19q-216 0 -354 69t-204 209.5t-66 353.5v867h324v-899q0 -176 75 -255t225 -79t224.5 79t74.5 255v899h318v-867q0 -213 -65 -353.5t-202 -209.5t-350 -69zM383 1644v192h736v-192h-736zM1008 1948q-85 0 -128 38t-43 107q0 68 43 106.5t128 38.5t128.5 -38.5
t43.5 -106.5q0 -69 -43.5 -107t-128.5 -38zM494 1948q-85 0 -128.5 38t-43.5 107q0 68 43.5 106.5t128.5 38.5t128 -38.5t43 -106.5q0 -69 -43 -107t-128 -38z" />
    <glyph glyph-name="uni1E7B" unicode="&#x1e7b;" horiz-adv-x="1213" 
d="M487 -19q-109 0 -194 42.5t-134 136.5t-49 249v685h319v-663q0 -99 41.5 -137t108.5 -38q33 0 69.5 9.5t69.5 29.5t58 50v749h318v-1094h-262l-22 110h-14q-62 -63 -141 -96t-168 -33zM248 1324v192h710v-192h-710zM848 1629q-83 0 -127.5 43t-44.5 118q0 76 44.5 119
t127.5 43t127.5 -43t44.5 -119q0 -75 -44.5 -118t-127.5 -43zM358 1629q-83 0 -127.5 43t-44.5 118q0 76 44.5 119t127.5 43q84 0 128 -43t44 -119q0 -75 -44 -118t-128 -43z" />
    <glyph glyph-name="Wgrave" unicode="&#x1e80;" horiz-adv-x="2279" 
d="M421 0l-391 1480h329l334 -1337h-81l357 1337h359l345 -1337h-75l342 1337h308l-391 -1480h-417l-337 1282h86l-351 -1282h-417zM996 1595l-228 303h335l181 -303h-288z" />
    <glyph glyph-name="wgrave" unicode="&#x1e81;" horiz-adv-x="1811" 
d="M338 0l-295 1094h302l196 -784h-16l212 784h352l208 -784h-22l203 784h289l-292 -1094h-353l-223 825h19l-228 -825h-352zM761 1233l-272 383h338l226 -383h-292z" />
    <glyph glyph-name="Wacute" unicode="&#x1e82;" horiz-adv-x="2279" 
d="M421 0l-391 1480h329l334 -1337h-81l357 1337h359l345 -1337h-75l342 1337h308l-391 -1480h-417l-337 1282h86l-351 -1282h-417zM995 1595l181 303h335l-229 -303h-287z" />
    <glyph glyph-name="wacute" unicode="&#x1e83;" horiz-adv-x="1811" 
d="M338 0l-295 1094h302l196 -784h-16l212 784h352l208 -784h-22l203 784h289l-292 -1094h-353l-223 825h19l-228 -825h-352zM761 1233l226 383h338l-272 -383h-292z" />
    <glyph glyph-name="Wdieresis" unicode="&#x1e84;" horiz-adv-x="2279" 
d="M421 0l-391 1480h329l334 -1337h-81l357 1337h359l345 -1337h-75l342 1337h308l-391 -1480h-417l-337 1282h86l-351 -1282h-417zM1397 1606q-85 0 -128 38t-43 107q0 68 43 106.5t128 38.5t128.5 -38.5t43.5 -106.5q0 -69 -43.5 -107t-128.5 -38zM883 1606
q-85 0 -128.5 38t-43.5 107q0 68 43.5 106.5t128.5 38.5t128 -38.5t43 -106.5q0 -69 -43 -107t-128 -38z" />
    <glyph glyph-name="wdieresis" unicode="&#x1e85;" horiz-adv-x="1811" 
d="M338 0l-295 1094h302l196 -784h-16l212 784h352l208 -784h-22l203 784h289l-292 -1094h-353l-223 825h19l-228 -825h-352zM1152 1258q-83 0 -127.5 43t-44.5 118q0 76 44.5 119t127.5 43t127.5 -43t44.5 -119q0 -75 -44.5 -118t-127.5 -43zM662 1258q-83 0 -127.5 43
t-44.5 118q0 76 44.5 119t127.5 43q84 0 128 -43t44 -119q0 -75 -44 -118t-128 -43z" />
    <glyph glyph-name="uni1E8E" unicode="&#x1e8e;" horiz-adv-x="1285" 
d="M482 0v758l66 -239l-600 961h345l405 -654h-92l400 654h320l-585 -961l66 234v-753h-325zM643 1606q-97 0 -146 38.5t-49 106.5q0 69 49 107t146 38t146 -38t49 -107q0 -68 -49 -106.5t-146 -38.5z" />
    <glyph glyph-name="uni1E8F" unicode="&#x1e8f;" horiz-adv-x="1166" 
d="M314 -440l157 440l110 252l272 842h314l-540 -1534h-313zM383 0l-384 1094h333l347 -1094h-296zM583 1253q-100 0 -148.5 44t-48.5 122q0 80 48.5 123.5t148.5 43.5q101 0 149 -43.5t48 -123.5q0 -78 -48 -122t-149 -44z" />
    <glyph glyph-name="uni1E92" unicode="&#x1e92;" horiz-adv-x="1239" 
d="M59 0v178l731 1094l4 -62h-724v270h1099v-178l-730 -1094l-5 62h746v-270h-1121zM618 -418q-97 0 -146 38.5t-49 106.5q0 69 49 107t146 38t146 -38t49 -107q0 -68 -49 -106.5t-146 -38.5z" />
    <glyph glyph-name="uni1E93" unicode="&#x1e93;" horiz-adv-x="1012" 
d="M65 0v201l539 700v-58h-528v251h876v-201l-539 -700v58h549v-251h-897zM514 -443q-83 0 -127.5 42.5t-44.5 114.5q0 73 44.5 115.5t127.5 42.5q84 0 128 -42.5t44 -115.5q0 -72 -44 -114.5t-128 -42.5z" />
    <glyph glyph-name="uni1E97" unicode="&#x1e97;" horiz-adv-x="843" 
d="M606 -20q-198 0 -304.5 98.5t-106.5 312.5v703l58 386h260v-1039q0 -113 42.5 -156t137.5 -43q26 0 53.5 3.5t61.5 9.5v-252q-43 -9 -96.5 -16t-105.5 -7zM17 843v251h784v-251h-784zM599 1566q-83 0 -127.5 43t-44.5 118q0 76 44.5 119t127.5 43t127.5 -43t44.5 -119
q0 -75 -44.5 -118t-127.5 -43zM109 1566q-83 0 -127.5 43t-44.5 118q0 76 44.5 119t127.5 43q84 0 128 -43t44 -119q0 -75 -44 -118t-128 -43z" />
    <glyph glyph-name="uni1E9E" unicode="&#x1e9e;" horiz-adv-x="1533" 
d="M1347 1372v-175l-406 -452l-18 89q27 4 53 5.5t55 1.5q130 0 230.5 -47.5t157.5 -138t57 -219.5q0 -137 -63 -239.5t-185 -159t-300 -56.5q-92 0 -176 15.5t-159 43.5v264q52 -19 107.5 -33t110 -21.5t101.5 -7.5q129 0 193 56t64 153q0 91 -65.5 145t-206.5 54
q-53 0 -102 -3.5t-105 -12.5v176l443 515l-15 -131q-66 30 -139 43.5t-168 13.5q-193 0 -283.5 -76.5t-90.5 -208.5v-966h-325v928q0 181 75 308.5t227.5 195t387.5 67.5q174 0 305.5 -34.5t239.5 -92.5z" />
    <glyph glyph-name="uni1EA0" unicode="&#x1ea0;" horiz-adv-x="1457" 
d="M14 0l478 1480h473l478 -1480h-320l-414 1338h34l-413 -1338h-316zM346 395l70 259h624l69 -259h-763zM729 -418q-97 0 -146 38.5t-49 106.5q0 69 49 107t146 38t146 -38t49 -107q0 -68 -49 -106.5t-146 -38.5z" />
    <glyph glyph-name="uni1EA1" unicode="&#x1ea1;" horiz-adv-x="1117" 
d="M418 -20q-168 0 -261.5 87.5t-93.5 228.5q0 155 107.5 242t347.5 103l230 19l34 -176l-232 -19q-92 -7 -132.5 -42t-40.5 -96q0 -60 37 -92.5t108 -32.5q44 0 90 15.5t84 53.5v400q0 75 -24.5 118t-79 61.5t-145.5 18.5q-63 0 -143 -10.5t-153 -33.5v240
q80 23 175.5 34.5t177.5 11.5q174 0 285.5 -43t164.5 -143.5t53 -273.5v-651h-262l-22 109h-15q-49 -67 -125 -98t-165 -31zM559 -443q-83 0 -127.5 42.5t-44.5 114.5q0 73 44.5 115.5t127.5 42.5q84 0 128 -42.5t44 -115.5q0 -72 -44 -114.5t-128 -42.5z" />
    <glyph glyph-name="uni1EA2" unicode="&#x1ea2;" horiz-adv-x="1457" 
d="M14 0l478 1480h473l478 -1480h-320l-414 1338h34l-413 -1338h-316zM346 395l70 259h624l69 -259h-763zM648 1595q3 51 38.5 76t70.5 41q23 11 40 21t17 26q0 19 -25.5 28.5t-84.5 9.5q-46 0 -94 -6t-98 -19v119q43 13 103 19.5t113 6.5q133 0 194 -34t61 -100
q0 -47 -32.5 -72.5t-67.5 -44.5q-27 -14 -49.5 -30t-25.5 -41h-160z" />
    <glyph glyph-name="uni1EA3" unicode="&#x1ea3;" horiz-adv-x="1117" 
d="M418 -20q-168 0 -261.5 87.5t-93.5 228.5q0 155 107.5 242t347.5 103l230 19l34 -176l-232 -19q-92 -7 -132.5 -42t-40.5 -96q0 -60 37 -92.5t108 -32.5q44 0 90 15.5t84 53.5v400q0 75 -24.5 118t-79 61.5t-145.5 18.5q-63 0 -143 -10.5t-153 -33.5v240
q80 23 175.5 34.5t177.5 11.5q174 0 285.5 -43t164.5 -143.5t53 -273.5v-651h-262l-22 109h-15q-49 -67 -125 -98t-165 -31zM475 1233q2 56 25.5 88t52.5 52.5t50.5 38.5t21.5 43t-23 37t-74 12q-39 0 -81 -5.5t-85 -18.5v123q38 12 91 18.5t97 6.5q125 0 184.5 -38
t59.5 -115q0 -52 -22.5 -81.5t-53 -50.5t-55 -44.5t-28.5 -65.5h-160z" />
    <glyph glyph-name="uni1EA4" unicode="&#x1ea4;" horiz-adv-x="1457" 
d="M14 0l478 1480h473l478 -1480h-320l-414 1338h34l-413 -1338h-316zM346 395l70 259h624l69 -259h-763zM337 1595l255 272h272l255 -272h-242l-174 197h50l-174 -197h-242zM979 1817l119 247h217l-163 -247h-173z" />
    <glyph glyph-name="uni1EA5" unicode="&#x1ea5;" horiz-adv-x="1117" 
d="M418 -20q-168 0 -261.5 87.5t-93.5 228.5q0 155 107.5 242t347.5 103l230 19l34 -176l-232 -19q-92 -7 -132.5 -42t-40.5 -96q0 -60 37 -92.5t108 -32.5q44 0 90 15.5t84 53.5v400q0 75 -24.5 118t-79 61.5t-145.5 18.5q-63 0 -143 -10.5t-153 -33.5v240
q80 23 175.5 34.5t177.5 11.5q174 0 285.5 -43t164.5 -143.5t53 -273.5v-651h-262l-22 109h-15q-49 -67 -125 -98t-165 -31zM192 1233l232 383h262l232 -383h-228l-159 276h48l-159 -276h-228zM783 1597l181 271h271l-229 -271h-223z" />
    <glyph glyph-name="uni1EA6" unicode="&#x1ea6;" horiz-adv-x="1457" 
d="M14 0l478 1480h473l478 -1480h-320l-414 1338h34l-413 -1338h-316zM346 395l70 259h624l69 -259h-763zM339 1595l255 272h272l255 -272h-242l-174 197h50l-174 -197h-242zM1014 1817l-163 247h217l120 -247h-174z" />
    <glyph glyph-name="uni1EA7" unicode="&#x1ea7;" horiz-adv-x="1117" 
d="M418 -20q-168 0 -261.5 87.5t-93.5 228.5q0 155 107.5 242t347.5 103l230 19l34 -176l-232 -19q-92 -7 -132.5 -42t-40.5 -96q0 -60 37 -92.5t108 -32.5q44 0 90 15.5t84 53.5v400q0 75 -24.5 118t-79 61.5t-145.5 18.5q-63 0 -143 -10.5t-153 -33.5v240
q80 23 175.5 34.5t177.5 11.5q174 0 285.5 -43t164.5 -143.5t53 -273.5v-651h-262l-22 109h-15q-49 -67 -125 -98t-165 -31zM192 1233l232 383h262l233 -383h-229l-158 276h47l-159 -276h-228zM817 1597l-229 271h271l181 -271h-223z" />
    <glyph glyph-name="uni1EA8" unicode="&#x1ea8;" horiz-adv-x="1457" 
d="M14 0l478 1480h473l478 -1480h-320l-414 1338h34l-413 -1338h-316zM346 395l70 259h624l69 -259h-763zM337 1595l255 272h272l255 -272h-242l-174 197h50l-174 -197h-242zM978 1817q2 39 27.5 60.5t58 34.5t56.5 24.5t24 29.5q0 17 -25.5 25.5t-83.5 8.5q-47 0 -94.5 -5
t-98.5 -18v104q43 12 103.5 18.5t113.5 6.5q132 0 193 -30.5t61 -90.5q0 -37 -25 -59t-58.5 -37t-60.5 -30.5t-31 -41.5h-160z" />
    <glyph glyph-name="uni1EA9" unicode="&#x1ea9;" horiz-adv-x="1117" 
d="M418 -20q-168 0 -261.5 87.5t-93.5 228.5q0 155 107.5 242t347.5 103l230 19l34 -176l-232 -19q-92 -7 -132.5 -42t-40.5 -96q0 -60 37 -92.5t108 -32.5q44 0 90 15.5t84 53.5v400q0 75 -24.5 118t-79 61.5t-145.5 18.5q-63 0 -143 -10.5t-153 -33.5v240
q80 23 175.5 34.5t177.5 11.5q174 0 285.5 -43t164.5 -143.5t53 -273.5v-651h-262l-22 109h-15q-49 -67 -125 -98t-165 -31zM192 1233l232 383h262l232 -383h-228l-159 276h48l-159 -276h-228zM784 1597q3 41 27 63.5t53.5 35.5t51.5 23.5t22 26.5q0 18 -23 27t-79 9
q-45 0 -92 -5.5t-90 -17.5v102q39 12 98 18.5t108 6.5q125 0 183 -29t58 -91q0 -36 -23.5 -56t-55 -34t-57 -31.5t-30.5 -47.5h-151z" />
    <glyph glyph-name="uni1EAA" unicode="&#x1eaa;" horiz-adv-x="1457" 
d="M14 0l478 1480h473l478 -1480h-320l-414 1338h34l-413 -1338h-316zM346 395l70 259h624l69 -259h-763zM337 1595l255 272h272l255 -272h-242l-174 197h50l-174 -197h-242zM898 1910q-67 0 -125 15.5t-111 31t-106 15.5q-58 0 -107.5 -15t-111.5 -52v139q55 37 106.5 50
t114.5 13q67 0 125 -16t111 -31.5t106 -15.5q59 0 108 15t111 52v-139q-55 -37 -106.5 -49.5t-114.5 -12.5z" />
    <glyph glyph-name="uni1EAB" unicode="&#x1eab;" horiz-adv-x="1117" 
d="M418 -20q-168 0 -261.5 87.5t-93.5 228.5q0 155 107.5 242t347.5 103l230 19l34 -176l-232 -19q-92 -7 -132.5 -42t-40.5 -96q0 -60 37 -92.5t108 -32.5q44 0 90 15.5t84 53.5v400q0 75 -24.5 118t-79 61.5t-145.5 18.5q-63 0 -143 -10.5t-153 -33.5v240
q80 23 175.5 34.5t177.5 11.5q174 0 285.5 -43t164.5 -143.5t53 -273.5v-651h-262l-22 109h-15q-49 -67 -125 -98t-165 -31zM171 1235l248 326h272l248 -326h-238l-171 241h50l-171 -241h-238zM724 1620q-67 0 -123.5 17t-109.5 34t-111 17q-60 0 -105.5 -15.5t-91.5 -47.5
v161q40 33 88 48.5t115 15.5t123.5 -17t109.5 -35t111 -18q60 0 105.5 16t91.5 48v-161q-39 -32 -87.5 -47.5t-115.5 -15.5z" />
    <glyph glyph-name="uni1EAC" unicode="&#x1eac;" horiz-adv-x="1457" 
d="M14 0l478 1480h473l478 -1480h-320l-414 1338h34l-413 -1338h-316zM346 395l70 259h624l69 -259h-763zM729 -418q-97 0 -146 38.5t-49 106.5q0 69 49 107t146 38t146 -38t49 -107q0 -68 -49 -106.5t-146 -38.5zM337 1595l255 303h272l255 -303h-242l-174 216h50
l-174 -216h-242z" />
    <glyph glyph-name="uni1EAD" unicode="&#x1ead;" horiz-adv-x="1117" 
d="M418 -20q-168 0 -261.5 87.5t-93.5 228.5q0 155 107.5 242t347.5 103l230 19l34 -176l-232 -19q-92 -7 -132.5 -42t-40.5 -96q0 -60 37 -92.5t108 -32.5q44 0 90 15.5t84 53.5v400q0 75 -24.5 118t-79 61.5t-145.5 18.5q-63 0 -143 -10.5t-153 -33.5v240
q80 23 175.5 34.5t177.5 11.5q174 0 285.5 -43t164.5 -143.5t53 -273.5v-651h-262l-22 109h-15q-49 -67 -125 -98t-165 -31zM559 -443q-83 0 -127.5 42.5t-44.5 114.5q0 73 44.5 115.5t127.5 42.5q84 0 128 -42.5t44 -115.5q0 -72 -44 -114.5t-128 -42.5zM192 1233l232 383
h262l232 -383h-228l-159 276h48l-159 -276h-228z" />
    <glyph glyph-name="uni1EAE" unicode="&#x1eae;" horiz-adv-x="1457" 
d="M14 0l478 1480h473l478 -1480h-320l-414 1338h34l-413 -1338h-316zM346 395l70 259h624l69 -259h-763zM728 1599q-170 0 -259 71t-106 189h170q13 -61 54 -94t141 -33q101 0 142.5 33t59.5 94h163q-17 -118 -106 -189t-259 -71zM641 1833l120 241h217l-163 -241h-174z
" />
    <glyph glyph-name="uni1EAF" unicode="&#x1eaf;" horiz-adv-x="1117" 
d="M418 -20q-168 0 -261.5 87.5t-93.5 228.5q0 155 107.5 242t347.5 103l230 19l34 -176l-232 -19q-92 -7 -132.5 -42t-40.5 -96q0 -60 37 -92.5t108 -32.5q44 0 90 15.5t84 53.5v400q0 75 -24.5 118t-79 61.5t-145.5 18.5q-63 0 -143 -10.5t-153 -33.5v240
q80 23 175.5 34.5t177.5 11.5q174 0 285.5 -43t164.5 -143.5t53 -273.5v-651h-262l-22 109h-15q-49 -67 -125 -98t-165 -31zM556 1245q-117 0 -197.5 39t-125.5 109.5t-54 166.5h194q11 -78 55 -119t128 -41t127 41t54 119h194q-9 -96 -54 -167t-125 -109.5t-196 -38.5z
M442 1597l181 271h271l-229 -271h-223z" />
    <glyph glyph-name="uni1EB0" unicode="&#x1eb0;" horiz-adv-x="1457" 
d="M14 0l478 1480h473l478 -1480h-320l-414 1338h34l-413 -1338h-316zM346 395l70 259h624l69 -259h-763zM728 1599q-170 0 -259 71t-106 189h163q19 -61 60.5 -94t141.5 -33q101 0 141.5 33t53.5 94h170q-17 -117 -106 -188.5t-259 -71.5zM641 1833l-163 241h217l120 -241
h-174z" />
    <glyph glyph-name="uni1EB1" unicode="&#x1eb1;" horiz-adv-x="1117" 
d="M418 -20q-168 0 -261.5 87.5t-93.5 228.5q0 155 107.5 242t347.5 103l230 19l34 -176l-232 -19q-92 -7 -132.5 -42t-40.5 -96q0 -60 37 -92.5t108 -32.5q44 0 90 15.5t84 53.5v400q0 75 -24.5 118t-79 61.5t-145.5 18.5q-63 0 -143 -10.5t-153 -33.5v240
q80 23 175.5 34.5t177.5 11.5q174 0 285.5 -43t164.5 -143.5t53 -273.5v-651h-262l-22 109h-15q-49 -67 -125 -98t-165 -31zM556 1245q-117 0 -197.5 39t-125.5 109.5t-54 166.5h194q11 -78 55 -119t128 -41t127 41t54 119h194q-9 -96 -54 -167t-125 -109.5t-196 -38.5z
M445 1597l-229 271h271l181 -271h-223z" />
    <glyph glyph-name="uni1EB2" unicode="&#x1eb2;" horiz-adv-x="1457" 
d="M14 0l478 1480h473l478 -1480h-320l-414 1338h34l-413 -1338h-316zM346 395l70 259h624l69 -259h-763zM727 1599q-169 0 -258 71t-106 189h170q13 -61 54 -94t140 -33q101 0 143 33t60 94h163q-17 -117 -106 -188.5t-260 -71.5zM648 1833q2 39 27.5 60.5t58 34.5t56.5 25
t24 29t-25.5 25.5t-84.5 8.5q-46 0 -94 -5t-98 -18v104q43 12 103 18.5t113 6.5q133 0 194 -30.5t61 -90.5q0 -37 -25 -59t-58.5 -37t-60.5 -30.5t-31 -41.5h-160z" />
    <glyph glyph-name="uni1EB3" unicode="&#x1eb3;" horiz-adv-x="1117" 
d="M418 -20q-168 0 -261.5 87.5t-93.5 228.5q0 155 107.5 242t347.5 103l230 19l34 -176l-232 -19q-92 -7 -132.5 -42t-40.5 -96q0 -60 37 -92.5t108 -32.5q44 0 90 15.5t84 53.5v400q0 75 -24.5 118t-79 61.5t-145.5 18.5q-63 0 -143 -10.5t-153 -33.5v240
q80 23 175.5 34.5t177.5 11.5q174 0 285.5 -43t164.5 -143.5t53 -273.5v-651h-262l-22 109h-15q-49 -67 -125 -98t-165 -31zM556 1245q-117 0 -197.5 39t-125.5 109.5t-54 166.5h194q11 -78 55 -119t128 -41t127 41t54 119h194q-9 -96 -54 -167t-125 -109.5t-196 -38.5z
M475 1597q2 39 27.5 60.5t58 35t56.5 25t24 28.5t-25.5 25.5t-84.5 8.5q-46 0 -94 -5t-98 -18v104q43 12 103 18.5t113 6.5q133 0 194 -30.5t61 -89.5q0 -38 -25 -60t-58.5 -37t-60.5 -30.5t-31 -41.5h-160z" />
    <glyph glyph-name="uni1EB4" unicode="&#x1eb4;" horiz-adv-x="1457" 
d="M14 0l478 1480h473l478 -1480h-320l-414 1338h34l-413 -1338h-316zM346 395l70 259h624l69 -259h-763zM727 1599q-169 0 -258 71t-106 189h170q13 -61 54 -94t140 -33q101 0 142 33t54 94h170q-17 -117 -106 -188.5t-260 -71.5zM880 1910q-59 0 -111.5 15.5t-100.5 31
t-95 15.5q-55 0 -101.5 -15t-108.5 -52v139q56 37 104.5 50t108.5 13q59 0 111.5 -16t100.5 -31.5t95 -15.5q55 0 102 15t108 52v-139q-55 -37 -104 -49.5t-109 -12.5z" />
    <glyph glyph-name="uni1EB5" unicode="&#x1eb5;" horiz-adv-x="1117" 
d="M418 -20q-168 0 -261.5 87.5t-93.5 228.5q0 155 107.5 242t347.5 103l230 19l34 -176l-232 -19q-92 -7 -132.5 -42t-40.5 -96q0 -60 37 -92.5t108 -32.5q44 0 90 15.5t84 53.5v400q0 75 -24.5 118t-79 61.5t-145.5 18.5q-63 0 -143 -10.5t-153 -33.5v240
q80 23 175.5 34.5t177.5 11.5q174 0 285.5 -43t164.5 -143.5t53 -273.5v-651h-262l-22 109h-15q-49 -67 -125 -98t-165 -31zM556 1245q-117 0 -197.5 39t-125.5 109.5t-54 166.5h194q11 -78 55 -119t128 -41t127 41t54 119h194q-9 -96 -54 -167t-125 -109.5t-196 -38.5z
M729 1620q-69 0 -127 17t-112.5 34t-114.5 17q-62 0 -108.5 -15.5t-94.5 -47.5v160q41 34 91 49.5t118 15.5q69 0 127 -17t112.5 -34.5t114.5 -17.5q62 0 109 16t94 47v-160q-41 -34 -90.5 -49t-118.5 -15z" />
    <glyph glyph-name="uni1EB6" unicode="&#x1eb6;" horiz-adv-x="1457" 
d="M14 0l478 1480h473l478 -1480h-320l-414 1338h34l-413 -1338h-316zM346 395l70 259h624l69 -259h-763zM729 -418q-97 0 -146 38.5t-49 106.5q0 69 49 107t146 38t146 -38t49 -107q0 -68 -49 -106.5t-146 -38.5zM729 1599q-119 0 -200.5 36t-127 101.5t-55.5 152.5h195
q11 -65 55.5 -100t132.5 -35t131.5 35t54.5 100h195q-10 -88 -55 -153t-126 -101t-200 -36z" />
    <glyph glyph-name="uni1EB7" unicode="&#x1eb7;" horiz-adv-x="1117" 
d="M418 -20q-168 0 -261.5 87.5t-93.5 228.5q0 155 107.5 242t347.5 103l230 19l34 -176l-232 -19q-92 -7 -132.5 -42t-40.5 -96q0 -60 37 -92.5t108 -32.5q44 0 90 15.5t84 53.5v400q0 75 -24.5 118t-79 61.5t-145.5 18.5q-63 0 -143 -10.5t-153 -33.5v240
q80 23 175.5 34.5t177.5 11.5q174 0 285.5 -43t164.5 -143.5t53 -273.5v-651h-262l-22 109h-15q-49 -67 -125 -98t-165 -31zM559 -443q-83 0 -127.5 42.5t-44.5 114.5q0 73 44.5 115.5t127.5 42.5q84 0 128 -42.5t44 -115.5q0 -72 -44 -114.5t-128 -42.5zM556 1242
q-165 0 -260 90t-105 262h194q7 -95 49 -142t122 -47t121.5 47t47.5 142h194q-9 -173 -103.5 -262.5t-259.5 -89.5z" />
    <glyph glyph-name="uni1EB8" unicode="&#x1eb8;" horiz-adv-x="1254" 
d="M133 0v1480h1039v-260h-718v-960h728v-260h-1049zM326 627v260h744v-260h-744zM675 -418q-97 0 -146 38.5t-49 106.5q0 69 49 107t146 38t146 -38t49 -107q0 -68 -49 -106.5t-146 -38.5z" />
    <glyph glyph-name="uni1EB9" unicode="&#x1eb9;" horiz-adv-x="1109" 
d="M670 -21q-206 0 -339 59t-197.5 185t-64.5 325q0 181 59.5 307t173 191t275.5 65q155 0 261 -65.5t160 -193.5t54 -314v-83h-801v183h555l-51 -19q0 108 -20 172t-60.5 91t-100.5 27q-61 0 -102.5 -27t-63 -90.5t-21.5 -171.5v-128q0 -101 29.5 -160.5t101 -85.5
t197.5 -26q64 0 134.5 9.5t141.5 25.5v-239q-87 -20 -165.5 -28.5t-155.5 -8.5zM571 -443q-83 0 -127.5 42.5t-44.5 114.5q0 73 44.5 115.5t127.5 42.5q84 0 128 -42.5t44 -115.5q0 -72 -44 -114.5t-128 -42.5z" />
    <glyph glyph-name="uni1EBA" unicode="&#x1eba;" horiz-adv-x="1254" 
d="M133 0v1480h1039v-260h-718v-960h728v-260h-1049zM326 627v260h744v-260h-744zM595 1595q3 51 38.5 76t70.5 41q23 11 40 21t17 26q0 19 -25.5 28.5t-84.5 9.5q-46 0 -94 -6t-98 -19v119q43 13 103 19.5t113 6.5q133 0 194 -34t61 -100q0 -47 -32.5 -72.5t-67.5 -44.5
q-27 -14 -49.5 -30t-25.5 -41h-160z" />
    <glyph glyph-name="uni1EBB" unicode="&#x1ebb;" horiz-adv-x="1109" 
d="M670 -21q-206 0 -339 59t-197.5 185t-64.5 325q0 181 59.5 307t173 191t275.5 65q155 0 261 -65.5t160 -193.5t54 -314v-83h-801v183h555l-51 -19q0 108 -20 172t-60.5 91t-100.5 27q-61 0 -102.5 -27t-63 -90.5t-21.5 -171.5v-128q0 -101 29.5 -160.5t101 -85.5
t197.5 -26q64 0 134.5 9.5t141.5 25.5v-239q-87 -20 -165.5 -28.5t-155.5 -8.5zM491 1233q2 56 25.5 88t52.5 52.5t50.5 38.5t21.5 43t-23 37t-74 12q-39 0 -81 -5.5t-85 -18.5v123q38 12 91 18.5t97 6.5q125 0 184.5 -38t59.5 -115q0 -52 -22.5 -81.5t-53 -50.5t-55 -44.5
t-28.5 -65.5h-160z" />
    <glyph glyph-name="uni1EBC" unicode="&#x1ebc;" horiz-adv-x="1254" 
d="M133 0v1480h1039v-260h-718v-960h728v-260h-1049zM326 627v260h744v-260h-744zM847 1619q-53 0 -99 13t-90 27q-39 14 -78.5 25t-82.5 11q-61 0 -107 -17.5t-92 -52.5v183q40 37 88.5 55t116.5 18q54 0 100 -13t89 -28q40 -14 79.5 -25.5t81.5 -11.5q61 0 107 17.5
t92 52.5v-183q-39 -36 -88 -53.5t-117 -17.5z" />
    <glyph glyph-name="uni1EBD" unicode="&#x1ebd;" horiz-adv-x="1109" 
d="M670 -21q-206 0 -339 59t-197.5 185t-64.5 325q0 181 59.5 307t173 191t275.5 65q155 0 261 -65.5t160 -193.5t54 -314v-83h-801v183h555l-51 -19q0 108 -20 172t-60.5 91t-100.5 27q-61 0 -102.5 -27t-63 -90.5t-21.5 -171.5v-128q0 -101 29.5 -160.5t101 -85.5
t197.5 -26q64 0 134.5 9.5t141.5 25.5v-239q-87 -20 -165.5 -28.5t-155.5 -8.5zM729 1285q-48 0 -91.5 16t-83.5 33q-37 17 -73 30t-73 13q-56 0 -101 -20t-91 -65v200q76 77 197 77q49 0 92 -15.5t83 -33.5q37 -16 73 -29.5t73 -13.5q57 0 102 20.5t90 64.5v-200
q-76 -77 -197 -77z" />
    <glyph glyph-name="uni1EBE" unicode="&#x1ebe;" horiz-adv-x="1254" 
d="M133 0v1480h1039v-260h-718v-960h728v-260h-1049zM326 627v260h744v-260h-744zM284 1595l255 272h272l255 -272h-242l-174 197h50l-174 -197h-242zM926 1817l119 247h217l-163 -247h-173z" />
    <glyph glyph-name="uni1EBF" unicode="&#x1ebf;" horiz-adv-x="1109" 
d="M670 -21q-206 0 -339 59t-197.5 185t-64.5 325q0 181 59.5 307t173 191t275.5 65q155 0 261 -65.5t160 -193.5t54 -314v-83h-801v183h555l-51 -19q0 108 -20 172t-60.5 91t-100.5 27q-61 0 -102.5 -27t-63 -90.5t-21.5 -171.5v-128q0 -101 29.5 -160.5t101 -85.5
t197.5 -26q64 0 134.5 9.5t141.5 25.5v-239q-87 -20 -165.5 -28.5t-155.5 -8.5zM208 1233l232 383h262l232 -383h-228l-159 276h48l-159 -276h-228zM799 1597l181 271h271l-229 -271h-223z" />
    <glyph glyph-name="uni1EC0" unicode="&#x1ec0;" horiz-adv-x="1254" 
d="M133 0v1480h1039v-260h-718v-960h728v-260h-1049zM326 627v260h744v-260h-744zM286 1595l255 272h272l255 -272h-242l-174 197h50l-174 -197h-242zM961 1817l-163 247h217l120 -247h-174z" />
    <glyph glyph-name="uni1EC1" unicode="&#x1ec1;" horiz-adv-x="1109" 
d="M670 -21q-206 0 -339 59t-197.5 185t-64.5 325q0 181 59.5 307t173 191t275.5 65q155 0 261 -65.5t160 -193.5t54 -314v-83h-801v183h555l-51 -19q0 108 -20 172t-60.5 91t-100.5 27q-61 0 -102.5 -27t-63 -90.5t-21.5 -171.5v-128q0 -101 29.5 -160.5t101 -85.5
t197.5 -26q64 0 134.5 9.5t141.5 25.5v-239q-87 -20 -165.5 -28.5t-155.5 -8.5zM208 1233l232 383h262l233 -383h-229l-158 276h47l-159 -276h-228zM833 1597l-229 271h271l181 -271h-223z" />
    <glyph glyph-name="uni1EC2" unicode="&#x1ec2;" horiz-adv-x="1254" 
d="M133 0v1480h1039v-260h-718v-960h728v-260h-1049zM326 627v260h744v-260h-744zM284 1595l255 272h272l255 -272h-242l-174 197h50l-174 -197h-242zM925 1817q2 39 27.5 60.5t58 34.5t56.5 24.5t24 29.5q0 17 -25.5 25.5t-83.5 8.5q-47 0 -94.5 -5t-98.5 -18v104
q43 12 103.5 18.5t113.5 6.5q132 0 193 -30.5t61 -90.5q0 -37 -25 -59t-58.5 -37t-60.5 -30.5t-31 -41.5h-160z" />
    <glyph glyph-name="uni1EC3" unicode="&#x1ec3;" horiz-adv-x="1109" 
d="M670 -21q-206 0 -339 59t-197.5 185t-64.5 325q0 181 59.5 307t173 191t275.5 65q155 0 261 -65.5t160 -193.5t54 -314v-83h-801v183h555l-51 -19q0 108 -20 172t-60.5 91t-100.5 27q-61 0 -102.5 -27t-63 -90.5t-21.5 -171.5v-128q0 -101 29.5 -160.5t101 -85.5
t197.5 -26q64 0 134.5 9.5t141.5 25.5v-239q-87 -20 -165.5 -28.5t-155.5 -8.5zM208 1233l232 383h262l232 -383h-228l-159 276h48l-159 -276h-228zM800 1597q3 41 27 63.5t53.5 35.5t51.5 23.5t22 26.5q0 18 -23 27t-79 9q-45 0 -92 -5.5t-90 -17.5v102q39 12 98 18.5
t108 6.5q125 0 183 -29t58 -91q0 -36 -23.5 -56t-55 -34t-57 -31.5t-30.5 -47.5h-151z" />
    <glyph glyph-name="uni1EC4" unicode="&#x1ec4;" horiz-adv-x="1254" 
d="M133 0v1480h1039v-260h-718v-960h728v-260h-1049zM326 627v260h744v-260h-744zM284 1595l255 272h272l255 -272h-242l-174 197h50l-174 -197h-242zM845 1910q-67 0 -125 15.5t-111 31t-106 15.5q-58 0 -107.5 -15t-111.5 -52v139q55 37 106.5 50t114.5 13q67 0 125 -16
t111 -31.5t106 -15.5q59 0 108 15t111 52v-139q-55 -37 -106.5 -49.5t-114.5 -12.5z" />
    <glyph glyph-name="uni1EC5" unicode="&#x1ec5;" horiz-adv-x="1109" 
d="M670 -21q-206 0 -339 59t-197.5 185t-64.5 325q0 181 59.5 307t173 191t275.5 65q155 0 261 -65.5t160 -193.5t54 -314v-83h-801v183h555l-51 -19q0 108 -20 172t-60.5 91t-100.5 27q-61 0 -102.5 -27t-63 -90.5t-21.5 -171.5v-128q0 -101 29.5 -160.5t101 -85.5
t197.5 -26q64 0 134.5 9.5t141.5 25.5v-239q-87 -20 -165.5 -28.5t-155.5 -8.5zM187 1235l248 326h272l248 -326h-238l-171 241h50l-171 -241h-238zM740 1620q-67 0 -123.5 17t-109.5 34t-111 17q-60 0 -105.5 -15.5t-91.5 -47.5v161q40 33 88 48.5t115 15.5t123.5 -17
t109.5 -35t111 -18q60 0 105.5 16t91.5 48v-161q-39 -32 -87.5 -47.5t-115.5 -15.5z" />
    <glyph glyph-name="uni1EC6" unicode="&#x1ec6;" horiz-adv-x="1254" 
d="M133 0v1480h1039v-260h-718v-960h728v-260h-1049zM326 627v260h744v-260h-744zM675 -418q-97 0 -146 38.5t-49 106.5q0 69 49 107t146 38t146 -38t49 -107q0 -68 -49 -106.5t-146 -38.5zM284 1595l255 303h272l255 -303h-242l-174 216h50l-174 -216h-242z" />
    <glyph glyph-name="uni1EC7" unicode="&#x1ec7;" horiz-adv-x="1109" 
d="M670 -21q-206 0 -339 59t-197.5 185t-64.5 325q0 181 59.5 307t173 191t275.5 65q155 0 261 -65.5t160 -193.5t54 -314v-83h-801v183h555l-51 -19q0 108 -20 172t-60.5 91t-100.5 27q-61 0 -102.5 -27t-63 -90.5t-21.5 -171.5v-128q0 -101 29.5 -160.5t101 -85.5
t197.5 -26q64 0 134.5 9.5t141.5 25.5v-239q-87 -20 -165.5 -28.5t-155.5 -8.5zM571 -443q-83 0 -127.5 42.5t-44.5 114.5q0 73 44.5 115.5t127.5 42.5q84 0 128 -42.5t44 -115.5q0 -72 -44 -114.5t-128 -42.5zM208 1233l232 383h262l232 -383h-228l-159 276h48l-159 -276
h-228z" />
    <glyph glyph-name="uni1EC8" unicode="&#x1ec8;" horiz-adv-x="591" 
d="M133 0v1480h325v-1480h-325zM216 1595q3 51 38.5 76t70.5 41q23 11 40 21t17 26q0 19 -25.5 28.5t-84.5 9.5q-46 0 -94 -6t-98 -19v119q43 13 103 19.5t113 6.5q133 0 194 -34t61 -100q0 -47 -32.5 -72.5t-67.5 -44.5q-27 -14 -49.5 -30t-25.5 -41h-160z" />
    <glyph glyph-name="uni1EC9" unicode="&#x1ec9;" horiz-adv-x="557" 
d="M119 0v1094h319v-1094h-319zM198 1233q2 56 25.5 88t52.5 52.5t50.5 38.5t21.5 43t-23 37t-74 12q-39 0 -81 -5.5t-85 -18.5v123q38 12 91 18.5t97 6.5q125 0 184.5 -38t59.5 -115q0 -52 -22.5 -81.5t-53 -50.5t-55 -44.5t-28.5 -65.5h-160z" />
    <glyph glyph-name="uni1ECA" unicode="&#x1eca;" horiz-adv-x="591" 
d="M133 0v1480h325v-1480h-325zM295 -418q-97 0 -146 38.5t-49 106.5q0 69 49 107t146 38t146 -38t49 -107q0 -68 -49 -106.5t-146 -38.5z" />
    <glyph glyph-name="uni1ECB" unicode="&#x1ecb;" horiz-adv-x="557" 
d="M119 0v1094h319v-1094h-319zM278 1253q-100 0 -148.5 44t-48.5 122q0 80 48.5 123.5t148.5 43.5q101 0 149 -43.5t48 -123.5q0 -78 -48 -122t-149 -44zM278 -443q-83 0 -127.5 42.5t-44.5 114.5q0 73 44.5 115.5t127.5 42.5q84 0 128 -42.5t44 -115.5q0 -72 -44 -114.5
t-128 -42.5z" />
    <glyph glyph-name="uni1ECC" unicode="&#x1ecc;" horiz-adv-x="1562" 
d="M781 -19q-211 0 -367.5 82t-243 250.5t-86.5 426.5t86.5 426.5t243 250.5t367.5 82t367.5 -82.5t243 -251t86.5 -425.5t-86.5 -425.5t-243.5 -251t-367 -82.5zM781 243q114 0 195.5 49.5t125 157.5t43.5 283q0 182 -44 292.5t-125.5 161t-194.5 50.5t-194.5 -49
t-125.5 -157t-44 -284q0 -183 43.5 -293.5t125 -160.5t195.5 -50zM781 -418q-97 0 -146 38.5t-49 106.5q0 69 49 107t146 38t146 -38t49 -107q0 -68 -49 -106.5t-146 -38.5z" />
    <glyph glyph-name="uni1ECD" unicode="&#x1ecd;" horiz-adv-x="1204" 
d="M602 -21q-164 0 -283.5 62.5t-184.5 188t-65 314.5q0 191 63.5 317t183 188t286.5 62t286.5 -62.5t183 -188t63.5 -314.5q0 -190 -65 -316t-184.5 -188.5t-283.5 -62.5zM602 221q67 0 114.5 29t72.5 99.5t25 193.5q0 126 -25 197t-72.5 100.5t-114.5 29.5t-114.5 -29
t-72.5 -99.5t-25 -194.5q0 -126 25 -197t72.5 -100t114.5 -29zM602 -443q-83 0 -127.5 42.5t-44.5 114.5q0 73 44.5 115.5t127.5 42.5q84 0 128 -42.5t44 -115.5q0 -72 -44 -114.5t-128 -42.5z" />
    <glyph glyph-name="uni1ECE" unicode="&#x1ece;" horiz-adv-x="1562" 
d="M781 -19q-211 0 -367.5 82t-243 250.5t-86.5 426.5t86.5 426.5t243 250.5t367.5 82t367.5 -82.5t243 -251t86.5 -425.5t-86.5 -425.5t-243.5 -251t-367 -82.5zM781 243q114 0 195.5 49.5t125 157.5t43.5 283q0 182 -44 292.5t-125.5 161t-194.5 50.5t-194.5 -49
t-125.5 -157t-44 -284q0 -183 43.5 -293.5t125 -160.5t195.5 -50zM701 1595q3 51 38.5 76t70.5 41q23 11 40 21t17 26q0 19 -25.5 28.5t-84.5 9.5q-46 0 -94 -6t-98 -19v119q43 13 103 19.5t113 6.5q133 0 194 -34t61 -100q0 -47 -32.5 -72.5t-67.5 -44.5q-27 -14 -49.5 -30
t-25.5 -41h-160z" />
    <glyph glyph-name="uni1ECF" unicode="&#x1ecf;" horiz-adv-x="1204" 
d="M602 -21q-164 0 -283.5 62.5t-184.5 188t-65 314.5q0 191 63.5 317t183 188t286.5 62t286.5 -62.5t183 -188t63.5 -314.5q0 -190 -65 -316t-184.5 -188.5t-283.5 -62.5zM602 221q67 0 114.5 29t72.5 99.5t25 193.5q0 126 -25 197t-72.5 100.5t-114.5 29.5t-114.5 -29
t-72.5 -99.5t-25 -194.5q0 -126 25 -197t72.5 -100t114.5 -29zM522 1233q2 56 25.5 88t52.5 52.5t50.5 38.5t21.5 43t-23 37t-74 12q-39 0 -81 -5.5t-85 -18.5v123q38 12 91 18.5t97 6.5q125 0 184.5 -38t59.5 -115q0 -52 -22.5 -81.5t-53 -50.5t-55 -44.5t-28.5 -65.5h-160
z" />
    <glyph glyph-name="uni1ED0" unicode="&#x1ed0;" horiz-adv-x="1562" 
d="M781 -19q-211 0 -367.5 82t-243 250.5t-86.5 426.5t86.5 426.5t243 250.5t367.5 82t367.5 -82.5t243 -251t86.5 -425.5t-86.5 -425.5t-243.5 -251t-367 -82.5zM781 243q114 0 195.5 49.5t125 157.5t43.5 283q0 182 -44 292.5t-125.5 161t-194.5 50.5t-194.5 -49
t-125.5 -157t-44 -284q0 -183 43.5 -293.5t125 -160.5t195.5 -50zM390 1595l255 272h272l255 -272h-242l-174 197h50l-174 -197h-242zM1032 1817l119 247h217l-163 -247h-173z" />
    <glyph glyph-name="uni1ED1" unicode="&#x1ed1;" horiz-adv-x="1204" 
d="M602 -21q-164 0 -283.5 62.5t-184.5 188t-65 314.5q0 191 63.5 317t183 188t286.5 62t286.5 -62.5t183 -188t63.5 -314.5q0 -190 -65 -316t-184.5 -188.5t-283.5 -62.5zM602 221q67 0 114.5 29t72.5 99.5t25 193.5q0 126 -25 197t-72.5 100.5t-114.5 29.5t-114.5 -29
t-72.5 -99.5t-25 -194.5q0 -126 25 -197t72.5 -100t114.5 -29zM239 1233l232 383h262l232 -383h-228l-159 276h48l-159 -276h-228zM830 1597l181 271h271l-229 -271h-223z" />
    <glyph glyph-name="uni1ED2" unicode="&#x1ed2;" horiz-adv-x="1562" 
d="M781 -19q-211 0 -367.5 82t-243 250.5t-86.5 426.5t86.5 426.5t243 250.5t367.5 82t367.5 -82.5t243 -251t86.5 -425.5t-86.5 -425.5t-243.5 -251t-367 -82.5zM781 243q114 0 195.5 49.5t125 157.5t43.5 283q0 182 -44 292.5t-125.5 161t-194.5 50.5t-194.5 -49
t-125.5 -157t-44 -284q0 -183 43.5 -293.5t125 -160.5t195.5 -50zM392 1595l255 272h272l255 -272h-242l-174 197h50l-174 -197h-242zM1067 1817l-163 247h217l120 -247h-174z" />
    <glyph glyph-name="uni1ED3" unicode="&#x1ed3;" horiz-adv-x="1204" 
d="M602 -21q-164 0 -283.5 62.5t-184.5 188t-65 314.5q0 191 63.5 317t183 188t286.5 62t286.5 -62.5t183 -188t63.5 -314.5q0 -190 -65 -316t-184.5 -188.5t-283.5 -62.5zM602 221q67 0 114.5 29t72.5 99.5t25 193.5q0 126 -25 197t-72.5 100.5t-114.5 29.5t-114.5 -29
t-72.5 -99.5t-25 -194.5q0 -126 25 -197t72.5 -100t114.5 -29zM239 1233l232 383h262l233 -383h-229l-158 276h47l-159 -276h-228zM864 1597l-229 271h271l181 -271h-223z" />
    <glyph glyph-name="uni1ED4" unicode="&#x1ed4;" horiz-adv-x="1562" 
d="M781 -19q-211 0 -367.5 82t-243 250.5t-86.5 426.5t86.5 426.5t243 250.5t367.5 82t367.5 -82.5t243 -251t86.5 -425.5t-86.5 -425.5t-243.5 -251t-367 -82.5zM781 243q114 0 195.5 49.5t125 157.5t43.5 283q0 182 -44 292.5t-125.5 161t-194.5 50.5t-194.5 -49
t-125.5 -157t-44 -284q0 -183 43.5 -293.5t125 -160.5t195.5 -50zM390 1595l255 272h272l255 -272h-242l-174 197h50l-174 -197h-242zM1031 1817q2 39 27.5 60.5t58 34.5t56.5 24.5t24 29.5q0 17 -25.5 25.5t-83.5 8.5q-47 0 -94.5 -5t-98.5 -18v104q43 12 103.5 18.5
t113.5 6.5q132 0 193 -30.5t61 -90.5q0 -37 -25 -59t-58.5 -37t-60.5 -30.5t-31 -41.5h-160z" />
    <glyph glyph-name="uni1ED5" unicode="&#x1ed5;" horiz-adv-x="1204" 
d="M602 -21q-164 0 -283.5 62.5t-184.5 188t-65 314.5q0 191 63.5 317t183 188t286.5 62t286.5 -62.5t183 -188t63.5 -314.5q0 -190 -65 -316t-184.5 -188.5t-283.5 -62.5zM602 221q67 0 114.5 29t72.5 99.5t25 193.5q0 126 -25 197t-72.5 100.5t-114.5 29.5t-114.5 -29
t-72.5 -99.5t-25 -194.5q0 -126 25 -197t72.5 -100t114.5 -29zM239 1233l232 383h262l232 -383h-228l-159 276h48l-159 -276h-228zM831 1597q3 41 27 63.5t53.5 35.5t51.5 23.5t22 26.5q0 18 -23 27t-79 9q-45 0 -92 -5.5t-90 -17.5v102q39 12 98 18.5t108 6.5
q125 0 183 -29t58 -91q0 -36 -23.5 -56t-55 -34t-57 -31.5t-30.5 -47.5h-151z" />
    <glyph glyph-name="uni1ED6" unicode="&#x1ed6;" horiz-adv-x="1562" 
d="M781 -19q-211 0 -367.5 82t-243 250.5t-86.5 426.5t86.5 426.5t243 250.5t367.5 82t367.5 -82.5t243 -251t86.5 -425.5t-86.5 -425.5t-243.5 -251t-367 -82.5zM781 243q114 0 195.5 49.5t125 157.5t43.5 283q0 182 -44 292.5t-125.5 161t-194.5 50.5t-194.5 -49
t-125.5 -157t-44 -284q0 -183 43.5 -293.5t125 -160.5t195.5 -50zM390 1595l255 272h272l255 -272h-242l-174 197h50l-174 -197h-242zM951 1910q-67 0 -125 15.5t-111 31t-106 15.5q-58 0 -107.5 -15t-111.5 -52v139q55 37 106.5 50t114.5 13q67 0 125 -16t111 -31.5
t106 -15.5q59 0 108 15t111 52v-139q-55 -37 -106.5 -49.5t-114.5 -12.5z" />
    <glyph glyph-name="uni1ED7" unicode="&#x1ed7;" horiz-adv-x="1204" 
d="M602 -21q-164 0 -283.5 62.5t-184.5 188t-65 314.5q0 191 63.5 317t183 188t286.5 62t286.5 -62.5t183 -188t63.5 -314.5q0 -190 -65 -316t-184.5 -188.5t-283.5 -62.5zM602 221q67 0 114.5 29t72.5 99.5t25 193.5q0 126 -25 197t-72.5 100.5t-114.5 29.5t-114.5 -29
t-72.5 -99.5t-25 -194.5q0 -126 25 -197t72.5 -100t114.5 -29zM218 1235l248 326h272l248 -326h-238l-171 241h50l-171 -241h-238zM771 1620q-67 0 -123.5 17t-109.5 34t-111 17q-60 0 -105.5 -15.5t-91.5 -47.5v161q40 33 88 48.5t115 15.5t123.5 -17t109.5 -35t111 -18
q60 0 105.5 16t91.5 48v-161q-39 -32 -87.5 -47.5t-115.5 -15.5z" />
    <glyph glyph-name="uni1ED8" unicode="&#x1ed8;" horiz-adv-x="1562" 
d="M781 -19q-211 0 -367.5 82t-243 250.5t-86.5 426.5t86.5 426.5t243 250.5t367.5 82t367.5 -82.5t243 -251t86.5 -425.5t-86.5 -425.5t-243.5 -251t-367 -82.5zM781 243q114 0 195.5 49.5t125 157.5t43.5 283q0 182 -44 292.5t-125.5 161t-194.5 50.5t-194.5 -49
t-125.5 -157t-44 -284q0 -183 43.5 -293.5t125 -160.5t195.5 -50zM781 -418q-97 0 -146 38.5t-49 106.5q0 69 49 107t146 38t146 -38t49 -107q0 -68 -49 -106.5t-146 -38.5zM390 1595l255 303h272l255 -303h-242l-174 216h50l-174 -216h-242z" />
    </font>
</defs>
</svg>
